#TITLE:Black Butterfly;
#SUBTITLE:(The Maid and the Pocketwatch of Blood remix);
#ARTIST:Kokucho ft. Yuki;
#TITLETRANSLIT:;
#SUBTITLETRANSLIT:;
#ARTISTTRANSLIT:;
#GENRE:Touhou;
#CREDIT:;
#MENUCOLOR:;
#METERTYPE:DDR;
#BANNER:;
#BACKGROUND:;
#LYRICSPATH:;
#CDTITLE:;
#MUSIC:[ROUND 1] Black Butterfly (The Maid and the Pocketwatch of Blood remix).mp3;
#OFFSET:-0.741;
#SAMPLESTART:51.590;
#SAMPLELENGTH:12.000;
#SELECTABLE:YES;
#LISTSORT:;
#BPMS:0.000=165.000;
#STOPS:;
#BGCHANGES:;
#ATTACKS:;

//---------------dance-single - ----------------
#NOTES:
     dance-single:
     :
     Medium:
     6:
     0.418,0.575,0.054,0.185,0.000:
1000
0100
0100
1000
,
0001
0001
0100
0010
,
0010
0100
0001
0001
,
1000
0010
0010
1000
,
0001
0001
0010
0100
,
0100
0010
0001
0010
,
0001
1000
1000
0001
,
0010
0010
0100
1000
,
1000
0100
0010
0010
,
0001
1000
1000
0001
,
0010
0010
0100
0010
,
0010
0100
1000
1000
,
0010
1000
0010
0010
,
1000
0010
1000
1000
,
0001
0100
0001
0001
,
0100
0001
0100
0100
,
0010
0100
0001
1000
,
0001
0010
0001
0100
,
0010
0000
0010
1000
0000
1000
0100
0000
,
0010
0100
0100
0100
,
1000
0100
0100
0010
,
0001
0001
1000
0001
,
0100
0010
0010
1000
,
0010
0010
0100
0001
,
0010
0001
0001
1000
,
0100
0100
0010
0001
,
0100
0000
0010
1000
0000
1000
0010
0000
,
1000
1000
1000
1000
,
0001
0100
0100
0001
,
0010
0010
0001
1000
,
0100
0010
0010
0100
,
0001
0001
0100
0010
,
0001
0100
0100
0010
,
1000
1000
0001
0100
,
0001
0010
0010
0010
,
0001
0100
0100
0100
,
0010
1000
0100
1000
,
0010
1000
0010
1000
,
0001
0010
0100
0010
,
0001
0010
0001
0100
,
0010
1000
0001
0010
,
0100
0100
1000
0010
,
1000
0000
1000
0010
0000
0010
0100
0000
,
0001
0010
0010
0010
,
0100
1000
0100
0010
,
0001
0010
0100
1000
,
0100
0010
0001
0010
,
0100
1000
0001
0100
,
0001
1000
0100
1000
,
0001
0100
0001
1000
,
0001
0010
0010
0100
,
0010
0010
1000
0010
,
0100
1000
0010
0010
,
0100
0001
0001
1000
,
0010
0010
0100
0001
,
0010
0100
1000
0001
,
2000
0100
0001
0100
,
0100
0001
0100
3200
,
0320
0001
0001
0100
,
0001
0001
0100
0032
,
0203
0010
0010
0001
,
0010
0010
0001
0302
,
0013
0000
0010
0100
0000
0010
0100
0000
,
2200
0000
0000
3300
,
0002
0100
1000
1000
,
0100
0100
1000
0203
,
0320
0100
1000
0100
,
0100
0000
1000
0000
1000
0000
0230
0300
,
0101
0100
0001
0100
,
0101
0010
1000
0010
,
2020
3030
0220
0330
,
0202
0303
2002
3003
,
1000
0001
1000
0100
,
1000
0001
0100
0001
,
1000
0010
1000
0001
,
1000
0010
1000
0001
,
0100
0001
0010
0100
,
1000
0001
0010
0100
,
1000
0001
0100
0001
,
1000
0010
1000
0001
,
0100
0010
0001
0010
,
0100
0010
0001
0010
,
0100
0010
0001
0010
,
0100
0010
0001
0010
,
1000
0001
0010
0100
,
1000
0001
0010
0100
,
1000
0001
0100
0010
,
2000
3000
0200
0300
2000
3000
0002
0003
;

//---------------dance-single - ----------------
#NOTES:
     dance-single:
     :
     Easy:
     4:
     0.351,0.405,0.031,0.369,0.000:
1000
2000
3000
0100
,
0200
0300
0010
0020
,
0030
0001
0002
0003
,
1000
2000
3000
0001
,
0002
0003
0100
0200
,
0300
0010
0020
0030
,
2000
3001
0001
0002
,
1003
1000
0200
0310
,
0010
0020
0130
0100
,
0002
1003
1000
2000
,
3010
0010
0200
0301
,
0001
0020
0031
0001
,
1000
1000
0100
0100
,
0010
0010
0002
0003
,
0001
0001
0010
0010
,
0100
0100
2000
3000
,
0100
0100
0100
0001
,
0001
0001
1000
2000
,
0100
0000
0000
0001
0000
0000
0200
0000
,
3000
0000
0000
0300
,
1000
1000
0001
0001
,
1000
1000
0200
0300
,
0001
0001
0010
0010
,
0001
0001
2000
3000
,
1000
1000
0010
0010
,
0100
0100
0001
0001
,
0010
0000
0000
0100
0000
0000
1000
0000
,
0001
0000
0000
0000
,
0001
0001
0010
0001
,
0001
0010
0010
0000
,
1000
1000
0010
1000
,
1000
0010
0010
0000
,
0100
0001
0001
0100
,
0001
0001
0100
0000
,
0010
0000
0000
0010
0000
0000
0020
0000
,
0030
0000
0000
0000
,
0020
0100
0100
0000
,
0100
0100
0000
0130
,
0200
0001
0001
0000
,
0001
0001
0000
0301
,
0002
1000
1000
0000
,
1000
1000
0000
1003
,
1000
0000
0000
0001
0000
0000
1000
0000
,
2002
0000
3003
0000
,
1000
1000
1000
0001
,
0001
0001
1000
1000
,
1000
0001
0001
0001
,
0010
0010
0010
0100
,
0100
0100
0010
0010
,
0010
0100
0100
0100
,
1000
0001
1000
0000
,
1000
0001
0000
0001
,
1000
0000
1000
0001
,
2000
0001
3001
0002
,
1000
1003
2002
0000
,
0000
0000
0000
3003
,
2000
0000
3000
0200
0000
0300
2000
0000
,
3000
0001
0001
0001
,
0200
0000
0300
0002
0000
0003
0200
0000
,
0300
0000
0000
0000
0000
0000
0001
0001
,
0002
0000
0003
1000
,
0001
0000
0000
0001
0000
0000
1001
0000
,
1001
0000
0000
1000
0000
0000
1000
0000
,
2000
0000
0000
3000
,
0200
0000
0300
0002
0000
0003
0200
0000
,
0300
0010
0010
0010
,
2000
0000
3000
0002
0000
0003
2000
0000
,
3000
0000
0000
0000
0000
0000
0100
0100
,
0200
0000
0300
0100
,
0010
0000
0010
0000
,
0001
0000
1000
0000
,
0001
0001
0001
0001
,
1000
0100
0100
0000
,
0001
0010
0010
0000
,
0100
1000
1000
0000
,
1000
0001
0001
0000
,
0100
0001
0001
0000
,
0001
1000
1000
0000
,
0010
0100
0100
0010
,
0020
0000
0000
0030
,
0100
0001
0001
0000
,
1000
0001
0001
0000
,
0100
0010
0010
0000
,
1000
0100
0100
0000
,
0010
0001
1000
0000
,
0001
1000
0100
0000
,
1000
0100
0010
0001
,
1000
0100
0010
0001
;

//---------------dance-single - ----------------
#NOTES:
     dance-single:
     :
     Beginner:
     3:
     0.227,0.270,0.000,0.046,0.000:
0000
0000
0000
0000
,
0000
0000
0000
0000
,
0000
0000
0000
0000
,
1000
0000
0000
1000
,
0000
0000
0001
0000
,
0000
0001
0000
0000
,
1000
0000
0000
1000
,
0000
0000
0001
0000
,
0000
0001
0000
0000
,
1000
0000
0000
0001
,
0000
0000
1000
0000
,
0000
0001
0000
0000
,
1000
0000
1000
1000
,
0000
0000
1000
0000
,
0001
0000
0001
0001
,
0000
0000
0001
0000
,
1000
0000
0001
0001
,
0000
0001
0000
1000
,
1000
0000
0000
1000
0000
0000
2000
0000
,
0000
0000
0000
3000
,
0001
0000
0001
0001
,
0000
0001
0001
0000
,
1000
0000
1000
1000
,
0000
1000
1000
0000
,
0001
0000
1000
0001
,
0000
1000
0001
0000
,
1000
0000
0000
0001
0000
0000
0001
0000
,
2000
0000
0000
3000
,
1000
0000
1000
0001
,
0000
1000
0001
0000
,
0001
0000
0001
1000
,
0000
0001
1000
0000
,
1000
0000
1000
1000
,
0000
1000
0001
0000
,
0001
0000
0000
0001
0000
0000
2000
0000
,
0000
0001
0001
3000
,
1000
0000
0001
0001
,
0000
1000
1000
0000
,
0001
0000
0001
0001
,
0000
1000
1000
0000
,
0001
0000
1000
0001
,
0000
0001
1000
0000
,
1000
0000
0000
1000
0000
0000
1000
0000
,
0002
0000
0000
0003
,
0001
0001
0001
0000
,
0001
0001
0000
0001
,
0001
0000
0001
0001
,
0000
1000
1000
0000
,
1000
1000
0000
1000
,
1000
0000
1000
1000
,
0000
0001
1000
0000
,
0001
1000
0000
0001
,
1000
0000
0001
1000
,
0000
1000
0001
0000
,
1000
0001
0000
1000
,
0001
0000
1000
0001
,
0002
1000
1000
0000
,
1000
1000
1000
0000
,
1000
0000
1000
0000
,
1000
1000
1000
0000
,
1000
0000
1000
0000
,
1000
0000
1000
0000
,
1000
1000
1000
1000
,
1000
0000
1000
0003
,
2000
0001
0001
0000
,
0001
0000
0001
0000
,
0001
0001
0001
0000
,
0001
0000
0001
0001
,
0001
0000
0001
0000
,
0001
0000
0001
0000
,
0001
0000
0001
0000
,
0001
0001
0001
3001
,
0001
0000
1000
0000
,
0001
0000
1000
0000
,
1000
0000
0001
0000
,
1000
0000
0001
0001
,
1000
0000
1000
0000
,
1000
0000
1000
0000
,
0001
0000
0001
0000
,
0001
0000
0001
1000
,
1000
0000
0001
0000
,
1000
0000
0001
0000
,
0001
0000
1000
0000
,
1000
0000
0001
0001
,
0001
0000
1000
0000
,
1000
0000
1000
0000
,
0001
0001
0001
1000
,
0001
1000
1000
1000
;

//---------------dance-single - ----------------
#NOTES:
     dance-single:
     :
     Hard:
     9:
     0.707,0.844,0.285,0.647,0.369:
1000
0100
1000
0200
0000
0000
0300
0000
0000
0001
0010
0001
,
0020
0000
0000
0030
0000
0000
0100
0010
0100
0020
0000
0000
,
0030
0000
0000
0001
1000
0001
2000
0000
0000
3000
0000
0000
,
0100
0010
0001
0020
0000
0000
0030
0000
0000
0100
1000
0100
,
0020
0000
0000
0030
0000
0000
0001
0010
0100
2000
0000
0000
,
3000
0000
0000
1000
0010
0100
0002
0000
0000
0103
0000
0000
,
0010
1000
0010
2000
0000
0000
3000
0000
0000
0100
0001
0100
,
0002
0000
0000
0003
0000
0000
0010
0001
1000
0002
0000
0000
,
0003
0000
0000
1000
0100
0010
0200
0000
0000
0300
0000
0000
,
0001
1000
0001
2000
0000
0000
3000
0000
0000
1000
0001
1000
,
0002
0000
0000
0003
0010
0100
0020
0000
0000
0030
0000
0000
,
0000
0000
0000
0100
0010
0100
0010
0100
0010
0100
0000
0000
,
1000
0100
0010
0100
0010
0001
1000
0100
,
0010
0001
0100
0010
2000
0000
3000
0000
,
0001
0010
0100
0010
0100
1000
0001
0010
,
0100
1000
0100
1000
0200
0000
0300
0000
,
0010
0100
1000
0001
0010
0100
1000
0001
,
1000
0010
0100
0010
1000
0000
0010
0000
,
1010
0000
0001
0101
0000
1000
2002
0000
,
0000
0000
0000
3003
,
0001
0100
0001
1000
0001
0100
0010
0100
,
0010
1000
0010
1000
0020
0000
0030
0000
,
1000
0001
1000
0010
1000
0001
0100
0001
,
0100
0010
0100
0010
2000
0000
3000
0000
,
0001
1000
0001
0010
0100
1000
0010
0100
,
0001
0100
0001
0100
0010
0000
1000
0000
,
1010
0000
1000
1100
0000
0100
0110
0000
,
2002
0000
0000
3003
,
0001
0000
0000
0010
0100
0000
0100
0000
0000
1000
0100
0000
0100
0000
0000
0100
,
0010
0001
0010
0100
0010
0001
0020
0030
,
0100
0000
0000
1000
0001
0000
0001
0000
0000
0001
1000
0000
1000
0000
0000
1000
,
0010
1000
0010
0100
0010
1000
0020
0030
,
0100
0000
0000
0010
0001
0000
0010
0000
0000
0100
1000
0000
0100
0000
0000
0010
,
0100
1000
0100
1000
0001
0000
0001
0000
,
0011
0000
0010
0100
0000
0100
0010
0100
,
1000
0100
0010
0100
0001
0100
1000
0100
,
0010
0000
0000
0001
1000
0000
1001
0000
0000
1000
0100
0000
1100
0000
0000
0001
,
0100
0001
0001
0100
0010
1000
0020
0030
,
0100
0000
0000
0010
0001
0000
0011
0000
0000
0100
1000
0000
1100
0000
0000
0100
,
0010
0010
0001
0010
0100
0010
0200
0300
,
0100
0000
0000
1000
0100
0000
1100
0000
0000
0010
0001
0000
0011
0000
0000
0001
,
0100
0100
0000
0010
0000
0000
0010
0100
,
0010
0000
0100
0001
0000
0001
2000
0000
,
3001
0000
0001
0000
0000
0010
0100
0000
0110
0000
0000
0000
1001
0000
0000
0000
,
1000
0010
1000
0020
0000
0000
0030
0000
0000
0100
0001
0100
,
0002
0000
0000
0003
0000
0000
1000
0001
1000
0002
0000
0000
,
0003
0000
0000
1000
0010
1000
0020
0000
0000
0030
0000
0000
,
0100
0001
0010
0002
0000
0000
0003
0000
0000
1000
0100
0010
,
0002
0000
0000
0003
0000
0000
0010
0100
0010
0002
0000
0000
,
0003
0000
0000
1000
0001
0010
0200
0000
0000
0310
0000
0000
,
0100
1000
0100
0020
0000
0000
0030
0000
0000
0001
0010
0100
,
0020
0000
0000
0030
0000
0000
0100
1000
0010
0200
0000
0000
,
0300
0000
0000
0001
0010
0100
2000
0000
0000
3000
0000
0000
,
1000
0010
0100
2000
0000
0000
3000
0000
0000
0001
0010
0100
,
0002
0000
0000
0003
0100
0010
0100
0000
0000
0000
0000
0000
,
0000
0000
0000
0100
0001
0100
0001
0100
0001
0100
0001
0100
,
0210
0000
0001
0000
0010
0000
1000
0010
,
0000
0010
0001
0000
0001
0310
0000
0010
,
2100
0000
0001
0000
0010
0000
0001
0010
,
0000
0001
0001
0000
0010
3010
0000
0010
,
1002
0000
1000
0000
0100
0000
0010
0010
,
0000
1000
1000
0000
0100
0103
0000
0100
,
0120
0000
0100
0000
0100
0000
1000
0100
,
0000
0100
0001
0000
0100
0000
0130
0000
,
1200
0000
1000
0000
0001
0000
0010
0010
,
0000
0010
1000
0000
1000
0310
0000
0010
,
0012
0000
1000
0000
0010
0000
1000
0010
,
0000
1000
1000
0010
1000
1000
0013
0000
,
0220
0330
0010
0000
1000
0000
0000
0000
,
2020
3030
1000
0000
0001
0000
0000
0000
,
0202
0303
0000
0000
2002
3003
0000
0000
,
2200
3300
2002
3003
0202
0303
0220
0330
,
0010
1000
0010
1000
0001
0010
0100
2000
,
3000
1000
0001
0010
0100
0010
0001
1000
,
0010
0100
0010
1000
0100
0010
0001
0020
,
0030
0010
0002
0003
0100
0020
0130
0010
,
2000
3000
0100
0010
0001
1000
0100
0010
,
0001
0010
0001
1000
0100
0010
0100
1000
,
0001
0100
0010
0100
0001
1000
0001
1000
,
0001
0010
0001
0010
0001
0010
0001
0010
0100
1000
0100
1000
0100
1000
0100
0000
,
0010
0100
0010
0001
0100
0010
0100
0020
,
0030
1000
0020
0030
0100
0002
0003
0001
,
0010
0100
0010
0001
1000
0010
0100
0002
,
0003
0001
1001
0010
1010
0100
0220
0330
,
2002
0000
0000
0000
3003
0000
0001
0010
,
0220
0330
0100
1001
0000
1000
0101
0000
,
0020
0000
2000
3000
2000
3000
0100
0200
,
0300
1000
2000
0000
0001
0000
3031
0000
;
