#TITLE:Artificial Man;
#SUBTITLE:;
#ARTIST:Hey Champ;
#TITLETRANSLIT:;
#SUBTITLETRANSLIT:;
#ARTISTTRANSLIT:;
#GENRE:;
#CREDIT:Telperion;
#BANNER:Artificial Man-bn.png;
#BACKGROUND:Artificial Man-bg.png;
#LYRICSPATH:;
#CDTITLE:;
#MUSIC:Artificial Man.ogg;
#OFFSET:-6.749;
#SAMPLESTART:13.949;
#SAMPLELENGTH:24.800;
#SELECTABLE:YES;
#DISPLAYBPM:150.000;
#BPMS:0.000=150.000,159.000=135.000,159.500=120.000,160.000=105.000,160.500=90.000,161.000=75.000,161.500=58.968,162.000=150.000;
#STOPS:;
#BGCHANGES:;
#KEYSOUNDS:;

//---------------dance-single - Telperion----------------
#NOTES:
     dance-single:
     Telperion:
     Hard:
     8:
     0.554,0.528,0.255,0.288,0.070:
0000
0000
0000
0000
,
1000
0100
0010
0100
1000
0000
0000
0000
,
0000
0000
0000
0000
,
0001
0100
0010
0100
0001
0000
0000
0000
,
0020
0230
2300
3000
,
0101
0001
0010
0100
1000
0000
0000
0000
,
0000
0000
0000
0000
,
0110
0010
1000
0100
0010
0000
0000
0000
,
0000
0000
0000
0000
,
0101
0001
1000
0100
0010
0000
0100
0000
,
0000
0100
0000
0100
,
1100
1000
0001
0100
1000
0000
1000
0000
,
0200
0302
0023
0130
,
0110
0010
0001
0100
0010
0000
2000
0100
,
0000
0001
0000
3020
0000
0001
0000
0130
,
0110
0100
0001
0010
0100
0000
0020
0001
,
0000
0100
0000
0032
0000
0100
0000
1003
,
1010
0010
1000
0100
0010
0000
0100
1000
,
0010
0100
0010
1000
0001
0010
0010
0000
,
0011
0001
0010
0100
0001
0001
0100
1000
,
0010
0000
0100
0000
1000
0000
0100
0000
0010
0100
0000
0000
0010
0100
0000
0000
,
0001
1000
0000
1010
0000
0001
0000
0011
,
0000
2000
0000
3020
0000
0001
0000
1030
,
0100
0010
0001
0010
0100
0001
0100
1000
,
0001
0010
0001
0100
1000
0100
0002
0000
,
1003
1000
0010
0010
0100
0001
0010
0010
,
0100
0100
1000
1000
0001
1000
0000
1000
,
0001
0001
0010
0010
0100
1000
0010
0010
,
0100
0100
0001
0100
1000
0100
0000
0110
,
0001
0001
0100
0100
0010
1000
0100
0001
,
0100
0010
0001
0100
0001
0010
0000
0010
,
0100
0100
1000
1000
0010
0100
1000
0100
,
0001
0010
0100
1000
0020
0000
0030
0000
,
1000
0100
0010
0100
1000
0000
1001
0010
,
0100
0010
1010
0000
0001
0100
1010
0000
,
0001
0010
0100
0010
0001
0000
0101
0000
,
0020
2030
3200
0300
,
0110
0010
0001
0100
1000
0000
0000
0000
,
0100
0001
0011
0010
0100
1000
0100
0000
,
0110
0000
0010
0100
0010
0000
0001
0000
2002
0000
3003
0000
0000
0000
0000
0000
,
0000
0000
0000
0000
0010
1000
0100
1000
,
0010
1000
0100
0000
0001
0100
1000
0100
,
0001
0010
1000
0000
0010
0001
0100
0001
,
0010
0001
0100
0000
1000
0010
0001
0010
,
1000
0100
1000
0000
0010
1000
1100
0000
,
0010
0100
0101
0000
0010
0001
0101
0000
,
0010
0100
1100
0000
1000
0001
0101
0001
,
0010
0100
1100
0000
0001
1000
1100
0100
,
0010
0100
0000
0000
0010
0100
0000
0000
1000
0000
0001
0000
0200
0000
0001
0000
,
0000
0010
0000
0301
0010
0100
2000
0100
,
0000
0001
0000
3100
0010
0010
0002
0100
,
0000
0010
0000
0103
0010
0100
0000
0001
,
0100
0001
0000
0010
0200
1000
0000
0320
,
0000
0031
0000
0100
0020
1000
0000
0230
,
0000
0301
0000
0010
0001
0010
0000
0100
,
1000
0010
0000
0100
1000
0100
0000
0010
,
1000
0100
0010
0001
0020
0000
0030
0000
,
0100
0000
0000
1000
0000
0000
0100
0000
0020
0000
0000
0000
0030
0000
0000
0000
,
0010
0000
0000
0001
0000
0000
0100
0000
1000
0000
0100
0000
1000
0000
0000
0000
,
0010
0100
0010
0000
0001
0100
0001
0000
,
0010
1000
0100
0010
0001
0100
0001
0100
,
0010
1000
0010
1000
0100
0010
0100
0010
,
0100
0000
0001
0000
0100
0000
1000
0000
0010
0100
0000
0000
0010
0100
0000
0000
,
0010
0100
0010
0100
0010
0000
0000
0000
1000
0001
0000
0000
0010
0100
0000
0000
,
1000
0001
0000
0000
0100
0010
0100
0010
0100
0000
0100
0000
0010
0000
1000
0000
,
0100
1100
0002
0203
,
2300
0000
3000
0000
0101
0001
0010
0100
,
1000
0011
2000
3200
,
0302
0000
0003
0000
1010
0010
0010
0100
,
0001
0010
0000
0010
,
0000
0000
0000
0000
0010
0000
0000
0000
1001
0000
0001
1000
0001
0000
0001
0000
,
2000
3000
0000
0000
0000
0000
0000
0000
;

//---------------dance-single - Telperion----------------
#NOTES:
     dance-single:
     Telperion:
     Medium:
     6:
     0.410,0.380,0.190,0.099,0.000:
0000
0000
0000
0000
,
1000
0001
1000
0001
1000
0000
0000
0000
,
0000
0000
0000
0000
,
0001
1000
0001
1000
0001
0000
0000
0000
,
0010
0010
0010
0000
,
1000
0001
1000
0001
0100
0000
0000
0000
,
0000
0000
0000
0000
,
0001
1000
0001
1000
0100
0000
0000
0000
,
0000
0000
0000
0000
,
0010
0001
0010
0001
1000
0000
0000
0000
,
0000
0000
0000
0000
,
0010
1000
0010
1000
0002
0000
0000
0000
,
1000
0100
0013
0000
,
0001
1000
0001
1000
0001
0000
0001
0000
,
0010
0010
0100
0100
,
1000
0001
1000
0001
1000
0000
1000
0000
,
0010
0100
0001
0001
,
0100
0001
0100
0001
0200
0000
0310
0000
,
0002
0013
2000
3010
,
0100
1000
0100
1000
0200
0000
0310
0000
,
0002
0103
1010
0101
,
0010
1000
0000
0001
0000
1000
0000
0001
,
0100
0001
0000
1000
0000
0001
0000
1000
,
0100
1000
0000
0001
0000
0010
0000
0001
,
0000
1000
0000
0010
0000
0100
0000
0010
,
0100
0001
0100
0001
0100
0000
0001
0010
,
0001
0010
0001
0000
0100
0010
1000
0000
,
0100
1000
0100
1000
0100
0000
1000
0001
,
1000
0001
1000
0000
0010
0100
0000
0100
,
0001
0100
0001
0100
0001
0000
1000
0010
,
1000
0010
1000
0000
0100
0010
0100
0000
,
1000
0001
1000
0001
1000
0000
0100
0010
,
0100
0010
0100
0000
0010
0010
0010
0000
,
0001
1000
0001
1000
0001
0000
0110
0000
,
0000
0110
0000
0110
,
1000
0001
1000
0001
1000
0000
0000
0000
,
0010
0010
0010
0000
,
1000
0001
1000
0001
1000
0000
0110
0000
,
0000
0110
0000
0110
,
0001
1000
1000
1000
1000
0000
0000
0000
,
0000
0000
1000
0100
,
0001
0011
0001
0100
,
1000
1100
0001
1000
,
0100
1010
0010
1000
,
0100
1100
0001
0100
,
1000
1010
1000
0100
,
0001
0101
1000
0010
,
0100
0011
0010
0001
,
0100
0100
0020
0000
,
0130
0010
0100
0000
0002
0000
0000
0000
,
1003
0001
1000
0000
0200
0000
0000
0000
,
0310
0100
0010
0000
0001
0000
0010
0000
,
0100
1000
0001
0100
,
0001
0100
0001
0000
1000
0000
0100
0000
,
1000
0100
1000
0000
0010
0000
0100
0000
,
0010
1000
0010
0000
0100
0000
0001
0000
,
0010
0001
0010
0000
0001
0000
0011
0000
,
1000
1010
0001
0101
,
1000
0011
1000
1100
,
0100
1001
0001
0101
,
0100
1001
1000
0100
,
0010
0001
0010
0000
0100
0000
1000
0000
,
0010
1000
0010
0000
0100
0010
0100
0000
,
0001
0100
0001
0000
0010
0100
1000
0001
,
0100
0010
1000
0100
0010
0001
1000
0001
,
2000
0000
0001
0100
,
3010
0000
0000
0000
0001
1000
0001
1000
,
0002
0000
1000
0100
,
0013
0000
0000
0000
0100
1000
0100
1000
,
0200
0000
0010
1000
,
0310
0000
0000
0000
0001
0100
1000
0100
,
0010
0000
0000
0000
;

//---------------dance-single - Telperion----------------
#NOTES:
     dance-single:
     Telperion:
     Easy:
     3:
     0.219,0.234,0.016,0.132,0.000:
0000
0000
0000
0000
,
2000
0000
3000
0000
,
0000
0000
0000
0000
,
0002
0000
0003
0000
,
0010
0010
0010
0000
,
2000
0000
3000
0000
,
0000
0000
0000
0000
,
0002
0000
0003
0000
,
0000
0000
0000
0000
,
2000
0000
3000
0000
,
0010
0000
0010
0000
,
0002
0000
0003
0000
,
0010
0010
0010
0000
,
2000
0000
3000
1000
,
0100
0010
0001
0000
,
0002
0000
0003
0001
,
0100
0010
1000
0000
,
0020
0000
0030
0010
,
1000
0100
0010
0000
,
0020
0000
0030
0010
,
0001
0100
0001
0000
,
0010
0000
0010
0100
,
1000
0000
1000
0100
,
0010
0000
0000
0000
,
0010
0000
0001
0000
,
1000
0000
1000
0001
,
0000
0001
0010
0100
,
0010
0000
0010
0001
,
0000
0001
0100
0010
,
1000
0000
1000
0001
,
0000
0001
0010
0100
,
1000
0000
1000
0100
,
0000
0100
0010
0001
,
0200
0000
0300
0000
,
0000
0000
0000
0000
,
0200
0000
0300
0000
,
0010
0010
0010
0000
,
0200
0000
0300
0000
,
0001
1000
0001
0000
,
0011
0010
1100
0000
,
0000
0000
1000
0000
,
0100
1000
0100
0000
,
0010
0100
0010
0000
,
0001
0010
0001
0000
,
0100
0001
0100
0000
,
0010
0100
0010
0000
,
1000
0010
1000
0000
,
0100
0010
0001
0001
,
0001
0000
1000
0000
,
0010
0010
0001
0000
,
0010
0010
1000
0000
,
0100
0000
0001
0000
,
0100
0000
1000
0000
,
0010
0010
0001
0000
,
0010
0010
1000
0000
,
0001
0000
0100
0100
,
0100
0000
0010
0100
,
0010
0100
0001
0100
,
0001
0000
0010
0100
,
0010
0100
1000
0100
,
1000
0000
0010
1000
,
0001
0100
0001
1000
,
0010
0100
0001
0010
,
0100
1000
0100
0010
,
0001
1000
0002
0000
,
0003
0000
0010
0010
,
0010
0000
2000
0000
,
3000
0000
0010
0010
,
0010
0000
0002
0000
,
0003
0000
0000
0000
,
0000
0000
0000
0000
1000
0001
1000
0001
,
1000
0000
0000
0000
;

//---------------dance-single - Telperion----------------
#NOTES:
     dance-single:
     Telperion:
     Beginner:
     1:
     0.095,0.176,0.025,0.000,0.000:
0000
0000
0000
0000
,
1000
0000
0000
0000
,
0000
0000
0000
0000
,
0001
0000
0000
0000
,
0010
0000
0000
0000
,
1000
0000
0000
0000
,
0000
0000
0000
0000
,
0001
0000
0000
0000
,
0000
0000
0000
0000
,
1000
0000
0000
0000
,
0000
0000
0000
0000
,
0001
0000
0000
0000
,
0010
0000
0000
0000
,
1000
0000
0000
0000
,
0100
0000
0000
0000
,
0010
0000
0000
0000
,
0001
0000
0000
0000
,
1000
0000
0000
0000
,
0001
0000
0000
0000
,
0100
0000
0000
0000
,
0010
0000
0010
0000
,
0010
0000
0000
0000
,
1000
0000
0000
0000
,
0100
0000
0000
0000
,
0010
0000
0010
0000
,
0010
0000
0000
0001
,
0000
0000
1000
0000
,
0010
0000
0000
0100
,
0000
0000
0001
0000
,
0010
0000
0000
0100
,
0000
0000
1000
0000
,
1000
0000
0000
0010
,
0000
0000
0100
0000
,
0001
0000
0000
0000
,
0000
0000
0000
0000
,
1000
0000
0000
0000
,
0000
0010
0000
0000
,
0001
0000
0000
0000
,
0000
0000
0000
0000
,
1000
1000
1000
0000
,
0000
0000
0010
0000
,
0000
0000
0100
0000
,
0000
0000
1000
0000
,
0000
0000
0100
0000
,
0000
0000
0010
0000
,
0000
0000
0001
0000
,
0000
0000
1000
0000
,
0000
0000
0001
0000
,
0000
0000
0100
0000
,
0000
0000
0010
0000
,
0000
0000
0100
0000
,
0000
0000
0001
0000
,
0000
0000
0010
0000
,
0000
0000
0100
0000
,
0000
0000
0010
0000
,
0000
0000
0001
0000
,
0000
0000
1000
0000
,
1000
0000
1000
0000
,
0000
0000
0001
0000
,
0001
0000
0001
0000
,
0000
0000
0010
0000
,
0010
0000
0010
0000
,
0010
0000
0010
0000
,
0000
0000
0100
0000
,
0010
0000
0001
0000
,
0000
0000
0010
0000
,
0000
0000
1000
0000
,
0000
0000
0010
0000
,
0000
0000
0001
0000
,
0000
0000
0000
0000
,
0000
0000
1001
1001
,
1001
0000
0000
0000
;

//---------------dance-double - Telperion----------------
#NOTES:
     dance-double:
     Telperion:
     Hard:
     8:
     0.512,0.469,0.157,0.173,0.037:
00000000
00000000
00000000
00000000
,
00001000
00010000
00100000
00010000
00001000
00000000
00000000
00000000
,
00000000
00000000
00000000
00000000
,
00010000
00001000
00000010
00001000
00010000
00000000
00000000
00000000
,
02000000
23000000
30200000
00300000
,
01100000
00100000
10000000
01000000
00010000
00000000
00001000
00000000
,
00000000
00001000
00000000
00001000
,
00011000
00001000
00000100
00000001
00000010
00000000
00000100
00000000
,
00000000
00000100
00000000
00000100
,
00000110
00000001
00000010
00001000
00010000
00000000
00100000
00000000
,
00000000
00100000
00000000
00100000
,
00011000
00001000
00100000
01000000
10000000
00000000
00000000
00000000
,
20000000
32000000
03020000
00030000
,
00011000
00001000
00100000
01000000
10000000
00000000
10000000
01000000
,
00000000
00010000
00000000
00001000
00000000
00000100
00000000
00000001
,
00000011
00000001
00000010
00000100
00001000
00000000
00000001
00000100
,
00000000
00001000
00000000
00010000
00000000
01000000
00000000
10000000
,
10010000
00010000
01000000
00100000
10000000
00000000
10000000
00100000
,
00000000
00010000
00000000
00001000
00000000
00000010
00000000
00000001
,
00001001
00001000
00000001
00000010
00000100
00000000
00000001
00000100
,
00000010
00000000
00000001
00000000
00000100
00000000
00000010
00000000
00000100
00000010
00000000
00000000
00000100
00000010
00000000
00000000
,
00000100
00000001
00000000
00000010
00000100
00000001
00000000
00000100
,
00001000
00000010
00000000
00000100
00001000
00010000
00000000
01000000
,
00010000
00001000
00000000
00100000
01000000
10000000
00000000
00100000
,
01000000
00010000
00000000
10000000
00100000
10000000
00010000
00000000
,
10000000
10000000
01000000
01000000
00100000
00001000
00010000
00010000
,
00100000
00100000
01000000
01000000
10000000
01000000
00010000
00000000
,
00100000
00100000
00001000
00001000
00010000
00000100
00000010
00000010
,
00000001
00000001
00000100
00000100
00001000
00000100
00000010
00000110
,
00000000
00000001
00000100
00000100
00000010
00010000
00001000
00001000
,
00000010
00000010
00000100
00000100
00000001
00000100
00001000
00001000
,
00000000
00000001
00001000
00000100
00010000
00100000
10000000
00100000
,
01000000
00010000
00100000
00001000
00010000
00000000
00001000
00100000
,
01000000
00010000
00001000
00000010
00000001
00000000
00000011
00000000
,
00001000
00001010
00000100
00000011
,
00000100
00001000
00010000
00100000
10000000
00000000
00000000
00000000
,
00200000
00320000
00032000
00003000
,
01000000
00001000
00010000
01000000
10000000
00000000
00100000
00000000
,
00000000
00100000
00000000
00100000
,
01000000
00100000
00001000
00000100
00000010
00000000
00000000
00000000
,
00000000
00000000
00000000
00000000
00000001
00000010
00000100
00000000
,
00000100
00001000
00000010
00000000
00001000
00000100
00010000
00000000
,
00010000
00000010
00000100
00000000
00001000
00010000
00000100
00000000
,
00000100
00010000
00001000
00000000
00001000
00010000
00100000
00000000
,
00100000
10000000
01000000
00100000
00010000
00100000
00010000
00100000
,
00001000
00010000
00001000
00010000
00000010
00001000
00000010
00001000
,
00000001
00000100
00001000
00000100
00000001
00000010
00000100
00000010
,
00000001
00000100
00000010
00000100
00000001
00000010
00001000
00010000
,
00001000
00010000
00000000
00000000
00001000
00010000
00000000
00000000
00001000
00000000
02000000
00000000
00000000
00000000
00100000
00000000
,
00000000
13000000
00000000
01000000
00010000
00100000
00000000
01000000
,
10000000
00100000
00000000
01000000
00001000
00020000
00000000
00100000
,
00000000
00001000
00000000
01030000
00100000
01000000
00000000
10000000
,
01000000
00100000
00000000
00001000
00010000
00000020
00000000
00000100
,
00000000
00000031
00000000
00000010
00001000
00000100
00000000
00000010
,
00000001
00000100
00000000
00000010
00010000
00002000
00000000
00000010
,
00000000
00013000
00000000
00000010
00000100
00000010
00000000
00010000
,
00000100
00010000
00000000
00001000
00010000
00100000
01000000
10000000
,
01000000
00100000
10000000
01000000
00010000
00000000
00010000
00000000
,
00001000
00000000
00001000
00010000
00001000
00000010
00000100
00000001
,
00000100
00000010
00000001
00000100
00001000
00000000
00000100
00000000
,
00000001
00000000
00001000
00000000
00001001
00000001
00000010
00000000
,
00000001
00000010
00000100
00010000
00001000
00000100
00000010
00000000
,
00000100
00000000
00001000
00000000
00010000
00000000
01000000
00000000
10000000
01000000
00000000
00000000
01000000
00010000
00000000
00000000
,
00010000
00000000
00001000
00000000
00010000
00000000
00000000
00000000
00001000
00000100
00000000
00000000
00000100
00000001
00000000
00000000
,
00000001
00000010
00000001
00001000
00001010
00000010
00000100
00010000
,
01000000
10100000
20000000
32000000
,
03020000
00000000
00030000
00000000
00110000
00100000
01000000
00010000
,
00000100
00000011
00000002
00000023
,
00002030
00000000
00003000
00000000
00011000
00001000
00000100
00001000
,
00020000
00000100
00000000
01000000
,
00000000
00000000
00000000
00000000
00030100
00000000
00000000
00000000
00001100
00000000
00000100
00001000
00000010
00000000
00000100
00000000
,
00002000
00003000
00000000
00000000
00000000
00000000
00000000
00000000
;

//---------------dance-double - Telperion----------------
#NOTES:
     dance-double:
     Telperion:
     Medium:
     6:
     0.400,0.380,0.025,0.214,0.000:
00000000
00000000
00000000
00000000
,
10000000
00010000
01000000
00001000
00010000
00000000
00000000
00000000
,
00000000
00000000
00000000
00000000
,
00001000
00010000
00000100
00001000
00000001
00000000
00000000
00000000
,
00000020
00000230
00002300
00003000
,
00000001
00001000
00000100
00010000
00001000
00000000
00000000
00000000
,
00000000
00000000
00000000
00000000
,
00010000
00001000
00100000
00010000
10000000
00000000
00000000
00000000
,
00000000
00000000
00000000
00000000
,
10100000
00100000
01000000
00001000
00010000
00000000
00001000
00000000
,
00000000
00001000
00000000
00001000
,
00011000
00010000
00000010
00001000
00000001
00000000
00000000
00000000
,
00000020
00000230
00002300
00003000
,
00000010
00000100
00001000
00000100
00000010
00000000
00000010
00000000
,
00010000
00010000
01000000
01000000
,
00100000
01000000
10000000
01000000
00100000
00000000
00100000
00000000
,
00001000
00001000
00000100
00000100
,
00000001
00000010
00000100
00000010
00000001
00000000
00000100
00000000
,
00001000
00010000
00100000
10000000
,
00010000
00100000
10000000
00100000
00010000
00000000
10000000
00000000
,
01000000
00010000
00001000
00001000
,
00010000
00001000
00000000
01000000
00000000
00100000
00000000
10000000
,
01000000
10000000
00000000
01000000
00000000
00010000
00000000
00001000
,
00010000
00001000
00000000
00000100
00000000
00000001
00000000
00000010
,
00000100
00000010
00000000
00000001
00001000
00000001
00000000
00000010
,
00000100
00000020
00001000
00000031
,
00000100
00001000
00010000
00100000
,
10000000
02000000
00010000
13000000
,
00100000
00010000
00001000
00000100
,
00000001
00000020
00001000
00000031
,
00000100
00000000
00001000
00000000
00010000
00000000
01000000
00100000
,
00020000
00100000
10030000
02000000
,
00010000
00000000
03100000
00000000
01000000
00000000
10000000
00100000
,
10000000
00010000
01000000
00001000
00010000
00000000
00010000
00000000
,
00000100
00000100
00000010
00000010
,
00000001
00001000
00000100
00010000
00001000
00000000
00001000
00000000
,
00200000
02300000
23000000
30000000
,
10000000
01000000
00100000
01000000
00010000
00000000
00010000
00000000
,
01000000
00100000
01000000
00000000
00100000
01000000
00100000
00000000
,
00010000
01000000
00100000
00010000
00001000
00000000
00000000
00000000
,
00000000
00000000
00000000
00000000
00010000
00001000
00010000
00000000
,
01000000
00010000
01000000
00000000
10000000
01000000
10000000
00000000
,
00100000
10000000
00100000
00000000
00010000
00100000
00010000
00000000
,
00001000
00010000
00001000
00000000
00000010
00001000
00000010
00000000
,
00001000
00010000
00000100
00000010
00000001
00000100
00000001
00000000
,
00001000
00000100
00001000
00000000
00000010
00000100
00000010
00000000
,
00010000
00001000
00010000
00000000
00001000
00000100
00001000
00000000
,
00010000
01000000
00010000
00000000
00001000
01000000
00001000
00000000
,
00100000
01000000
00100000
00000000
00010000
00000000
01000000
00000000
,
00200000
00010000
10300000
01000000
,
00010000
00001000
00000010
00000001
,
00000200
00001000
00000301
00000010
,
00001000
00010000
01000000
10000000
,
00200000
00010000
01300000
00100000
,
00010000
00001000
00000010
00000001
,
00000200
00001000
00000301
00001000
,
00001000
00000000
00000100
00000010
,
00000100
00010000
00001000
01000000
,
00100000
01000000
10000000
01000000
,
00100000
00010000
00001000
00000010
,
00000100
00000000
00000020
00000000
,
00000100
00000000
00000031
00000100
00000020
00000000
00000000
00000000
,
00000100
00000000
00001030
00000100
00000010
00000001
00000010
00000000
,
00000100
00001000
00000100
00000000
00010000
00001000
00100000
00000000
,
00010000
00100000
01000000
00000000
10000000
01000000
00010000
00001000
,
00000100
00000000
00000002
00000203
,
00002300
00000000
00003000
00000000
00000010
00000100
00001000
00010000
,
01000000
00000000
20000000
32000000
,
03020000
00000000
00030000
00000000
01000000
00100000
00001000
00010000
,
01000000
00000000
00000000
00000000
,
00000000
00000000
00000000
00000000
00100000
10000000
01000000
00010000
,
01001000
00000000
00000000
00000000
;

//---------------dance-double - Telperion----------------
#NOTES:
     dance-double:
     Telperion:
     Easy:
     3:
     0.204,0.205,0.000,0.000,0.000:
00000000
00000000
00000000
00000000
,
10000000
01000000
00100000
00000000
,
00000000
00000000
00000000
00000000
,
00010000
00100000
01000000
00000000
,
10000000
10000000
10000000
00000000
,
00100000
01000000
00010000
00000000
,
00000000
00000000
00000000
00000000
,
00100000
00001000
00010000
00000000
,
00000000
00000000
00000000
00000000
,
00000010
00001000
00000100
00000000
,
00000000
00000000
00000000
00000000
,
00000001
00000100
00001000
00000000
,
00000001
00000001
00000001
00000000
,
00000010
00000100
00001000
00000010
,
00010000
00001000
00010000
00000000
,
00001000
00100000
01000000
00010000
,
00001000
00010000
00001000
00000000
,
00100000
01000000
10000000
00100000
,
01000000
00001000
00010000
00000000
,
00000010
00000100
00000001
00000100
,
00000010
00010000
00001000
00000000
,
00010000
00000000
00001000
00100000
,
00010000
00000000
01000000
00001000
,
00010000
00000000
00000100
00001000
,
00000001
00000000
00000010
00000100
,
00001000
00000001
00000001
00000000
,
00000100
00000100
00000000
00000010
,
00000000
00001000
00001000
00000000
,
00000100
00000100
00000000
00010000
,
00000000
00001000
00001000
00000000
,
01000000
01000000
00000000
00010000
,
00000000
10000000
10000000
00000000
,
01000000
01000000
00100000
00100000
,
00010000
00100000
01000000
00000000
,
00000000
00000000
00000000
00000000
,
10000000
01000000
00100000
00000000
,
00000000
00000000
00000000
00000000
,
00001000
00010000
00000100
00000000
,
00000000
00000000
00000000
00000000
,
00000001
00000100
00001000
00000000
,
00000000
00000000
00010000
00000000
,
00001000
00100000
00010000
00000000
,
01000000
00001000
00010000
00000000
,
00000010
00000100
00001000
00000000
,
00010000
00000100
00000010
00000000
,
00000001
00001000
00000010
00000000
,
00000100
00000010
00001000
00000000
,
00000100
00000010
00000001
00000000
,
00000010
00000100
00001000
00000000
,
00000001
00000000
00000100
00000000
,
00000010
00000000
00000100
00000000
,
00001000
00000000
00010000
00000000
,
01000000
00000000
10000000
00000000
,
00100000
00000000
01000000
00000000
,
00010000
00000000
00100000
00000000
,
01000000
00000000
00010000
00000000
,
00001000
00000000
00000100
00000000
,
00000010
00000000
00001000
00000000
,
00000010
00000000
00010000
00000000
,
00001000
00000000
00010000
00000000
,
00100000
00000000
10000000
00000000
,
01000000
00000000
00010000
00000000
,
00001000
00000000
00000100
00000000
,
00000100
00000000
00000100
00000100
,
00000100
00000000
00000010
00001000
,
00000100
00000000
00000010
00000010
,
00000010
00000000
00000100
00010000
,
00000010
00000000
00000100
00000100
,
00000100
00000000
00000010
00000100
,
00001000
00000000
00000000
00000000
,
00000000
00000000
00010000
01000000
,
10000000
00000000
00000000
00000000
;
