#TITLE:Aegis;
#SUBTITLE:;
#ARTIST:IT medalion;
#TITLETRANSLIT:;
#SUBTITLETRANSLIT:;
#ARTISTTRANSLIT:;
#GENRE:;
#CREDIT:;
#BANNER:Aegis-bn.png;
#BACKGROUND:Aegis-bg.png;
#LYRICSPATH:;
#CDTITLE:;
#MUSIC:Aegis.ogg;
#OFFSET:-1.535;
#SAMPLESTART:27.500;
#SAMPLELENGTH:12.000;
#SELECTABLE:YES;
#DISPLAYBPM:162.000;
#BPMS:0.000=162.000,111.000=81.000,112.000=162.000,141.750=365.000,144.000=162.000,176.000=81.000,184.000=162.000,200.000=81.000,201.000=162.000;
#STOPS:118.000=0.371
,133.750=0.093
,141.750=0.020
;
#BGCHANGES:;
#KEYSOUNDS:;

//---------------dance-single - Heavy 10----------------
#NOTES:
     dance-single:
     Heavy 10:
     Hard:
     10:
     0.821,0.924,0.067,0.201,0.885:
0000
0000
0000
0000
,
0000
0000
0000
0000
,
1001
0000
0000
0000
,
0000
0000
0000
0000
0000
0000
0000
0000
1000
0000
0000
1000
0000
0000
1000
0000
,
0001
0000
0100
0000
0001
0000
0100
0010
0000
0000
1000
0000
0000
0000
0001
1000
,
0001
0100
0010
0100
0001
0100
0010
1000
,
0001
0000
1000
0000
0001
0000
1000
0010
0000
0000
0100
0000
0000
0000
0001
0100
,
0001
0000
1000
0000
0010
0000
0100
0000
0001
0000
0000
0001
0000
0000
0001
0010
,
0100
1000
0100
1000
0010
0100
0010
0100
0001
0000
0100
0000
0010
0000
1000
0010
,
1000
0000
0010
0100
0000
0100
0001
0000
0101
0000
0100
0010
0000
0010
1000
0000
,
0002
0103
0010
0100
0002
1003
0010
1000
,
0001
1000
0001
1000
0010
0100
0010
0100
0010
1000
0010
1000
0002
0000
0000
0000
,
1003
0000
0010
0000
0100
0000
0010
0000
0100
0001
0100
0000
0010
1000
0010
0000
,
1000
0000
0001
0000
0100
0000
0001
0000
1000
0100
0010
0001
0010
0100
1000
0000
,
0001
0000
0100
0000
0010
0000
0100
0000
0001
0100
0001
0000
1000
0010
1000
0000
,
0001
0000
0100
0000
0010
0000
1000
0000
0101
0000
0000
1100
0000
0000
0000
0000
,
1000
0100
1000
0000
0010
0000
0100
0000
0001
0010
0001
0000
0100
0000
0010
0000
,
1000
0001
1000
0000
0010
0100
0000
0100
0010
0000
0010
1000
0000
1000
0001
0000
,
1000
0010
1000
0000
0100
0000
0010
0000
0001
0100
0001
0000
0010
0000
0100
0000
,
1000
0001
1000
0000
0010
0100
0010
0000
1000
0010
1000
0000
0010
0100
0010
0000
,
1000
0000
0001
0000
1000
0000
0001
0100
,
0010
0100
0010
0100
,
0001
0000
1000
0000
0001
0000
1000
0010
,
0100
0000
0010
0000
0100
0000
0010
1000
,
0001
0100
0010
0100
0001
1000
0010
1000
,
0001
0100
0010
0100
0001
1000
0010
1000
,
0001
0100
0010
0000
1000
0100
0010
0000
0001
0100
0010
0000
1000
0100
0010
0000
,
0001
0100
0010
0100
0001
1000
0010
1000
0001
0010
0100
1000
0002
0000
0000
0000
,
1003
1000
0001
0001
0100
0100
0010
0010
,
1000
0000
0000
0000
0000
0000
0000
0000
0000
0000
0000
0000
0000
0000
0000
0000
0000
0000
0000
0000
0000
0000
0000
0000
1000
0000
0000
0000
0000
0000
0000
0000
0000
0000
0000
0000
0000
0000
0000
0000
0000
0000
0000
0000
0000
0000
0000
0000
0100
0000
0000
0000
0000
0000
0000
0000
0000
0000
0000
0000
0000
0000
0000
0000
0000
0000
0000
0000
0000
0000
0000
0000
0100
0000
0000
0000
0000
0000
0000
0000
0000
0000
0000
0000
0000
0000
0000
0000
0000
0000
0000
0000
0000
0000
0000
0010
0000
0000
0000
0000
0000
0000
0000
0000
0000
0000
0000
0000
0000
0000
0000
0000
0000
0000
0000
0000
0000
0000
0000
0000
0100
0000
0000
0000
0000
0000
0000
0000
0000
0000
0000
0000
0000
0000
0000
0000
0000
0000
0000
0000
0000
0000
0000
0000
1000
0000
0000
0000
0000
0000
0000
0000
0000
0000
0000
0000
0000
0000
0000
0000
0000
0000
0000
0000
0000
0000
0000
0000
1000
0000
0000
0000
0000
0000
0000
0000
0000
0000
0000
0000
0000
0000
0000
0000
0000
0000
0000
0000
0000
0000
0000
0000
,
0010
0010
0100
0100
0010
0010
1000
1000
,
0001
0000
0001
0000
1100
0000
0000
0202
0000
0000
0303
0000
0010
0000
0010
0000
,
1000
1000
0010
0010
0100
0100
0001
0010
,
0100
0000
0000
0000
0000
0000
0000
0000
0000
0000
0000
0000
0000
0000
0000
0000
0000
0000
0000
0000
0000
0000
0000
0000
1000
0000
0000
0000
0000
0000
0000
0000
0000
0000
0000
0000
0000
0000
0000
0000
0000
0000
0000
0000
0000
0000
0000
0000
0001
0000
0000
0000
0000
0000
0000
0000
0000
0000
0000
0000
0010
0000
0000
0000
0000
0000
0000
0000
0000
0000
0000
0000
0100
0000
0000
0000
0000
0000
0000
0000
0000
0000
0000
1000
0000
0000
0000
0000
0000
0000
0000
0000
0000
0000
0000
0000
0000
0000
0000
0000
0000
0000
0000
0000
0000
0000
0000
0000
0001
0000
0000
0000
0000
0000
0000
0000
0000
0000
0000
0000
0000
0000
0000
0000
0000
0000
0000
0000
0000
0000
0000
0000
0100
0000
0000
0000
0000
0000
0000
0000
0000
0000
0000
0000
0000
0000
0000
0000
0000
0000
0000
0000
0000
0000
0000
0000
1000
0000
0000
0000
0000
0000
0000
0000
0000
0000
0000
0000
0000
0000
0000
0000
0000
0000
0000
0000
0000
0000
0000
0000
0100
0000
0000
0000
0000
0000
0000
0000
0000
0000
0000
0000
,
0000
0001
0000
0010
0000
1000
0000
0010
0000
0001
0000
1000
0000
1000
0000
0010
,
0000
0010
0000
0100
0001
0100
0001
0020
0000
0000
0000
0000
0000
0000
0000
0000
,
0031
0100
0001
0010
0001
1000
0001
0100
,
0010
0000
0100
0000
1000
0000
0100
0000
0010
0000
0000
0010
0000
0000
0010
0000
,
1000
0010
1000
0100
1000
0001
1000
0100
,
0010
0000
0100
0000
0001
0000
0100
0000
0010
0000
0000
0010
0000
0000
0020
0000
,
0031
0000
1000
0000
0001
0010
0100
1000
0001
0000
1000
0000
0001
0100
0010
1000
,
0001
0000
1000
0000
0001
0010
0100
1000
0001
0000
0000
0001
0000
0000
0001
0000
,
1000
0000
0000
0000
0000
0000
1000
0000
0000
0000
0000
0000
1000
0000
0001
1000
0001
0000
0000
0000
0000
0000
0001
0000
0000
0000
0000
0000
0001
0000
1000
0001
,
0100
0000
0000
0100
0000
0000
0100
0000
0010
0100
0010
0100
0002
0000
0000
0000
,
2003
0000
3002
0000
,
0023
0000
0230
0000
,
2300
0100
0100
0100
,
3002
0000
0100
0000
0100
0000
0100
0100
,
0023
0100
0100
0100
,
0031
0000
0010
0000
0100
0000
1000
0000
0001
0010
0100
1000
0001
0010
0100
1000
,
0000
0000
0000
0000
1000
0001
1000
0001
1000
0001
1000
0001
0200
0000
0000
0000
,
0000
0000
0000
0000
0301
1000
0001
1000
0001
1000
0001
1000
0010
0000
0000
0010
,
0000
0000
0010
0000
1000
0001
1000
0001
1000
0001
1000
0001
0200
0000
0000
0000
,
0000
0000
0000
0000
0301
1000
0001
1000
0001
1000
0001
1000
0010
0000
0010
0000
,
0010
0000
0010
0000
1000
0001
1000
0010
1000
0001
1000
0010
0200
0000
0000
0000
,
0000
0000
0000
0000
0301
1000
0001
0100
0001
1000
0001
0100
0010
0000
0000
0010
,
0000
0000
0010
0000
1000
0001
1000
0010
1000
0001
1000
0010
0200
0000
0000
0000
,
0000
0000
0000
0000
0301
1000
0001
0100
0001
1000
0001
0100
0010
0000
0000
0110
,
0000
0000
0000
0000
1000
0010
1000
0010
0100
0001
0100
0001
0010
0001
0010
0001
,
0100
0001
0100
0001
1000
0010
1000
0010
0100
0001
0100
0001
0010
0000
0000
0010
,
0000
0000
0000
0000
0001
0100
0001
0100
0010
1000
0010
1000
0100
1000
0100
1000
,
0010
1000
0010
1000
0001
0100
0001
0100
0010
1000
0010
1000
0100
0000
0100
0000
,
0000
0000
0000
0000
0000
0000
1000
0000
0001
0000
1000
0000
0001
0000
0000
0100
0000
0000
0001
0000
0000
0100
0000
0000
0010
0000
0000
1000
0000
0000
0010
0000
0000
1000
0000
0000
0100
0000
0000
1000
0000
0000
0100
0000
0000
1000
0000
0000
,
0010
1000
0010
1000
0001
0100
0001
0100
0010
1000
0010
1000
0100
0000
0000
0100
,
0000
0000
0100
0000
1000
0010
1000
0010
0100
0001
0100
0001
0010
0001
0010
0001
,
0100
0001
0100
0001
1000
0010
1000
0010
0100
0001
0100
0000
0010
1000
0010
1000
,
0001
0100
0001
0200
0000
0000
0000
0000
0000
0000
0300
0000
0000
0000
0000
0000
;

//---------------dance-single - TaroNuke----------------
#NOTES:
     dance-single:
     TaroNuke:
     Medium:
     8:
     0.578,0.571,0.182,0.124,0.220:
0000
0000
0000
0000
,
0000
0000
0000
0000
,
0100
0000
0000
0000
,
0000
0000
0000
0000
0000
0000
0000
0000
1001
0000
0000
0110
0000
0000
1001
0000
,
0001
0100
0001
0100
0010
0000
0000
0100
,
0010
1000
0010
1000
0001
0100
0010
1000
,
0001
0010
0001
0010
0100
0000
0000
0010
,
0100
0000
1000
0000
0100
0000
1000
0000
0010
0000
0000
0010
0000
0000
0010
0000
,
0100
0000
0001
0000
0100
0010
0100
0000
0001
0000
0100
0000
0000
0000
0010
0000
,
1000
0000
0001
0000
0100
0010
0100
0000
0001
0000
0000
1000
0000
0000
0001
0000
,
1100
0000
0101
0000
,
0110
0000
0000
0000
1001
0000
0000
0000
0100
0010
0100
0010
0200
0000
0000
0000
,
0301
0010
0100
1000
0001
0100
1000
0100
,
0001
0100
0010
1000
0001
0010
1000
0010
,
0001
0010
0100
1000
0001
0010
1000
0010
,
0001
0000
0010
0000
0001
0000
0100
0000
0001
0000
0000
1000
0000
0000
0010
0000
,
1000
0100
0010
0001
1000
0100
0001
0100
,
1000
0010
0100
0001
1000
0010
0001
0010
,
1010
0000
0011
0000
,
0101
0000
0101
0000
1100
1000
1100
0100
,
1100
0000
0001
0000
1000
0000
0001
0100
,
0010
0100
0010
0100
,
0001
0000
1000
0000
0001
0000
1000
0010
,
0100
0010
0100
0010
,
1000
0010
0100
0010
1000
0001
0010
0001
,
1000
0010
0100
0010
1000
0001
0010
0001
,
1000
0100
0001
0100
1000
0010
0001
0010
,
1000
0100
0001
0100
1000
0001
0020
0000
,
0031
0100
0010
0100
1000
0100
0010
0100
,
0001
0000
0000
0000
0000
0000
0000
0000
0000
0000
0000
0000
0000
0000
0000
0000
0000
0000
0000
0000
0000
0000
0000
0000
0010
0000
0000
0000
0000
0000
0000
0000
0000
0000
0000
0000
0000
0000
0000
0000
0000
0000
0000
0000
0000
0000
0000
0000
0100
0000
0000
0000
0000
0000
0000
0000
0000
0000
0000
0000
0000
0000
0000
0000
0000
0000
0000
0000
0000
0000
0000
0000
1000
0000
0000
0000
0000
0000
0000
0000
0000
0000
0000
0000
0000
0000
0000
0000
0000
0000
0000
0000
0000
0000
0000
0001
0000
0000
0000
0000
0000
0000
0000
0000
0000
0000
0000
0000
0000
0000
0000
0000
0000
0000
0000
0000
0000
0000
0000
0000
1000
0000
0000
0000
0000
0000
0000
0000
0000
0000
0000
0000
0000
0000
0000
0000
0000
0000
0000
0000
0000
0000
0000
0000
0100
0000
0000
0000
0000
0000
0000
0000
0000
0000
0000
0000
0000
0000
0000
0000
0000
0000
0000
0000
0000
0000
0000
0000
0001
0000
0000
0000
0000
0000
0000
0000
0000
0000
0000
0000
0000
0000
0000
0000
0000
0000
0000
0000
0000
0000
0000
0000
,
0100
0010
0001
1000
0001
0100
0010
0100
,
0001
0000
1000
0000
0001
0000
0000
0110
0000
0000
0100
0010
1000
0000
0100
0000
,
1000
0100
0001
0100
0001
0100
1000
0010
,
0100
0000
0000
0000
0000
0000
0000
0000
0000
0000
0000
0000
0000
0000
0000
0000
0000
0000
0000
0000
0000
0000
0000
0000
0001
0000
0000
0000
0000
0000
0000
0000
0000
0000
0000
0000
0000
0000
0000
0000
0000
0000
0000
0000
0000
0000
0000
0000
1000
0000
0000
0000
0000
0000
0000
0000
0000
0000
0000
0000
0100
0000
0000
0000
0000
0000
0000
0000
0000
0000
0000
0000
0010
0000
0000
0000
0000
0000
0000
0000
0000
0000
0000
0001
0000
0000
0000
0000
0000
0000
0000
0000
0000
0000
0000
0000
0000
0000
0000
0000
0000
0000
0000
0000
0000
0000
0000
0000
1000
0000
0000
0000
0000
0000
0000
0000
0000
0000
0000
0000
0000
0000
0000
0000
0000
0000
0000
0000
0000
0000
0000
0000
0001
0000
0000
0000
0000
0000
0000
0000
0000
0000
0000
0000
0000
0000
0000
0000
0000
0000
0000
0000
0000
0000
0000
0000
0100
0000
0000
0000
0000
0000
0000
0000
0000
0000
0000
0000
0000
0000
0000
0000
0000
0000
0000
0000
0000
0000
0000
0000
0010
0000
0000
0000
0000
0000
0000
0000
0000
0000
0000
0000
,
0000
0100
0000
0001
0000
1000
0000
0001
0000
0100
0000
0010
0000
0100
0000
0001
,
0000
1000
0000
0001
1000
0001
1000
0200
0000
0000
0000
0000
0000
0000
0000
0000
,
0310
0000
0100
0000
,
0010
0000
0000
0000
0000
0000
0000
0000
0001
0000
0000
0001
0000
0000
0001
0000
,
1000
0000
0000
0001
0000
0000
1000
0000
0000
0000
0010
0000
0000
0000
1000
0001
,
1000
0000
0000
0100
0000
0000
0010
0000
0001
0000
0000
0010
0000
0000
0100
0000
,
1000
0010
1000
0010
1000
0010
1000
0000
,
0001
0000
0100
0000
0001
0000
0100
0000
0001
0000
0000
0100
0000
0000
0001
0000
,
1000
0001
1000
0001
0100
0001
0100
0001
,
0100
0000
0010
0000
0100
0000
0010
0000
1000
0001
1000
0001
2000
0000
0000
0000
,
3002
0000
0203
0000
,
0320
0000
2030
0000
,
3002
0000
0000
0000
,
0203
0000
0000
0000
,
0320
0000
0000
0000
,
2030
0000
0000
0000
,
3000
MMMM
1000
0100
0001
0100
1000
0000
,
0000
0000
0000
0000
0001
0000
0100
0000
1000
0000
0100
0000
0001
0000
0000
0001
,
0000
0001
1000
0010
0001
0010
1000
0000
,
0000
0000
0001
0010
1000
0010
0001
0001
,
0001
0001
1000
0100
0001
0100
0010
0000
,
0000
0000
0000
0000
0001
0000
0100
0000
1000
0000
0100
0000
0010
0000
0000
0010
,
0000
0010
1000
0010
0001
0010
0100
0000
,
0000
0000
0000
0000
0110
0000
0000
0000
0110
0000
0000
0000
1001
0000
0000
0110
,
0000
0000
0001
0100
0010
1000
0100
1000
,
0010
0000
0100
0001
1000
0000
0010
0000
0100
0000
0001
0000
0010
0000
0000
0010
,
0000
0010
0001
0100
0010
1000
0100
1000
,
0010
0000
0100
0001
1000
0000
0010
0000
0100
0000
0001
0000
0010
0000
0010
0000
,
0000
0000
0001
0100
0010
1000
0100
1000
,
0010
0000
0100
0001
1000
0000
0010
0000
0100
0000
0001
0000
0010
0000
0000
0010
,
0000
0010
0001
0100
0010
1000
0100
1000
,
0010
0000
0100
0001
1000
0000
0010
0000
0100
0000
0001
0000
0010
0000
0001
0000
,
0100
0020
0000
0030
0000
0000
0000
0000
;

//---------------dance-double - Pro----------------
#NOTES:
     dance-double:
     Pro:
     Hard:
     10:
     0.670,0.922,0.124,0.163,0.387:
00000000
00000000
00000000
00000000
,
00000000
00000000
00000000
00000000
,
00011000
00000000
00000000
00000000
,
00000000
00000000
00000000
00000000
00000000
00000000
00000000
00000000
01000000
00000000
00000000
00010000
00000000
00000000
01000000
00000000
,
00010000
00000000
00100000
00000000
00001000
00000000
01000000
00000000
00001000
00000000
00100000
00000000
00000000
00000000
00001000
00010000
,
00000100
00000000
00001000
00000000
00000010
00000000
00000100
00000000
00000001
00000000
00000000
00000100
00000000
00000000
00010000
00000000
,
00001000
00000000
01000000
00000000
00001000
00000000
00100000
00000000
00010000
00000000
01000000
00000000
00000000
00000000
00010000
00100000
,
00001000
00000000
00010000
00000000
00100000
00000000
00010000
00000000
00001000
00000000
00000000
00000100
00000000
00000000
00001000
00000000
,
00100000
01000000
00010000
00100000
00010000
01000000
00001000
00010000
,
00001000
00000000
00100000
00000000
00010000
00000000
01000000
00000000
00001000
00000000
00000000
00010000
00000000
00000000
00001000
00000000
,
00110000
00010000
00011000
00001000
,
00001100
00000010
00001100
00011000
,
00010000
00001000
00010000
00000100
00010000
00000010
00010000
00000100
,
00010000
00000000
00001000
00000000
00010000
00000000
00000100
00000000
00010000
00000000
00000000
00001000
00000000
00000000
00010000
00000000
,
00001000
00010000
00001000
00100000
00001000
01000000
00001000
00100000
,
00001000
00000000
00010000
00000000
00001000
00000000
00100000
00000000
00001000
00000000
00000000
00010000
00000000
00000000
00001000
00000000
,
00010000
00000100
00001000
00000100
00000010
00000100
00000001
00000100
,
00000010
00000100
00001000
00000100
00010000
00000100
00010000
00001000
,
00010000
01000000
00100000
01000000
10000000
01000000
00100000
01000000
,
00010000
01000000
00100000
01000000
10000000
00100000
10000000
01000000
,
10000000
00010000
01000000
00001000
,
00010000
00001000
01000000
00010000
,
10000000
00010000
00100000
00001000
,
00010000
00000100
00001000
00000001
,
00001000
00000010
00000100
00000001
,
00000100
00000010
00010000
00001000
,
00010000
00000100
00010000
00001000
00010000
00000100
00010000
00001000
,
00100000
00000000
00001000
00000000
01000000
00000000
00010000
00000000
10000000
00010000
10000000
00010000
02000000
00000000
00000000
00000000
,
13000000
10000000
01000000
01000000
00010000
00010000
00100000
00100000
,
00001000
00000000
00000000
00000000
00000000
00000000
00000000
00000000
00000000
00000000
00000000
00000000
00000000
00000000
00000000
00000000
00000000
00000000
00000000
00000000
00000000
00000000
00000000
00000000
00001000
00000000
00000000
00000000
00000000
00000000
00000000
00000000
00000000
00000000
00000000
00000000
00000000
00000000
00000000
00000000
00000000
00000000
00000000
00000000
00000000
00000000
00000000
00000000
00000010
00000000
00000000
00000000
00000000
00000000
00000000
00000000
00000000
00000000
00000000
00000000
00000000
00000000
00000000
00000000
00000000
00000000
00000000
00000000
00000000
00000000
00000000
00000000
00000010
00000000
00000000
00000000
00000000
00000000
00000000
00000000
00000000
00000000
00000000
00000000
00000000
00000000
00000000
00000000
00000000
00000000
00000000
00000000
00000000
00000000
00000000
00001000
00000000
000000M0
00000000
00000000
00000000
00000000
00000000
00000000
00000000
00000000
00000000
00000000
00000000
00000000
00000000
00000000
00000000
00000000
00000000
00000000
00000000
00000000
00000000
00000000
01000000
00000000
00000000
00000000
00000000
00000000
00000000
00000000
00000000
00000000
00000000
00000000
00000000
00000000
00000000
00000000
00000000
00000000
00000000
00000000
00000000
00000000
00000000
00000000
10000000
00000000
00000000
00000000
00000000
00000000
00000000
00000000
00000000
00000000
00000000
00000000
00000000
00000000
00000000
00000000
00000000
00000000
00000000
00000000
00000000
00000000
00000000
00000000
10000000
00000000
00000000
00000000
00000000
00000000
00000000
00000000
00000000
00000000
00000000
00000000
00000000
00000000
00000000
00000000
00000000
00000000
00000000
00000000
00000000
00000000
00000000
00000000
,
01000000
01000000
00010000
00010000
00100000
00100000
00001000
00001000
,
00010000
00000000
00010000
00000000
00001100
00000000
00000000
00022000
00000000
00000000
00033000
00000000
00100000
00000000
00100000
00000000
,
00010000
00010000
00100000
00100000
01000000
01000000
10000000
00100000
,
01000000
00000000
00000000
00000000
00000000
00000000
00000000
00000000
00000000
00000000
00000000
00000000
00000000
00000000
00000000
00000000
00000000
00000000
00000000
00000000
00000000
00000000
00000000
00000000
00010000
00000000
00000000
00000000
00000000
00000000
00000000
00000000
00000000
00000000
00000000
00000000
00000000
00000000
00000000
00000000
00000000
00000000
00000000
00000000
00000000
00000000
00000000
00000000
10000000
00000000
00000000
00000000
00000000
00000000
00000000
00000000
00000000
00000000
00000000
00000000
01000000
00000000
00000000
00000000
00000000
00000000
00000000
00000000
00000000
00000000
00000000
00000000
00100000
00000000
00000000
00000000
00000000
00000000
00000000
00000000
00000000
00000000
00000000
00010000
00000000
00000000
00000000
00000000
00000000
00000000
00000000
00000000
00000000
00000000
00000000
00000000
00000000
00000000
00000000
00000000
00000000
00000000
00000000
00000000
00000000
00000000
00000000
00000000
10000000
00000000
00000000
00000000
00000000
00000000
00000000
00000000
00000000
00000000
00000000
00000000
00000000
00000000
00000000
00000000
00000000
00000000
00000000
00000000
00000000
00000000
00000000
00000000
01000000
00000000
00000000
00000000
00000000
00000000
00000000
00000000
00000000
00000000
00000000
00000000
00000000
00000000
00000000
00000000
00000000
00000000
00000000
00000000
00000000
00000000
00000000
00000000
00100000
00000000
00000000
00000000
00000000
00000000
00000000
00000000
00000000
00000000
00000000
00000000
00000000
00000000
00000000
00000000
00000000
00000000
00000000
00000000
00000000
00000000
00000000
00000000
00001000
00000000
00000000
00000000
00000000
00000000
00000000
00000000
00000000
00000000
00000000
00000000
,
00000000
00010000
00000000
00000100
00000000
00000010
00000000
00000001
00000000
00000100
00000000
00000010
00000000
00001000
00000000
00000100
,
00000000
00010000
00000000
00001000
00010000
00001000
00010000
00002000
00000000
00000000
00000000
00000000
00000000
00000000
00000000
00000000
,
00013000
00001000
00010000
00001000
00010000
00100000
00010000
00100000
,
00010000
00000000
00001000
00000000
00010000
00000000
00001000
00000000
00010000
00000000
00000000
00000100
00000000
00000000
00000010
00000000
,
00000100
00001000
00000100
00001000
00000100
00000001
00000100
00000001
,
00000100
00000000
00001000
00000000
00000100
00000000
00010000
00000000
00001000
00000000
00000000
00001000
00000000
00000000
00010000
00000000
,
00001000
00010000
00001000
00010000
00001000
00000010
00001000
00000010
,
00001000
00000000
00010000
00000000
00001000
00000000
00010000
00000000
00001000
00000000
00000000
01000000
00000000
00000000
00100000
00000000
,
01000000
00010000
01000000
00010000
01000000
10000000
01000000
10000000
,
01000000
00010000
01000000
00010000
00100000
00001000
00010000
00000000
,
00000200
00000000
00000320
00000000
,
00000230
00000000
00020300
00000000
,
00032000
00010000
01000000
00010000
,
00023000
00000000
00001000
00000000
00000100
00000000
00001000
00001000
,
02030000
10000000
00100000
10000000
,
03010000
01000000
00001000
00010000
00000100
00010000
00000010
00000100
,
00000000
00000000
0000MMMM
00000000
1000MMMM
00010000
10000000
00010000
10000000
00010000
10000000
00010000
02000000
00000000
00000000
00000000
,
03001000
00000000
00000000
00000000
00010000
00000000
00001000
00000000
00010000
00000000
00001000
00000000
00000010
00000000
00000000
00000001
,
00000000
00000000
00000100
00000000
00000001
00001000
00000001
00001000
00000001
00001000
00000001
00001000
00000200
00000000
00000000
00000000
,
00010300
00000000
00001000
00010000
00001000
00010000
00100000
10000000
,
01000000
00000000
00100000
00000000
00010000
10000000
00100000
10000000
00010000
10000000
00100000
10000000
02000000
00000000
00000000
00000000
,
03010000
00000000
00000000
00000000
00001000
00000000
00010000
00000000
00001000
00000000
00010000
00000000
00001000
00000000
00000000
00000010
,
00000000
00000000
00000001
00000000
00001000
00000001
00000100
00000001
00001000
00000001
00000100
00000001
00000200
00000000
00000000
00000000
,
00010300
00000000
00000000
00000000
00001000
00000000
00010000
00000000
00001000
00000000
00010000
00000000
00001000
00000000
00000000
00110000
,
00000000
00000000
10000000
01000000
00010000
00001000
00000010
00000001
,
00000100
00000000
00000010
00000000
00010000
00000000
00001000
00000000
01000000
00000000
00100000
00000000
10000000
00000000
00000000
01100000
,
00000000
00000000
10000000
00100000
01000000
00001000
00010000
00000100
,
00000010
00000001
00000100
00001000
01000000
00010000
10000000
10000000
,
00000000
00000000
00000000
00000000
10000000
00100000
10000000
00100000
01000000
00010000
01000000
00010000
00100000
00001000
00010000
00001000
,
00100000
00001000
00010000
00000100
00001000
00000100
00001000
00000100
00000010
00000001
00000010
00000000
00001100
00000000
00000000
00011000
,
00000000
00000000
01010000
00000000
10000000
00100000
10000000
00100000
01000000
00010000
01000000
00010000
00100000
00001000
00010000
00001000
,
00100000
00001000
00010000
00000100
00001000
00000100
00001000
00000100
00000010
00000001
00000010
00000000
00000100
00010000
00000100
00010000
,
00001000
00100000
00002000
00020000
00000000
00000000
00000000
00000000
00033000
00000000
00000000
00000000
00000000
00000000
00000000
00000000
;

//---------------dance-single - TaroNuke----------------
#NOTES:
     dance-single:
     TaroNuke:
     Easy:
     4:
     0.287,0.316,0.172,0.086,0.043:
0000
0000
0000
0000
,
0000
0000
0000
0000
,
0100
0000
0000
0000
,
0000
0000
1001
0000
,
1000
0001
1000
0001
,
0100
0010
0100
0000
,
0001
1000
0001
1000
,
0010
0100
0010
0000
,
1000
0100
1000
0100
,
0010
0001
0010
0000
,
0110
0000
1001
0000
,
0110
1001
0110
0000
,
1000
0100
0001
0010
,
1000
0100
0001
0000
,
0001
0100
1000
0010
,
0001
0100
1000
0000
,
0001
0100
0001
0100
,
0010
1000
0010
1000
,
0001
0010
0100
1000
,
0001
1000
0001
0000
,
1000
0000
0001
0000
1000
0000
0001
1000
,
0001
1000
0001
1000
,
0010
0000
0100
0000
0010
0000
0100
0010
,
0100
0010
0100
0010
,
1000
0001
1000
0010
,
1000
0001
1000
0010
,
1000
0100
0001
0100
,
1000
0100
0001
0020
,
1030
0000
1000
0000
,
1000
0000
0000
0000
0000
0000
0000
0000
0000
0000
0000
0000
0000
0000
0000
0000
0000
0000
0000
0000
0000
0000
0000
0000
0000
0000
0000
0000
0000
0000
0000
0000
0000
0000
0000
0000
0000
0000
0000
0000
0000
0000
0000
0000
0000
0000
0000
0000
0000
0000
0000
0000
0000
0000
0000
0000
0000
0000
0000
0000
0000
0000
0000
0000
0000
0000
0000
0000
0000
0000
0000
0000
0000
0000
0000
0000
0000
0000
0000
0000
0000
0000
0000
0000
0000
0000
0000
0000
0000
0000
0000
0000
0000
0000
0000
0001
0000
0000
0000
0000
0000
0000
0000
0000
0000
0000
0000
0000
0000
0000
0000
0000
0000
0000
0000
0000
0000
0000
0000
0000
0000
0000
0000
0000
0000
0000
0000
0000
0000
0000
0000
0000
0000
0000
0000
0000
0000
0000
0000
0000
0000
0000
0000
0000
1000
0000
0000
0000
0000
0000
0000
0000
0000
0000
0000
0000
0000
0000
0000
0000
0000
0000
0000
0000
0000
0000
0000
0000
0000
0000
0000
0000
0000
0000
0000
0000
0000
0000
0000
0000
0000
0000
0000
0000
0000
0000
0000
0000
0000
0000
0000
0000
,
0000
1000
0000
1000
,
0000
1000
0001
0100
,
0001
0010
0001
0100
,
0001
0000
0000
0000
1000
0000
0000
0000
0000
0000
0000
0001
0000
0000
0000
1000
,
0000
0000
0000
0010
0000
0000
0000
1000
0000
0000
0000
0100
0000
0000
0000
1000
,
0000
0000
0000
0010
0000
0000
0000
1000
0000
0000
0000
0000
0000
0000
0000
0000
,
0001
0000
1000
0000
,
0001
1000
0001
0000
,
0100
0000
0010
0000
,
0100
0010
0100
0000
,
0001
0000
0100
0000
,
0001
0100
0001
0000
,
1100
0000
1100
0000
,
1100
0000
1001
0000
,
0110
0000
0011
0000
,
0110
0000
1100
0000
,
1001
0000
0000
0000
,
0101
0000
0000
0000
,
1001
0000
0000
0000
,
1010
0000
0000
0000
,
0000
2000
0000
0000
,
0000
3002
0000
0000
,
0000
2003
0000
0000
,
0000
3002
0000
0000
,
0000
0203
0000
0000
,
0000
0302
0000
0000
,
0000
0203
0000
0000
,
0000
0302
0000
0000
,
0000
1003
0100
0010
,
0001
1000
0100
0010
,
0000
0001
0010
0100
,
1000
0001
0010
0100
,
0000
1000
0010
0100
,
0001
0000
1000
0000
0010
0000
0100
0001
,
0100
0001
0010
0100
,
1000
0000
0001
0000
0100
0000
0010
1000
,
0010
1000
0000
0000
0000
0000
0000
0000
;

//---------------dance-double - TaroNuke----------------
#NOTES:
     dance-double:
     TaroNuke:
     Medium:
     8:
     0.482,0.577,0.124,0.096,0.115:
00000000
00000000
00000000
00000000
,
00000000
00000000
00000000
00000000
,
00011000
00000000
00000000
00000000
,
00000000
00000000
00000000
00000000
,
00001000
00100000
00010000
00100000
,
00001000
01000000
00010000
01000000
,
00001000
01000000
00100000
01000000
,
00001000
00000000
00000000
00000000
01000000
00000000
00000000
00000000
00010000
00000000
00000000
00100000
00000000
00000000
00001000
00000000
,
00010000
00000100
00001000
00000100
,
00010000
00000010
00001000
00000010
,
00001010
00000000
00001100
00000000
,
00001010
00000000
00011000
00000000
,
00100000
00010000
00100000
00010000
00100000
00001000
00100000
00001000
,
00100000
00010000
00100000
00010000
01000000
00000000
00000000
00000000
,
00000010
00001000
00000010
00001000
00000010
00010000
00000010
00010000
,
00000010
00001000
00000010
00001000
00000100
00000000
00000000
00000000
,
00010000
00001000
00000010
00001000
00010000
00001000
00000010
00001000
,
00010000
00100000
00010000
00001000
00010000
00100000
00010000
00001000
,
00010000
00001000
00010000
00000000
00001000
01000000
00001000
00000000
,
00010000
00000100
00010000
00000000
00010000
00000100
00000010
00000001
,
00001000
00000100
00000001
00000100
,
00001000
00000100
00010000
00001000
,
00010000
00100000
10000000
00100000
,
00010000
00000000
00001000
00000000
00010000
00000000
00001000
00010000
,
00000100
00000010
00000100
00001000
,
00000100
00000000
00000010
00000000
00000100
00000000
00010000
00001000
,
01000000
00100000
10000000
00100000
,
01000000
00100000
00010000
00100000
10000000
00100000
00020000
00000000
,
00031000
00100000
00001000
00100000
00010000
01000000
00010000
01000000
,
00001000
00000000
00000000
00000000
00000000
00000000
00000000
00000000
00000000
00000000
00000000
00000000
00000000
00000000
00000000
00000000
00000000
00000000
00000000
00000000
00000000
00000000
00000000
00000000
00100000
00000000
00000000
00000000
00000000
00000000
00000000
00000000
00000000
00000000
00000000
00000000
00000000
00000000
00000000
00000000
00000000
00000000
00000000
00000000
00000000
00000000
00000000
00000000
00001000
00000000
00000000
00000000
00000000
00000000
00000000
00000000
00000000
00000000
00000000
00000000
00000000
00000000
00000000
00000000
00000000
00000000
00000000
00000000
00000000
00000000
00000000
00000000
00100000
00000000
00000000
00000000
00000000
00000000
00000000
00000000
00000000
00000000
00000000
00000000
00000000
00000000
00000000
00000000
00000000
00000000
00000000
00000000
00000000
00000000
00000000
00010000
00000000
00000000
00000000
00000000
00000000
00000000
00000000
00000000
00000000
00000000
00000000
00000000
00000000
00000000
00000000
00000000
00000000
00000000
00000000
00000000
00000000
00000000
00000000
00000000
01000000
00000000
00000000
00000000
00000000
00000000
00000000
00000000
00000000
00000000
00000000
00000000
00000000
00000000
00000000
00000000
00000000
00000000
00000000
00000000
00000000
00000000
00000000
00000000
00100000
00000000
00000000
00000000
00000000
00000000
00000000
00000000
00000000
00000000
00000000
00000000
00000000
00000000
00000000
00000000
00000000
00000000
00000000
00000000
00000000
00000000
00000000
00000000
10000000
00000000
00000000
00000000
00000000
00000000
00000000
00000000
00000000
00000000
00000000
00000000
00000000
00000000
00000000
00000000
00000000
00000000
00000000
00000000
00000000
00000000
00000000
00000000
,
00010000
01000000
00100000
01000000
00010000
00100000
00001000
00010000
,
00000100
00000000
00010000
00000000
00001000
00000000
00000000
00011000
00000000
00000000
00000000
00000000
00010000
00000000
00000100
00000000
,
00010000
00000100
00001000
00000010
00001000
00000010
00010000
00000100
,
00010000
00000000
00000000
00000000
00000000
00000000
00000000
00000000
00000000
00000000
00000000
00000000
00000000
00000000
00000000
00000000
00000000
00000000
00000000
00000000
00000000
00000000
00000000
00000000
00000100
00000000
00000000
00000000
00000000
00000000
00000000
00000000
00000000
00000000
00000000
00000000
00000000
00000000
00000000
00000000
00000000
00000000
00000000
00000000
00000000
00000000
00000000
00000000
00010000
00000000
00000000
00000000
00000000
00000000
00000000
00000000
00000000
00000000
00000000
00000000
00001000
00000000
00000000
00000000
00000000
00000000
00000000
00000000
00000000
00000000
00000000
00000000
00010000
00000000
00000000
00000000
00000000
00000000
00000000
00000000
00000000
00000000
00000000
00001000
00000000
00000000
00000000
00000000
00000000
00000000
00000000
00000000
00000000
00000000
00000000
00000000
00000000
00000000
00000000
00000000
00000000
00000000
00000000
00000000
00000000
00000000
00000000
00000000
00000100
00000000
00000000
00000000
00000000
00000000
00000000
00000000
00000000
00000000
00000000
00000000
00000000
00000000
00000000
00000000
00000000
00000000
00000000
00000000
00000000
00000000
00000000
00000000
00000010
00000000
00000000
00000000
00000000
00000000
00000000
00000000
00000000
00000000
00000000
00000000
00000000
00000000
00000000
00000000
00000000
00000000
00000000
00000000
00000000
00000000
00000000
00000000
00000001
00000000
00000000
00000000
00000000
00000000
00000000
00000000
00000000
00000000
00000000
00000000
00000000
00000000
00000000
00000000
00000000
00000000
00000000
00000000
00000000
00000000
00000000
00000000
00000100
00000000
00000000
00000000
00000000
00000000
00000000
00000000
00000000
00000000
00000000
00000000
,
00000000
00000010
00000000
00000100
00000000
00000001
00000000
00001000
00000000
00000010
00000000
00001000
00000000
00000100
00000000
00010000
,
00000000
00001000
00000000
00100000
00010000
00100000
00010000
00200000
00000000
00000000
00000000
00000000
00000000
00000000
00000000
00000000
,
00301000
00010000
00000100
00001000
,
00000010
00000000
00000100
00000000
00000001
00000100
00000010
00000100
,
00000001
00000100
00000010
00001000
,
00000100
00000000
00000000
00000000
00010000
00000000
00000000
00000000
00001000
00000000
00000000
00101000
00000000
00000000
00010100
00000000
,
00010000
00001000
01000000
00100000
,
10000000
00000000
00100000
00000000
01000000
00010000
00100000
00010000
,
01000000
00000000
11000000
00000000
,
01010000
00000000
00011000
00010100
,
00002000
00000000
00203000
00000000
,
00320000
00000000
02030000
00000000
,
03200000
01000000
10000000
01000000
,
02300000
00010000
00001000
00010000
,
03200000
01000000
00010000
01000000
,
10300000
01000000
00010000
00001000
00000010
00000001
00001000
00000010
,
00000000
0000MMMM
10000000
00000000
01000000
00000000
00100000
00000000
,
01000000
10000000
01000000
00010000
,
00001000
00000010
00000001
00000010
,
00000100
00000010
00000001
00000010
,
00000000
00000001
00000100
00000010
,
00000100
00000001
00000100
00001000
,
00010000
00100000
10000000
00100000
,
00010000
00001000
00010000
00011000
,
00000000
00000000
00001000
00100000
00010000
00100000
00001000
00010000
,
00000100
00000000
00010000
00000000
00001000
00000000
00010000
00000000
00001000
00000000
00100000
00000000
00001000
00000000
00000000
00010000
,
00000000
00000000
00100000
10000000
01000000
10000000
00010000
01000000
,
00100000
10000000
01000000
00100000
00010000
01000000
00001000
00001000
,
00000000
00000000
00010000
00000100
00010000
00001000
00010000
00000100
,
00001000
00000000
00000100
00000000
00010000
00000000
00001000
00000000
00100000
00000000
00010000
00000000
00100000
00000000
00000000
00001000
,
00000000
00000000
00000010
00000001
00000100
00000010
00000100
00000001
,
00001000
00000010
00000100
00001000
00010000
00100000
01000000
00010000
,
01000000
00002000
M00M0000
0MM00000
00000000
00000000
00000000
00000000
,
00003000
00000000
00000000
00000000
;

//---------------dance-double - TaroNuke----------------
#NOTES:
     dance-double:
     TaroNuke:
     Easy:
     5:
     0.271,0.316,0.201,0.172,0.043:
00000000
00000000
00000000
00000000
,
00000000
00000000
00000000
00000000
,
00011000
00000000
00000000
00000000
,
00000000
00000000
00010000
00000000
,
00001000
01000000
00010000
01000000
,
00100000
10000000
00100000
00000000
,
10000000
01000000
00100000
01000000
,
00010000
00001000
00010000
00000000
,
00000100
00000010
00000001
00000100
,
00000010
00000100
00000001
00000000
,
00001001
00000000
00001100
00000000
,
00011000
00000000
01010000
00000000
,
10000000
01000000
00100000
00010000
,
10000000
01000000
00010000
00000000
,
00001000
00000010
00000001
00000100
,
00000010
00001000
00000100
00000000
,
00010000
00001000
00010000
00000000
,
00001000
01000000
00001000
00000000
,
00010000
00000100
00010000
00000000
,
00001000
00010000
00001000
00000000
,
00011000
00000000
00110000
00000000
,
00011000
00000000
00001010
00000000
,
00011000
00000000
01100000
00000000
,
00011000
00000000
00000110
00000000
,
00011000
00000000
01001000
00000000
,
00011000
00000000
00010100
00000000
,
00011000
00000000
10010000
00000000
,
00011000
00000000
00001001
00002000
,
00003001
00001000
00000010
00001000
,
00000100
00000000
00000000
00000000
00000000
00000000
00000000
00000000
00000000
00000000
00000000
00000000
00000000
00000000
00000000
00000000
00000000
00000000
00000000
00000000
00000000
00000000
00000000
00000000
00000000
00000000
00000000
00000000
00000000
00000000
00000000
00000000
00000000
00000000
00000000
00000000
00000000
00000000
00000000
00000000
00000000
00000000
00000000
00000000
00000000
00000000
00000000
00000000
00010000
00000000
00000000
00000000
00000000
00000000
00000000
00000000
00000000
00000000
00000000
00000000
00000000
00000000
00000000
00000000
00000000
00000000
00000000
00000000
00000000
00000000
00000000
00000000
00000000
00000000
00000000
00000000
00000000
00000000
00000000
00000000
00000000
00000000
00000000
00000000
00000000
00000000
00000000
00000000
00000000
00000000
00000000
00000000
00000000
00000000
00000000
00001000
00000000
00000000
00000000
00000000
00000000
00000000
00000000
00000000
00000000
00000000
00000000
00000000
00000000
00000000
00000000
00000000
00000000
00000000
00000000
00000000
00000000
00000000
00000000
00000000
00000000
00000000
00000000
00000000
00000000
00000000
00000000
00000000
00000000
00000000
00000000
00000000
00000000
00000000
00000000
00000000
00000000
00000000
00000000
00000000
00000000
00000000
00000000
00000000
01000000
00000000
00000000
00000000
00000000
00000000
00000000
00000000
00000000
00000000
00000000
00000000
00000000
00000000
00000000
00000000
00000000
00000000
00000000
00000000
00000000
00000000
00000000
00000000
00000000
00000000
00000000
00000000
00000000
00000000
00000000
00000000
00000000
00000000
00000000
00000000
00000000
00000000
00000000
00000000
00000000
00000000
00000000
00000000
00000000
00000000
00000000
00000000
,
00010000
01000000
00100000
10000000
,
00010000
00100000
00000000
00001000
,
00100000
00001000
00010000
00001000
,
00100000
00000000
00000000
00000000
00010000
00000000
00000000
00000000
00000000
00000000
00000000
01000000
00000000
00000000
00000000
00001000
,
00000000
00000000
00000000
00010000
00000000
00000000
00000000
00000100
00000000
00000000
00000000
00001000
00000000
00000000
00000000
00000010
,
00000000
00000000
00000000
00000100
00000000
00000000
00000000
00000002
00000000
00000000
00000000
00000000
00000000
00000000
00000000
00000000
,
00000103
00000000
00000000
00000000
,
00000010
00000000
00001000
00000000
,
00000010
00000000
00000000
00000000
,
00010000
00000000
00001000
00000000
,
00010000
00000000
00000000
00000000
,
00001000
00000000
01000000
00000000
,
00001000
00000000
00010000
00000000
,
00001000
00000000
00010000
00000000
,
00002000
00000000
00203000
00000000
,
00320000
00000000
02030000
00000000
,
03020000
00000000
00000000
00000000
,
02030000
00000000
00000000
00000000
,
03002000
00000000
00000000
00000000
,
00020000
00000000
00000000
00000000
,
00033000
0MMMMMM0
00020000
00000000
00000000
00000000
00000000
00000000
,
00000000
00030200
00000000
00000000
,
00000000
00002300
00000000
00000000
,
00000000
00003002
00000000
00000000
,
00000000
00000203
00000000
00000000
,
00000000
00000320
00000000
00000000
,
00000000
00020030
00000000
00000000
,
00000000
00032000
00000000
00000000
,
00000000
00103000
00010000
00100000
,
00001000
00100000
00010000
00100000
,
00000000
00001000
00010000
00001000
,
01000000
00001000
00010000
00001000
,
00000000
00010000
00001000
00010000
,
00000100
00010000
00001000
00010000
,
00000000
00000010
00001000
00000010
,
00010000
00000000
00000010
00000000
00001000
00000000
00000010
00000100
,
00000001
00001000
00000000
00000000
00000000
00000000
00000000
00000000
;

//---------------dance-single - TaroNuke----------------
#NOTES:
     dance-single:
     TaroNuke:
     Beginner:
     2:
     0.184,0.253,0.010,0.077,0.019:
0000
0000
0000
0000
,
0000
0000
0000
0000
,
1000
0000
0000
0000
,
0000
0000
0000
0000
,
1000
0000
0000
0000
,
0001
0000
0000
0000
,
0100
0000
0000
0000
,
0010
0000
0000
0000
,
1000
0000
0000
0000
,
0001
0000
0000
0000
,
1000
0000
1000
0000
,
0001
0000
0001
0000
,
0010
0000
0100
0000
,
0010
0000
0100
0000
,
1000
0000
0100
0000
,
1000
0000
0100
0000
,
0001
0000
0100
0000
,
0001
0000
0100
0000
,
1000
0000
0010
0000
,
0100
0000
0001
0000
,
0100
0100
0100
0000
,
0010
0010
0010
0000
,
1000
1000
1000
0000
,
0001
0001
0001
0000
,
1000
0000
1000
0000
,
1000
0000
1000
0000
,
0001
0000
0001
0000
,
0001
0001
0001
0000
,
1001
0000
0000
0000
,
1000
0000
0000
0000
0000
0000
0000
0000
0000
0000
0000
0000
0000
0000
0000
0000
0000
0000
0000
0000
0000
0000
0000
0000
0000
0000
0000
0000
0000
0000
0000
0000
0000
0000
0000
0000
0000
0000
0000
0000
0000
0000
0000
0000
0000
0000
0000
0000
0000
0000
0000
0000
0000
0000
0000
0000
0000
0000
0000
0000
0000
0000
0000
0000
0000
0000
0000
0000
0000
0000
0000
0000
0000
0000
0000
0000
0000
0000
0000
0000
0000
0000
0000
0000
0000
0000
0000
0000
0000
0000
0000
0000
0000
0000
0000
0001
0000
0000
0000
0000
0000
0000
0000
0000
0000
0000
0000
0000
0000
0000
0000
0000
0000
0000
0000
0000
0000
0000
0000
0000
0000
0000
0000
0000
0000
0000
0000
0000
0000
0000
0000
0000
0000
0000
0000
0000
0000
0000
0000
0000
0000
0000
0000
0000
1000
0000
0000
0000
0000
0000
0000
0000
0000
0000
0000
0000
0000
0000
0000
0000
0000
0000
0000
0000
0000
0000
0000
0000
0000
0000
0000
0000
0000
0000
0000
0000
0000
0000
0000
0000
0000
0000
0000
0000
0000
0000
0000
0000
0000
0000
0000
0000
,
0000
0000
0000
0001
,
0000
1000
0000
0001
,
0000
0000
0000
0100
,
0000
0000
0000
0000
0010
0000
0000
0000
0000
0000
0000
0100
0000
0000
0000
0000
,
0000
0000
0000
0000
0000
0000
0000
0000
0000
0000
0000
0001
0000
0000
0000
0000
,
0000
0000
0000
1000
0000
0000
0000
0000
0000
0000
0000
0000
0000
0000
0000
0000
,
0001
0000
0000
0000
,
1000
0000
0000
0000
,
0001
0000
0000
0000
,
1000
0000
0000
0000
,
0010
0010
0010
0000
,
0100
0100
0100
0000
,
0001
1000
0001
1000
,
0010
0100
0010
0000
,
0100
0M00
0001
000M
,
1000
M000
0010
00M0
,
0100
0000
0100
0000
,
0001
0000
0001
0000
,
1000
1000
1000
1000
,
0010
0010
0010
0010
,
0000
2000
0000
0000
,
0000
3002
0000
0000
,
0000
2003
0000
0000
,
0000
3002
0000
0000
,
0000
0203
0000
0000
,
0000
0320
0000
0000
,
0000
0230
0000
0000
,
0000
0320
0000
0000
,
0000
1030
0010
1000
,
0000
0001
0100
0001
,
0000
1000
0010
1000
,
0000
0001
0100
0001
,
0000
1000
0100
1000
,
0000
0001
0010
0001
,
0000
1000
0100
1000
,
0000
0001
1000
0001
,
0100
0000
0000
0000
;
