#TITLE:with me...;
#SUBTITLE:;
#ARTIST:Sota Fujimori ft. Kemy;
#TITLETRANSLIT:;
#SUBTITLETRANSLIT:;
#ARTISTTRANSLIT:;
#GENRE:;
#CREDIT:Telperion;
#BANNER:with_me-bn.png;
#BACKGROUND:with_me-bg.png;
#LYRICSPATH:;
#CDTITLE:;
#MUSIC:with_me.ogg;
#OFFSET:-0.413;
#SAMPLESTART:53.740;
#SAMPLELENGTH:20.000;
#SELECTABLE:YES;
#BPMS:0.000=144.000;
#STOPS:;
#BGCHANGES:;
#KEYSOUNDS:;

//---------------dance-single - Telperion----------------
#NOTES:
     dance-single:
     Telperion:
     Hard:
     9:
     0.578,0.598,0.137,0.170,0.255:
0000
0000
0000
0000
,
0000
0000
0000
0000
,
0000
0000
0000
0000
,
0000
0000
0000
0000
,
1000
0000
0002
0000
1003
0010
0010
0000
,
0100
0001
0010
0000
0100
1000
0001
0000
,
0100
0010
0000
1000
0010
0000
0100
0000
0001
0000
0001
0000
0001
0000
0000
0000
,
0010
0100
0000
1000
0100
0000
1000
0000
0001
0000
1000
0000
0010
0100
0010
0000
,
2000
0001
0010
3010
,
0100
0001
0100
0010
0000
1000
0100
0001
,
0000
0000
0100
1000
0010
1000
0001
0000
,
0001
0010
0100
0010
0000
0001
0100
1000
,
0000
0000
0100
0010
1000
0001
0100
0001
,
0010
0100
1000
0100
0000
0010
0001
0100
,
0000
0000
0010
0010
0100
0001
0001
0000
,
1000
0100
0010
0001
0000
0010
0100
0000
,
1001
0000
0101
0000
1010
0000
0101
0001
,
1000
0100
0010
0100
0000
1000
0100
0001
,
0000
0000
0100
1000
0010
1000
0010
0000
,
0100
0001
0010
0100
0000
1000
0010
0001
,
0000
0000
0110
0000
1010
0000
1100
1000
,
0010
0100
0001
0100
0000
0001
0010
1000
,
0010
0010
0100
0000
0110
0100
1001
0000
,
0001
0100
0010
0100
1000
0001
0010
1000
,
0001
0000
0010
0000
0000
0100
0000
0010
0100
0000
1000
0000
0010
1000
0000
1000
,
0001
0000
0100
0010
0100
0000
0000
0100
0001
0000
0001
0000
1000
0000
0000
0000
,
0100
0000
0100
0000
1000
0100
0000
0010
0001
0000
0001
0000
0010
0100
0000
0000
,
1000
0000
1000
0000
0010
0100
0000
0100
0001
0100
0001
0000
1000
0000
0000
0000
,
0200
0320
0032
2003
,
3001
0000
0100
0001
0100
0000
0000
0010
1000
0000
1000
0000
1000
0000
0000
0000
,
0001
1000
0000
0001
0010
0000
0100
0000
0010
0100
0000
1000
0100
0000
0000
0000
,
1000
0000
0010
0000
0010
0100
0000
0000
0001
0000
1000
0000
1000
0000
0000
0000
,
0001
0000
0000
1000
0100
0000
0000
0100
0010
0000
0000
0010
0001
1000
0002
0000
,
0000
0103
0100
0100
0000
0000
0100
0000
,
0010
0000
1000
0001
0000
1000
0000
0001
0000
0000
0000
0000
0001
0000
0000
0000
,
1000
0000
0010
0000
0000
0010
0000
0000
0100
0000
0100
0000
0001
0000
0000
0000
,
0021
0230
2300
3002
,
0013
0100
0100
0100
0000
0000
0100
0000
,
0010
0000
0001
1000
0000
0001
0000
1000
0000
0000
0000
0000
1000
0000
0000
0000
,
0010
0100
1000
0100
0010
0100
0001
0000
,
0020
0000
1000
0000
0031
0100
0010
0000
,
2000
0000
0010
0000
3100
0010
0001
0000
,
0200
0000
1000
0000
0301
1000
0100
0000
,
0010
0100
0001
0100
0010
0100
1000
0000
,
0001
0200
0001
0000
1300
0100
0001
0010
,
0100
2000
0100
0000
3001
0100
0010
0010
,
1000
0200
1000
0000
0301
0100
1000
0010
,
0100
0000
0000
1000
0000
0000
0100
0000
0000
0010
0000
0000
0001
0000
0000
0010
0000
0000
1000
0000
0001
0000
1000
0000
,
0001
0000
0000
0000
0011
0000
0000
0001
0000
0000
1000
0000
1010
0000
0000
0000
,
0100
0000
0001
0000
0101
0000
0000
0010
0000
0000
0100
0000
1000
0000
0010
0000
,
0100
0001
0100
0000
0010
0000
0000
1000
0000
0000
0010
0000
0100
0000
0000
0000
,
0002
0000
0000
0000
0023
0000
0000
0000
0230
0000
0000
0000
1300
0001
1000
0000
,
0010
0000
0100
0000
0010
0000
0000
1000
0000
0000
0010
0000
0100
0000
0001
0000
,
0010
0000
0100
0000
0010
0000
0000
0001
0000
0000
0010
0000
0100
0000
1000
0000
,
0001
0000
0001
0000
0001
0000
0000
1000
0000
0000
0010
0000
0100
0000
0001
0000
,
0010
0001
0010
0000
0100
1000
0100
0000
1000
0010
1000
0000
0001
1000
0001
1000
,
0001
0000
0000
0000
0000
1000
0110
0000
,
0001
1000
0100
1000
0001
1000
0100
0001
,
0100
0010
0100
0010
0001
0100
1000
0100
,
0001
1000
0001
0010
0001
1000
0010
0001
,
0010
0100
0001
1000
0100
0010
1000
0010
,
0100
0010
0000
0100
0000
0000
0100
0000
1000
0000
0000
0001
0000
0000
1000
0000
,
0100
0010
0001
0011
0000
0001
0100
0000
,
0010
0100
0100
0000
,
1000
0100
0001
0010
0000
0100
0100
0000
,
0010
0000
0001
0000
0010
0100
0010
0000
0001
0000
0000
0001
0000
0000
0100
0000
,
0010
1000
0010
0100
0001
0000
0101
0000
,
1000
0000
0100
1000
0100
0000
0100
0000
0010
0000
0000
0001
0000
0000
0010
0000
,
0100
0000
1000
0000
0010
0000
1000
0000
0100
0000
0000
0000
0110
0000
0000
0100
,
1000
0000
0001
0000
1000
0000
0010
0000
0100
0010
0000
0100
0000
0000
0001
0000
,
1000
0000
0100
0000
0010
0000
0001
0000
0010
0000
0000
0100
0000
0000
1000
0000
,
0001
0000
0100
0000
0010
0000
1000
0000
0001
1000
0000
0001
0000
0000
0010
0000
,
0100
0100
0100
0100
0000
0010
0100
1000
,
0020
0000
0000
0000
,
0030
0000
0000
0000
;

//---------------dance-single - Telperion----------------
#NOTES:
     dance-single:
     Telperion:
     Medium:
     6:
     0.492,0.472,0.210,0.428,0.000:
0000
0000
0000
0000
,
0000
0000
0000
0000
,
0000
0000
0000
0000
,
0000
0000
0000
0000
,
0001
0000
2000
0000
3010
0000
0100
0001
,
0100
0010
1000
0100
,
0010
0001
0010
0000
0100
1000
1000
0000
,
0010
1000
0100
1000
0010
1000
0100
0010
,
0002
0000
0203
0000
0310
1000
0010
0100
,
0002
0103
2000
3100
,
0020
0000
0230
0000
1300
0100
0010
0001
,
0200
0000
0302
0000
1003
0010
0100
0000
,
0020
0000
0230
0000
0301
0100
0010
1000
,
0020
0000
0230
0000
0301
0010
0100
0000
,
0010
0001
0010
0000
0100
1000
0100
0001
,
0100
1000
0010
0100
,
0110
0200
0302
1000
,
0013
0000
0100
1000
0000
1000
0001
0000
,
2000
3020
0100
1030
,
0100
0010
0001
0010
0000
0010
0100
0000
,
2000
3002
1003
0011
,
0010
0000
0100
1000
0000
1000
0010
0000
,
0200
0010
1000
0310
,
1000
0100
0010
0001
0010
0100
1000
0000
,
0010
0110
1000
1100
,
0001
0100
0100
0000
0010
0000
0101
0000
,
1000
0000
1010
0000
0001
0001
0010
0000
,
0001
1000
0000
1000
0100
1000
0100
0000
,
2000
3020
0230
0000
,
0301
0100
0100
0000
0010
0100
0001
0000
,
0010
0110
1000
1100
,
0001
0100
0000
0100
0010
1000
0100
0010
,
0002
0000
0023
0000
0230
0000
0301
0100
,
1000
0010
0010
0010
0000
0000
0010
0000
,
2000
0001
0010
0100
,
3002
1000
0100
0013
,
0200
0000
0320
0000
0230
0000
0301
0100
,
1000
0010
0010
0010
0000
0000
0010
0000
,
0200
1000
0010
0301
,
0010
0001
0010
0100
0010
0100
1000
0000
,
0020
0100
0001
1030
,
0200
0010
0001
1300
,
0020
0001
1030
1100
,
0020
1000
0031
0101
,
0010
0100
0010
0000
1000
0100
1000
0100
,
0010
0100
0010
0000
0001
0100
0010
0010
,
1000
0010
0100
0000
0001
1000
0100
0000
,
0010
0001
0010
0100
1000
0100
0020
0000
,
0130
2100
3001
0102
,
0013
0210
1300
0210
,
0301
1000
0021
0000
0130
0000
2100
0000
,
3010
0000
0201
0000
0310
1000
0100
0000
,
0010
0100
1000
0000
0001
0100
0010
0100
,
0001
1000
0100
0000
0010
0100
1000
0100
,
0010
0010
0010
0000
0100
1000
0010
0100
,
0001
1001
1001
1001
,
0000
0000
0000
0110
,
1000
0011
0101
0010
,
1000
0100
0010
0001
0000
0010
0000
0000
,
0001
1100
1010
0100
,
0001
0100
0010
1000
0000
0000
1000
0000
,
0200
0320
0032
0023
,
0130
1000
0010
0110
0000
0000
0000
0000
,
0002
0203
0320
0230
,
0301
0010
0100
1000
0000
1000
0001
0000
,
0100
0000
0000
0100
0010
0000
1000
0000
,
0001
0010
0100
0010
0000
0000
0000
0000
,
0001
0000
0000
0001
0100
0000
0010
0000
,
1000
0001
0010
0001
1000
0000
1000
0001
,
1000
0000
0000
1000
0010
0000
0100
0000
,
0010
1000
0100
0010
0100
0000
0100
0000
,
0010
0000
0000
0010
0100
0000
1000
0100
,
0010
0001
0010
0010
0000
0100
0200
0000
,
0300
0000
0000
0000
;

//---------------dance-single - Telperion----------------
#NOTES:
     dance-single:
     Telperion:
     Easy:
     3:
     0.272,0.295,0.048,0.186,0.000:
0000
0000
0000
0000
,
0000
0000
0000
0000
,
0000
0000
0000
0000
,
0000
0000
0000
0000
,
0001
0020
0130
2000
,
3010
0100
0001
0100
,
0010
1000
0100
0010
,
0002
0000
0003
0000
,
1000
1000
1000
0000
,
0010
0010
0010
0000
,
0100
0100
0100
0000
,
0001
0001
0001
0000
,
0010
0001
0010
0000
,
0100
1000
0100
0000
,
1000
0010
1000
0000
,
0001
0001
1000
1000
,
0001
0100
0001
0000
,
0010
0100
0010
0000
,
0001
1000
0001
0000
,
0100
0010
1000
0000
,
0001
0001
0001
0000
,
0010
0010
0100
0000
,
1000
1000
1000
0001
,
0100
0010
0100
0110
,
0001
0000
1000
0000
,
0100
0010
0000
0010
,
0100
0000
1000
0000
,
0010
0010
0000
0010
,
0100
0001
0200
0000
,
0000
0010
0000
0310
,
1000
0000
0001
0000
,
1000
0001
1000
0000
,
0100
0010
0001
2000
,
3000
0010
0000
0010
,
1000
0010
0100
0002
,
0003
1000
0100
0100
,
0020
0230
2300
0000
,
3100
0100
0000
0100
,
1000
0010
0100
0000
,
0001
0100
0001
0000
,
0020
0000
0230
0000
,
2300
0000
3002
0000
,
0203
0000
0320
0000
,
0032
0000
2003
0000
,
3020
0000
0130
0010
,
0002
0000
0103
0010
,
2000
0000
3001
1000
,
0200
0000
0310
0110
,
1001
0010
0100
0001
,
1000
0001
0010
0100
,
0001
0100
0010
0100
,
1000
0100
0010
0001
,
1001
0010
0100
0010
,
1000
0010
0100
0001
,
0010
0010
0100
1000
,
0010
0010
0010
0020
,
0030
0000
0000
1001
,
0000
0001
0001
0000
,
1000
0000
0001
0000
,
0000
0010
0010
0000
,
0100
0000
0100
0000
,
0000
1000
1000
0000
,
0010
0000
0000
0110
0000
0000
0000
0000
,
1000
0010
0100
0000
,
0001
0010
0100
0000
,
1000
0000
0001
1000
,
0010
0010
0100
0000
,
0001
0000
1000
0001
,
0010
0010
0100
0010
,
0001
0000
1000
0010
,
0100
0010
0100
0000
,
0001
0001
0010
0100
,
0010
0010
0010
0020
,
0030
0000
0000
0000
;

//---------------dance-double - Telperion----------------
#NOTES:
     dance-double:
     Telperion:
     Hard:
     8:
     0.537,0.472,0.097,0.178,0.162:
00000000
00000000
00000000
00000000
,
00000000
00000000
00000000
00000000
,
00000000
00000000
00000000
00000000
,
00000000
00000000
00000000
00000000
,
00010000
00000000
20000000
00000000
31000000
00100000
00020000
00000000
,
01030000
00100000
00010000
00000000
00001000
00000010
00000100
00000000
,
00001000
00000001
00000000
00001000
00000001
00000000
00000100
00000000
00000010
00000000
00000000
00000000
00000010
00000000
00000000
00000000
,
00000100
00001000
00000100
00001000
00000100
00000001
00000100
00000001
,
00000010
00001100
00011000
01010000
,
00100000
10000000
00100000
01000000
00000000
00100000
10000000
01000000
,
00100000
00000000
00110000
00010000
10000000
00100000
01000000
00000000
,
00100000
10000000
01000000
00100000
00000000
00010000
00100000
01000000
,
10000000
00000000
10000000
00100000
00010000
00001000
01000000
00000000
,
00001000
00010000
00000100
00001000
00000000
00001000
00000100
00000000
,
00010000
00001000
00010000
00000000
00000100
00001000
00000100
00000000
,
00000010
00000100
00000010
00000001
00000000
00000001
00000100
00000000
,
00000001
00000100
00000010
00000100
00001000
00000100
00000010
00000100
,
00001000
00010000
00001000
00100000
01000000
00100000
00010000
00000000
,
10000000
00100000
10000000
00010000
00100000
00001000
00000010
00000000
,
00000001
00000100
00000010
00001000
00000100
00001000
00000010
00000000
,
00000100
00000001
00000010
00000001
00000100
00001000
00010000
00100000
,
10000000
00100000
01000000
00010000
00100000
00001000
00010000
00000000
,
00001000
00100000
00100000
00000000
00001000
00010000
00000010
00000000
,
00000100
00000010
00000100
00001000
00000100
00000001
00001001
00000000
,
00000001
00000000
00000010
00000000
00000000
00000100
00000000
00000000
00010000
00000000
00001000
00000000
00000200
00000000
00000000
00000000
,
00000300
00000000
00001000
00010000
00001000
00000000
00000000
00000000
00100000
00000000
00010000
00000000
10000000
00000000
00000000
00000000
,
01000000
00000000
00100000
00000000
00000000
10000000
00000000
00000000
00100000
00000000
00001000
00000000
00010000
00000000
00000000
00000000
,
00100000
00000000
01000000
00000000
00000000
00001000
00000000
00010000
00001000
00010000
00001000
00000000
00001000
00000000
00000000
00000000
,
00020000
00030200
00000320
00000000
,
00000031
00000000
00000100
00000010
00000100
00000000
00000000
00000000
00000001
00000000
00000100
00000000
00001000
00000000
00000000
00000000
,
00010000
00000100
00000000
00000100
00001000
00000000
00000000
00000000
00000100
00000000
00010000
00000000
00001000
00000000
00000000
00000000
,
01000000
00000000
00001000
00000000
00000000
00010000
00000000
00000000
01000000
00000000
10000000
00000000
00100000
00000000
00000000
00000000
,
10000000
00000000
00000000
10000000
01000000
00000000
00000000
01000000
00010000
00000000
00000000
00010000
00002000
00000000
00000000
00000000
,
00000000
00000100
00000100
00000100
00003000
00000000
00000100
00000000
,
00000010
00000000
00000000
00001000
00000000
00000010
00000000
00000100
00000000
00000000
00000000
00000000
00000100
00000000
00000000
00000000
,
00000001
00000000
00000010
00000000
00000000
00000100
00000000
00000000
00001000
00000000
00000100
00000000
00000001
00000000
00000000
00000000
,
00000200
00020300
00032000
01000000
,
00000000
00000100
00000100
00000100
00003000
00000000
00000100
00000000
,
00000010
00000000
00000000
00001000
00000000
00000001
00000000
00000010
00000000
00000000
00000000
00000000
00000010
00000000
00000000
00000000
,
00000100
00000010
00001000
00010000
00000100
00010000
01000000
00100000
,
00020000
00000000
01000000
00000000
00030100
00000010
00001000
00000001
,
00002000
00000000
00000100
00000000
01003000
00100000
00010000
00010000
,
02000000
00000000
00100000
00000000
13000000
01000000
00100000
00010000
,
00000100
00000000
00000000
00000000
00000010
00000000
00000000
00000000
00000100
00000000
00000000
00000000
00001000
00000000
00000000
00001000
,
00000001
00000200
00001000
00000000
00000310
00000000
00000010
00000000
,
00001000
00000200
00000010
00000000
00010300
00000000
00001000
00001000
,
00100000
00020000
10000000
00000000
00130000
00000000
00001000
00010000
,
00100000
00000000
00000000
00010000
00000000
00000000
00001000
00000000
00000000
00000010
00000000
00000000
00001000
00000000
00000000
00010000
00000000
00000000
00001000
00000000
00010000
00000000
00001000
00000000
,
00010000
00000100
00000010
00000000
00000001
00000100
00001000
00000000
,
00100000
01000000
10000000
00000000
00100000
00010000
00001000
00000010
,
00000100
00000010
00000100
00000000
00000010
00000000
00000000
00000000
00000100
00000000
00001000
00000000
00000001
00000000
00000000
00000000
,
00000100
00000000
00000010
00000000
00001000
00000000
00000000
00000100
00000000
00010000
00000000
00000000
00001000
00010000
00001000
00000000
,
00100000
02000000
00010000
00000000
13000000
00100000
00010000
00001000
,
00000100
00000020
00000001
00000000
00001030
00000100
00000001
00000100
,
00001000
00001000
00002000
00000000
00000001
00000000
00003100
00000000
,
00000110
00000000
00010100
00000000
01001000
00000000
01100000
00100000
,
00000000
00000000
00000000
00000000
00000000
10000000
01010000
00000000
,
10000000
01000000
00100000
01000000
00010000
01000000
00100000
00001000
,
00000100
00000010
00001000
00000010
00000001
00000010
00010000
00000000
,
00000010
00000100
00000001
00000100
00000010
00010000
01000000
10000000
,
00010000
00100000
01000000
00100000
10000000
00100000
00001000
00000000
,
00100000
00000000
00000000
01000000
00000000
00000000
10000000
00000000
00100000
00000000
00000000
01000000
00000000
00000000
00010000
00000000
,
00100000
00001000
00011000
00002200
00000000
00000000
00003300
00000000
,
00010000
00000100
00000010
00000000
00001000
00000000
00000000
00000000
,
00000010
00000001
00000100
00001000
00000000
00000100
00000010
00000000
,
00000010
00000000
00000100
00000000
00000100
00000000
00000001
00000000
00000100
00000000
00000000
00000001
00000000
00000000
00000010
00000000
,
00000100
00000000
00010000
00000000
00010000
00000000
00001000
00000000
01000000
00000000
00000000
00010000
00000000
00000000
01000000
00000000
,
00100000
00000000
10000000
00100000
10000000
00000000
00010000
00000000
01000000
00000000
00000000
00001000
00000000
00000000
00010000
00000000
,
00000100
00000000
00001000
00000000
00001000
00000000
00000000
00000000
00000001
00000000
00000000
00000000
00000010
00000000
00000000
00000001
,
00001000
00000000
00000010
00000000
00000100
00000000
00000010
00000000
00001000
00000010
00000000
00000010
00000000
00000000
00000000
00000000
,
00000100
00001000
00010000
00001000
00100000
00000000
00000000
00000000
,
01000000
00000000
00100000
00000000
01000000
00000000
10000000
00000000
00010000
10000000
00000000
10000000
00000000
00000000
00100000
00000000
,
00010000
00000100
00000010
00000001
00000000
00000010
00001000
02000000
,
03000000
00000000
00000000
00000000
;

//---------------dance-single - Telperion----------------
#NOTES:
     dance-single:
     Telperion:
     Beginner:
     2:
     0.118,0.146,0.000,0.000,0.000:
0000
0000
0000
0000
,
0000
0000
0000
0000
,
0000
0000
0000
0000
,
0000
0000
0000
0000
,
0001
0000
0000
0000
,
0000
0000
0000
0000
,
1000
0000
0000
0000
,
0010
0000
0000
0000
,
0010
0000
0000
0000
,
0100
0000
0000
0000
,
0001
0000
0000
0000
,
0100
0100
0100
0000
,
0010
0000
0000
0000
,
1000
0000
0000
0000
,
0100
0000
0000
0000
,
0010
0010
0010
0000
,
0001
0000
0000
0000
,
0010
0000
0000
0000
,
0100
0000
0000
0000
,
1000
1000
1000
0000
,
0010
0000
0000
0000
,
0100
0000
0000
0000
,
0001
0000
0000
0000
,
0010
0010
0100
0100
,
0010
0000
0000
0000
,
0010
0000
0000
0000
,
0010
0000
0000
0000
,
0010
0000
0000
0000
,
0100
0000
0000
0000
,
0100
0000
0000
0000
,
0100
0000
0000
0000
,
0100
0000
0000
0000
,
1000
0001
1000
0000
,
0000
0000
0000
0000
,
0001
1000
0001
0000
,
0000
0000
0000
0000
,
1000
0100
1000
0000
,
0000
0000
0000
0000
,
0001
0100
0001
0000
,
0010
0000
0010
0000
,
0100
0000
0100
0000
,
0100
0000
0100
0000
,
0010
0000
0010
0000
,
0010
0000
0010
0000
,
0001
0000
0001
0000
,
0001
0000
0001
0000
,
1000
0000
1000
0000
,
1000
0000
1000
0000
,
0010
0000
0010
0000
,
0100
0000
0100
0000
,
0001
0000
0001
0000
,
0010
0000
0010
0000
,
0001
0000
0001
0000
,
0100
0000
0100
0000
,
0010
0000
0010
0000
,
1000
0000
1000
0000
,
1000
0000
0000
0001
,
0001
0000
0000
0000
,
1000
0000
0000
0000
,
0100
0000
0000
0000
,
0010
0000
0000
0000
,
0100
0000
0000
0000
,
1000
0000
0000
0000
,
0001
0000
0000
0000
,
0100
0000
0000
0000
,
0010
0000
0000
0000
,
0100
0000
0000
0000
,
0001
0000
0000
0000
,
0100
0000
0000
0000
,
0010
0000
0000
0000
,
1000
0000
0000
0000
,
0001
0000
0000
0000
,
0010
0010
0010
0000
;
