#TITLE:WARP!;
#SUBTITLE:;
#ARTIST:oo39.com;
#TITLETRANSLIT:;
#SUBTITLETRANSLIT:;
#ARTISTTRANSLIT:;
#GENRE:;
#CREDIT:;
#MENUCOLOR:;
#METERTYPE:DDR;
#BANNER:WARP!.png;
#BACKGROUND:WARP!-bg.png;
#LYRICSPATH:;
#CDTITLE:;
#MUSIC:WARP!.mp3;
#OFFSET:0.000;
#SAMPLESTART:38.710;
#SAMPLELENGTH:12.000;
#SELECTABLE:YES;
#LISTSORT:;
#BPMS:0.000=180.000,148.000=90.000,156.000=180.000;
#STOPS:;
#BGCHANGES:;
#ATTACKS:;

//---------------dance-single - by Darkstormo091----------------
#NOTES:
     dance-single:
     by Darkstormo091:
     Hard:
     8:
     0.658,0.775,0.330,0.198,0.066: // measure 1
0000
0000
0000
0000
,  // measure 2
0000
0000
0000
0000
,  // measure 3
0000
0000
0000
0000
,  // measure 4
0000
0000
0000
0000
,  // measure 5
0000
0000
0000
0000
,  // measure 6
0010
0100
0001
1000
0100
0000
0000
0010
,  // measure 7
0001
0000
0010
0100
1000
0010
0100
0000
,  // measure 8
0001
0100
0010
1000
0100
0000
0000
1000
,  // measure 9
0100
0000
0010
0100
1000
0010
0100
0000
,  // measure 10
0110
0000
0100
0101
0000
0001
0010
0100
,  // measure 11
1100
0000
1000
1010
0000
0100
0101
0000
,  // measure 12
1001
0000
1000
1100
0000
0100
0010
0001
,  // measure 13
0011
0000
0010
0110
0100
1000
1001
0000
,  // measure 14
1000
0010
0001
0000
0010
0000
1000
0000
,  // measure 15
0100
0010
0001
0000
0100
0010
1000
0000
,  // measure 16
0100
0010
0001
0000
1000
0000
0010
0000
,  // measure 17
0100
0010
1000
0000
0100
0010
0001
0000
,  // measure 18
1000
0010
0100
0000
0010
0000
1000
0000
,  // measure 19
0100
0010
0001
0000
1000
0010
0001
0000
,  // measure 20
0001
0010
1000
0000
0100
0000
0010
0000
,  // measure 21
0001
1000
0010
0000
0100
0010
1000
0001
,  // measure 22
0010
0100
0010
0000
0001
1000
0010
0000
,  // measure 23
0100
0010
1000
0100
0010
0001
0100
0000
,  // measure 24
0010
1000
0100
0000
0010
0100
0001
0000
,  // measure 25
0100
1000
0010
0001
0010
1000
0001
0000
,  // measure 26
0100
0010
1000
0000
0001
0010
1000
0000
,  // measure 27
1000
0010
0001
0100
0010
1000
0100
0000
,  // measure 28
0010
0001
1000
0000
0010
0100
0001
0000
,  // measure 29
1000
0100
0001
0100
1000
0010
0110
0000
,  // measure 30
1000
0001
0000
0100
0010
1000
0000
0100
,  // measure 31
0020
0000
0032
0000
2003
0000
3010
0001
,  // measure 32
0010
1000
0000
0100
0010
0001
0000
0100
,  // measure 33
0020
2030
3001
0011
,  // measure 34
1000
0010
0001
0010
1000
0100
0010
0001
,  // measure 35
0200
0000
0320
0000
2030
0000
3001
0010
,  // measure 36
0100
0010
0001
1000
0010
0100
0001
1000
,  // measure 37
0200
0320
0032
2003
,  // measure 38
3010
0000
1000
0100
0000
0010
0100
1000
0010
0000
0100
0001
0000
1000
0010
0001
,  // measure 39
0010
0000
1000
0100
0000
0010
0100
1000
0010
0000
0100
0001
0000
1000
0100
0010
,  // measure 40
0001
1000
0100
0010
0001
0010
0001
1000
,  // measure 41
1001
1010
0110
0011
,  // measure 42
0001
0010
1000
0010
0001
0100
0010
1000
,  // measure 43
1010
1100
0011
0101
,  // measure 44
1000
0100
0001
0100
1000
0010
0100
0010
,  // measure 45
1010
0110
0011
1001
,  // measure 46
0001
1000
0010
0001
0010
1000
0100
0010
,  // measure 47
0110
1010
0101
0011
,  // measure 48
1000
0100
0010
0100
1000
0010
0001
0010
,  // measure 49
1000
0001
0100
1000
0100
0010
2000
0000
,  // measure 50
3100
0010
0100
1000
0010
0001
0010
1000
,  // measure 51
0001
0010
0100
0010
0100
1000
0020
0000
,  // measure 52
1030
0001
0100
1000
0100
0001
0010
0100
,  // measure 53
0010
0100
1000
0010
0001
0010
2000
0000
,  // measure 54
3001
0010
0100
1000
0100
0010
0100
1000
,  // measure 55
0010
0001
0010
1000
0001
0100
0020
0000
,  // measure 56
1030
0000
0001
0100
0000
0010
1000
0100
,  // measure 57
0010
0000
0001
1000
0000
0010
1000
0010
,  // measure 58
0001
0000
0010
1000
0000
0100
0010
0001
,  // measure 59
0100
0000
0010
1000
0000
0100
0110
0000
,  // measure 60
0001
0000
0010
0100
0000
0010
0001
0100
,  // measure 61
0010
0000
1000
0001
0000
0100
1000
0100
,  // measure 62
0001
0000
0010
0100
0000
0010
0001
0100
,  // measure 63
0010
0000
0100
0001
0000
0100
0010
1000
,  // measure 64
2002
0000
0000
0000
,  // measure 65
3003
0000
0000
0000
;

//---------------dance-single - by Darkstorm091----------------
#NOTES:
     dance-single:
     by Darkstorm091:
     Medium:
     6:
     0.562,0.670,0.319,0.297,0.044:
0000
0000
0000
0000
,
0000
0000
0000
0000
,
0000
0000
0000
0000
,
0000
0000
0000
0000
,
0000
0000
0000
0000
,
0020
0000
0230
0000
0301
0000
0000
1000
,
0100
0000
0010
0001
0010
0000
0100
0000
,
0020
0000
0032
0000
0103
0000
0000
0010
,
1000
0000
0001
0010
0100
0000
0010
0000
,
1100
0000
0000
0101
0000
0000
0000
0000
,
0110
0000
0000
1100
0000
0001
0010
0000
,
0110
0000
0000
1100
0000
0000
0000
0000
,
0101
0000
0000
0110
0100
0001
1001
0000
,
0010
0100
0001
1000
,
0100
0000
0010
0000
0001
0010
0100
0000
,
1000
0001
0100
0010
,
0100
0000
0001
0000
1000
0010
0100
0000
,
0001
0010
0100
1000
,
0001
0000
0100
0000
0010
0100
0001
0000
,
0010
0100
1000
0001
,
0010
0000
0001
0000
0010
0100
1000
0000
,
0001
0010
0100
0000
0010
0000
0001
0000
,
0100
0010
1000
0000
0001
0010
0100
0000
,
1000
0001
0100
0000
0010
0000
0100
0000
,
0001
0010
0001
0000
0010
0100
0010
0000
,
0001
0100
0010
0000
1000
0000
0001
0000
,
0100
0010
0100
0000
0001
0010
0001
0000
,
1000
0010
0100
0000
0001
0000
0010
0000
,
0100
1000
0010
0000
0100
0001
0101
0000
,
0010
0100
0000
0001
0000
0010
0000
0100
,
0020
0000
0032
0000
0203
0000
0310
1000
,
0001
0100
0000
0010
0100
0001
0000
0010
,
0200
2300
3010
0110
,
0001
1000
0010
0000
0100
0001
0010
0000
,
0002
0000
2003
0000
3020
0000
0130
0001
,
1000
0010
0100
0000
0001
0010
0100
0000
,
2000
3002
2003
3020
,
0130
0000
0001
1000
0000
0010
0100
0000
0001
0000
0010
0100
0000
0100
0010
0000
,
0001
0000
0100
0010
0000
1000
0001
0000
0010
0000
0001
0010
0000
0010
0100
0000
,
1000
0010
0100
0000
0001
0010
0001
0000
,
0011
0110
1100
1010
,
1000
0001
0100
0000
0010
0100
0001
0000
,
0101
1001
1100
1010
,
0100
0001
0010
0000
0001
0010
0100
0000
,
1100
1010
1001
0101
,
0100
0001
0010
0000
0100
0010
0100
0000
,
1100
1010
0101
0011
,
1000
0010
1000
0100
1000
0000
0001
0100
,
0020
0000
0230
0000
0301
0010
0100
0000
,
1000
0010
0100
0001
1000
0000
0010
0100
,
0002
0000
0203
0000
0310
0100
0001
0000
,
0010
0100
1000
0010
0100
0000
0001
0010
,
0200
0000
0320
0000
0031
0100
0010
0000
,
0100
0001
1000
0010
0100
0000
0001
0010
,
0200
0000
2300
0000
3010
0100
0020
0000
,
0130
0000
0001
0010
0000
0100
0000
0010
,
0001
0000
0100
0010
0000
1000
0000
0001
,
0100
0000
0010
0100
0000
0010
0000
1000
,
0001
0000
0010
0100
0000
0010
0110
0000
,
1000
0000
0010
0100
0000
0001
0000
1000
,
0010
0000
1000
0100
0000
0010
0000
0100
,
1000
0000
0010
0100
0000
0001
0000
1000
,
0010
0000
0100
0010
0000
1000
0000
0001
,
2002
0000
0000
0000
,
3003
0000
0000
0000
;

//---------------dance-single - by Darkstorm091----------------
#NOTES:
     dance-single:
     by Darkstorm091:
     Easy:
     4:
     0.437,0.529,0.330,0.419,0.044:
0000
0000
0000
0000
,
0000
0000
0000
0000
,
0000
0000
0000
0000
,
0000
0000
0000
0000
,
0000
0000
0000
0000
,
0020
0230
0301
0000
,
1000
0000
0010
0100
,
0002
2003
3100
0000
,
0010
0000
0001
0100
,
0110
0000
0000
0101
0000
0000
0000
0000
,
1001
0000
0000
1100
0000
0000
1010
0000
,
1001
0000
0000
0101
0000
0000
0000
0000
,
0011
0000
0000
0110
0000
0000
1100
0000
,
0001
1000
0010
0000
,
0100
0001
0010
0000
,
0100
0010
0001
0000
,
0100
0010
1000
0000
,
0001
1000
0010
0000
,
0100
0001
0010
0000
,
0001
0010
0100
0000
,
1000
0001
0100
0010
,
0100
0001
1000
0100
,
0010
0100
0010
0002
,
0103
0010
1000
0001
,
0100
0010
1000
0002
,
0013
0100
0010
0001
,
0100
0010
1000
0002
,
0103
0010
1000
0100
,
0010
0100
1000
1010
,
0010
0000
0000
0100
0000
0000
0001
0000
,
2000
3020
0230
0301
,
1000
0000
0000
0010
0000
0000
0100
0000
,
0020
2030
3001
1001
,
1000
0010
0100
0001
,
0020
0230
0320
0031
,
1000
0010
0100
0001
,
2000
3200
0320
0032
,
1003
0000
0000
0010
0000
0010
0000
0000
0100
0000
0000
0001
0000
0001
0000
0000
,
0010
0000
0000
0100
0000
0100
0000
0000
0010
0000
0000
0001
0000
0001
0000
0000
,
1000
0100
0010
0100
,
2000
3002
0203
0320
,
0130
0001
1000
0001
,
2000
3020
0230
0302
,
0013
0100
0010
0001
,
0200
0302
2003
3020
,
1030
0001
0100
0010
,
0200
0302
0023
0230
,
0310
0001
0100
0010
,
0110
0101
1001
1100
,
1000
0001
0010
0100
,
0110
0011
0101
0110
,
0010
1000
0001
1000
,
1100
1001
0101
0011
,
0010
0100
0010
0001
,
0011
1010
1100
1002
,
0103
0000
0000
0010
0000
1000
0000
0000
,
0001
0000
0000
0010
0000
0100
0000
0000
,
0010
0000
0000
0001
0000
0100
0000
0000
,
0010
0000
0000
1000
0000
0000
1001
0000
,
0010
0000
0000
0100
0000
0001
0000
0000
,
1000
0000
0000
0100
0000
0010
0000
0000
,
0001
0000
0000
0100
0000
0010
0000
0000
,
0100
0000
0000
0001
0000
1000
0000
0000
,
2002
0000
0000
0000
,
3003
0000
0000
0000
;
