#TITLE:Thank You!!;
#SUBTITLE:;
#ARTIST:Home Made Kazoku;
#TITLETRANSLIT:;
#SUBTITLETRANSLIT:;
#ARTISTTRANSLIT:;
#CREDIT:348;
#BANNER:Thank You!! Banner.png;
#BACKGROUND:Thank You!! Background.png;
#LYRICSPATH:Thank You!!.lrc;
#CDTITLE:;
#MUSIC:Thank You!!.mp3;
#OFFSET:-0.209;
#SAMPLESTART:17.351;
#SAMPLELENGTH:15.000;
#SELECTABLE:YES;
#BPMS:0.000=112.000;
#STOPS:;
#BGCHANGES:;

//---------------dance-single - ----------------
#NOTES:
     dance-single:
     :
     Beginner:
     1:
     0.078,0.116,0.000,0.000,0.000: // measure 1
0000
0000
0000
0000
,  // measure 2
0000
0000
0000
0000
,  // measure 3
0000
0000
0000
0000
,  // measure 4
0000
0000
0000
0000
,  // measure 5
1000
0000
0000
0000
,  // measure 6
0001
0000
0000
0000
,  // measure 7
1000
0000
0000
0000
,  // measure 8
0001
0000
0000
0000
,  // measure 9
0100
0000
0000
0000
,  // measure 10
0100
0000
0100
0000
,  // measure 11
0010
0000
0000
0000
,  // measure 12
0010
0000
0010
0000
,  // measure 13
1000
1000
0000
0000
,  // measure 14
0001
0001
0000
0000
,  // measure 15
0100
0000
0000
0000
,  // measure 16
0010
0000
0100
0000
,  // measure 17
0001
0000
0000
0000
,  // measure 18
0001
0000
0000
0000
,  // measure 19
1000
0000
0000
0000
,  // measure 20
1000
0000
0000
0000
,  // measure 21
0010
0000
0000
0000
,  // measure 22
0100
0000
0000
0000
,  // measure 23
0010
0000
0000
0000
,  // measure 24
0100
0000
0000
0000
,  // measure 25
0010
0000
0010
0000
,  // measure 26
0000
0000
0000
0000
,  // measure 27
0100
0000
0100
0000
,  // measure 28
0000
0000
0000
0000
,  // measure 29
0001
0000
1000
0000
,  // measure 30
0000
0000
0000
0000
,  // measure 31
0001
0000
1000
0000
,  // measure 32
0000
0000
0000
0000
,  // measure 33
0001
0000
0000
0000
,  // measure 34
1000
0000
0001
0000
,  // measure 35
0100
0000
0000
0000
,  // measure 36
0010
0000
0100
0000
,  // measure 37
0010
0010
0000
0000
,  // measure 38
0100
0100
0000
0000
,  // measure 39
0001
0000
0100
0000
,  // measure 40
0010
0000
1000
0000
,  // measure 41
0001
0000
0000
0000
,  // measure 42
0010
0000
0000
0000
,  // measure 43
0100
0000
0000
0000
,  // measure 44
1000
0000
0000
0000
,  // measure 45
1000
0000
0000
0000
,  // measure 46
0100
0000
0000
0000
,  // measure 47
0010
0000
0000
0000
,  // measure 48
0001
0000
0000
0000
,  // measure 49
1000
0000
0000
0000
;

//---------------dance-single - ----------------
#NOTES:
     dance-single:
     :
     Easy:
     3:
     0.191,0.256,0.048,0.155,0.000: // measure 1
0000
0000
0000
0000
,  // measure 2
0000
0000
0000
0000
,  // measure 3
0000
0000
0000
0000
,  // measure 4
0000
0000
0000
0000
,  // measure 5
1000
0000
0100
0000
,  // measure 6
1000
0000
0000
0000
,  // measure 7
0001
0000
0010
0000
,  // measure 8
0001
0000
0000
0000
,  // measure 9
1000
1000
0000
0001
,  // measure 10
0001
0001
0000
1000
,  // measure 11
0010
0000
0100
0000
,  // measure 12
0010
0000
0100
0000
,  // measure 13
0001
0010
0000
0100
,  // measure 14
1000
0100
0000
0010
,  // measure 15
0001
1000
0001
0000
,  // measure 16
2000
3000
0002
0003
,  // measure 17
1000
0100
0010
0000
,  // measure 18
0010
0100
1000
0000
,  // measure 19
0001
1000
0100
0010
,  // measure 20
0001
0000
1001
0000
,  // measure 21
0010
0001
1000
0100
,  // measure 22
2000
0000
3001
0010
,  // measure 23
0001
1000
0100
1000
,  // measure 24
0011
0000
1100
0000
,  // measure 25
0001
1000
0000
1000
,  // measure 26
0010
0100
0000
0100
,  // measure 27
0001
0010
1000
0010
,  // measure 28
0001
0100
1000
0100
,  // measure 29
0002
1003
2000
3001
,  // measure 30
0002
0003
0200
0300
,  // measure 31
0020
0030
1000
0001
,  // measure 32
2000
0000
3001
1000
,  // measure 33
0010
0010
0000
0100
,  // measure 34
0100
0100
0000
0010
,  // measure 35
1000
0000
0001
0000
,  // measure 36
0001
0000
1000
0000
,  // measure 37
0010
1000
0000
0001
,  // measure 38
0100
0001
0000
1000
,  // measure 39
0100
0010
0001
0000
,  // measure 40
0200
0300
0020
0030
,  // measure 41
1000
0000
0001
0010
,  // measure 42
0010
0000
0100
1000
,  // measure 43
1000
0000
0110
0000
,  // measure 44
0001
0000
0110
0000
,  // measure 45
2000
0000
3010
0000
,  // measure 46
0002
0000
0103
0000
,  // measure 47
0200
0000
0301
0000
,  // measure 48
0020
0000
2030
0000
,  // measure 49
3000
0000
0000
0000
;

//---------------dance-single - ----------------
#NOTES:
     dance-single:
     :
     Medium:
     5:
     0.303,0.302,0.116,0.242,0.000: // measure 1
0000
0000
0000
0000
,  // measure 2
0000
0000
0000
0000
,  // measure 3
0000
0000
0000
0000
,  // measure 4
0000
0000
0000
0000
,  // measure 5
0001
0000
0000
0100
0000
0000
0010
0000
,  // measure 6
1000
0000
0000
0010
0000
0000
0100
0000
,  // measure 7
0001
0000
0000
1000
0000
0000
0001
0000
,  // measure 8
0100
0000
0000
0220
0000
0000
0330
0000
,  // measure 9
1000
0000
0100
0000
1000
0001
1000
0000
,  // measure 10
0001
0000
0010
0001
0010
0000
0001
0000
,  // measure 11
0200
0310
0002
1003
,  // measure 12
1000
0100
1000
0000
0001
0000
0010
0000
,  // measure 13
0001
1100
0001
1010
,  // measure 14
1000
0101
1000
0011
,  // measure 15
1000
0000
0100
0000
0010
0001
0010
0000
,  // measure 16
0001
0000
1000
1000
0000
0001
0001
0000
,  // measure 17
2000
3100
2000
3010
,  // measure 18
1000
0000
0001
0010
0001
0000
1000
0000
,  // measure 19
0002
0013
0002
0103
,  // measure 20
0100
0001
0100
0000
0010
0000
1001
0000
,  // measure 21
0200
0000
0310
1000
,  // measure 22
0001
0000
1000
0000
0010
1000
0010
0000
,  // measure 23
1000
0000
0001
0000
0100
0001
0100
0000
,  // measure 24
0001
0002
0000
1003
,  // measure 25
2000
3100
0100
1000
,  // measure 26
0001
0010
0001
0000
1000
0000
0001
0000
,  // measure 27
0200
0000
0001
0310
,  // measure 28
0001
0000
1000
0100
1000
0000
0010
0000
,  // measure 29
1000
0100
1000
0101
,  // measure 30
0001
0000
1010
0000
0001
0100
0001
0000
,  // measure 31
1000
0000
0001
0000
0100
0001
0100
0000
,  // measure 32
0001
1000
0020
0130
,  // measure 33
0001
0000
0010
0000
0100
1000
0100
0000
,  // measure 34
1000
0000
0100
0001
0100
0000
1000
0000
,  // measure 35
0020
1030
0200
0301
,  // measure 36
0001
0010
0001
0000
1000
0000
0100
0000
,  // measure 37
0010
1100
0010
0101
,  // measure 38
0100
0011
0100
1010
,  // measure 39
0001
0000
1000
0000
0010
1000
0010
0000
,  // measure 40
1000
0000
0010
0010
0000
0100
0100
0000
,  // measure 41
0002
0000
0000
0010
0000
1000
1003
0000
,  // measure 42
2000
0000
0000
0010
0000
0001
3001
0000
,  // measure 43
0001
0000
1000
0100
0000
1000
0100
0000
,  // measure 44
1000
0000
0001
0010
0000
0001
0010
0000
,  // measure 45
0002
0003
0200
0300
,  // measure 46
0020
0030
2000
3000
,  // measure 47
0020
0100
2000
3030
,  // measure 48
0200
0010
0002
0000
,  // measure 49
0303
0000
0000
0000
;

//---------------dance-single - ----------------
#NOTES:
     dance-single:
     :
     Hard:
     7:
     0.438,0.396,0.194,0.291,0.044: // measure 1
0000
0000
0000
0000
,  // measure 2
0000
0000
0000
0000
,  // measure 3
0000
0000
0000
0000
,  // measure 4
0000
0000
0000
0000
,  // measure 5
0001
0000
0000
1000
0000
0000
0200
0000
0000
0000
1300
0000
0001
0000
0000
0000
,  // measure 6
0100
0000
0000
0010
0000
0000
2000
0000
0000
0000
3001
0000
1000
0000
0000
0000
,  // measure 7
0001
0000
0000
0001
0000
0000
0200
0000
0000
0000
1000
0300
0100
0000
0000
0000
,  // measure 8
0001
0000
1000
0010
0001
0010
1000
0000
,  // measure 9
0110
0000
0001
0100
0010
0100
0001
0000
,  // measure 10
1000
0100
0010
0001
1000
0000
0011
0000
,  // measure 11
0100
0001
0100
0010
0100
1000
0100
0001
,  // measure 12
1000
0100
0010
0002
0000
1000
1003
0000
,  // measure 13
1100
0000
0001
0010
0000
0010
0001
0000
,  // measure 14
0011
0000
1000
0100
0000
0100
1000
0000
,  // measure 15
0001
0010
0001
0100
0001
1000
0100
1000
,  // measure 16
0001
1000
0010
0110
0000
1000
1001
0000
,  // measure 17
0001
0010
0100
0000
0001
0010
0100
0000
,  // measure 18
0001
0100
1000
0100
0001
1000
0100
0000
,  // measure 19
1000
0100
1000
0010
0100
0010
0100
0001
,  // measure 20
1000
0000
1001
0000
0010
0100
0110
0000
,  // measure 21
1000
1000
0100
0002
0000
0103
1000
0000
,  // measure 22
0001
0010
0010
0002
0000
1003
0100
0000
,  // measure 23
1000
0100
0001
0000
1000
0100
0001
0000
,  // measure 24
1001
0000
0010
1000
0001
1000
0010
0000
,  // measure 25
1000
0000
0000
1000
0000
0000
2000
0000
0000
0000
3001
0000
0010
0000
0001
0000
,  // measure 26
0010
0000
0000
0010
0000
0000
0020
0000
0000
0000
0031
0000
1000
0000
0100
0000
,  // measure 27
0010
0001
1100
0000
0010
0001
1100
0000
,  // measure 28
0001
0010
0100
0020
0000
0130
1001
0000
,  // measure 29
1000
0100
0010
0100
1000
0001
1100
0000
,  // measure 30
0001
0010
0001
1000
0100
0010
0101
0000
,  // measure 31
2000
0001
3001
0000
0002
1000
1003
0000
,  // measure 32
0001
1000
0010
1000
0002
0000
0103
0000
,  // measure 33
1001
0000
0001
0010
0100
0010
0100
1000
,  // measure 34
0001
1000
0100
0010
0000
0100
1000
0000
,  // measure 35
0001
0010
0100
0010
1000
0010
0001
1000
,  // measure 36
0001
0010
0001
2000
0000
0100
3100
0000
,  // measure 37
1001
0000
0010
0001
0000
0100
1000
0010
,  // measure 38
0110
0000
0001
0100
0000
1000
0010
0001
,  // measure 39
1000
0100
0001
0100
0010
0001
0010
1000
,  // measure 40
0010
0001
1000
1100
0000
0001
0011
0000
,  // measure 41
2000
0000
0000
0100
0000
0000
3100
0000
0000
0000
1000
0000
0001
0000
0010
0000
,  // measure 42
0002
0000
0000
0010
0000
0000
0013
0000
0000
0000
0001
0000
0100
0000
0010
0000
,  // measure 43
0200
0000
0000
0001
0000
0000
0301
0000
0000
0000
0100
0000
0010
0000
1000
0000
,  // measure 44
0020
0000
0000
1000
0000
0000
1030
0000
0000
0000
1001
0000
0000
0000
0001
0000
,  // measure 45
0020
0032
2003
3200
,  // measure 46
2300
3200
0320
0032
,  // measure 47
1003
0100
0020
0000
0130
0010
0002
0000
,  // measure 48
1003
0001
0200
0000
0302
0000
2000
0000
,  // measure 49
3003
0000
0000
0000
;

//---------------dance-single - ----------------
#NOTES:
     dance-single:
     :
     Challenge:
     9:
     0.636,0.651,0.184,0.436,0.533: // measure 1
0000
0000
0000
0000
,  // measure 2
0000
0000
0000
0000
,  // measure 3
0000
0000
0000
0000
,  // measure 4
0000
0000
0000
0000
,  // measure 5
1000
0000
0001
0010
0000
0100
2000
0000
0000
0000
3001
0000
0010
0000
1000
0000
,  // measure 6
0010
0000
0001
1000
0000
1000
0200
0000
0000
0000
1300
0000
0010
0000
0100
0000
,  // measure 7
0010
0000
0100
0001
0000
1000
0020
0000
0000
0000
0130
0000
0001
0000
0010
0000
,  // measure 8
0001
0000
1000
0100
0000
0010
0002
0000
0000
0000
1003
0000
1001
0000
0000
0000
,  // measure 9
0010
0000
0001
0000
1000
0100
1000
0000
0001
0000
0010
0001
0000
0010
0001
0000
,  // measure 10
1000
0000
0100
0000
0010
0001
0010
0000
0100
1000
0100
0000
0010
0000
1001
0000
,  // measure 11
0100
0000
0001
0000
0010
0000
1000
0010
0000
0001
0000
1000
0100
0010
0001
0000
,  // measure 12
1000
0001
0100
0110
0000
0001
1001
1000
,  // measure 13
0002
0010
0100
2003
0000
3010
1000
0100
,  // measure 14
0020
0100
1000
0230
0000
1300
0001
0010
,  // measure 15
0001
0000
1000
0000
0001
0010
0100
0000
0100
0010
0001
0000
1000
0001
1000
0000
,  // measure 16
0001
0000
0100
0000
0010
0100
0020
0000
0000
0000
1030
0000
1001
0000
0000
0000
,  // measure 17
0100
0000
0001
0000
1000
0100
1000
0000
0001
0010
0100
0000
2000
0000
3001
0000
,  // measure 18
0010
0000
0001
0000
1000
0100
0001
0000
0100
1000
0001
1000
0001
0000
1000
0000
,  // measure 19
0002
0000
0013
0000
0001
1000
0100
0000
2000
0000
3001
0000
0010
0001
0010
0000
,  // measure 20
0001
0000
1000
0100
1000
0000
0020
0000
0000
0000
0130
0000
0110
0000
0000
0000
,  // measure 21
0001
0000
1000
0000
0100
1000
0001
0010
0000
0010
0001
0000
1000
0000
0001
0000
,  // measure 22
0010
0000
0001
0000
0100
0010
0100
0002
0000
1003
0100
1000
0001
0000
1000
0000
,  // measure 23
0001
0000
0010
1000
0010
0000
0001
0000
1000
0000
0001
0010
0100
0000
1000
0000
,  // measure 24
0001
0000
1000
0000
0100
0000
2002
0000
0000
3003
0010
0000
0110
0000
0000
0000
,  // measure 25
0001
0010
0001
0000
1000
0000
0200
0000
0000
1300
0001
0000
0010
0000
0100
0000
,  // measure 26
1000
0100
2000
0000
0001
0000
3001
0000
0000
1000
0010
0100
0002
0000
1003
0000
,  // measure 27
0010
0000
0001
0000
0100
0010
1000
0000
0001
1000
0010
1000
0000
0001
0010
0001
,  // measure 28
0010
0000
0001
0000
1000
0100
0010
0001
0000
1000
0001
0000
1001
0000
0000
0000
,  // measure 29
0020
0000
0001
0000
0031
0000
1000
0100
0000
1000
0100
0010
0002
0000
1003
0000
,  // measure 30
0001
0000
0010
0000
1100
0000
0001
0010
0000
0100
1000
0000
0011
0000
1000
0000
,  // measure 31
0001
0000
0010
0000
0001
0010
0001
0000
1000
0100
1000
0000
0001
1000
0001
0000
,  // measure 32
0100
0000
0010
1000
0001
1000
0020
0000
0000
0000
1030
0000
0101
0000
0000
0000
,  // measure 33
1000
0000
0100
1000
0100
0000
0010
0000
0001
0000
1000
0010
0000
1000
0010
0000
,  // measure 34
0100
0000
0001
0000
1000
0100
0010
0001
0000
0001
1000
0000
1001
0000
0001
0000
,  // measure 35
1000
0000
0010
0000
0001
0000
0010
2000
0000
3001
0000
1000
0001
0010
0001
0000
,  // measure 36
1000
0000
0001
0000
0010
0000
1100
0000
0000
0000
1000
0001
0010
0000
0001
0000
,  // measure 37
1000
0000
0200
0000
0010
0000
0302
0000
0000
0000
1003
0100
0001
0000
0100
0000
,  // measure 38
1000
0000
0002
0000
0010
0000
0203
0000
0000
0000
0301
0010
0001
0000
1000
0000
,  // measure 39
0001
0010
0001
1000
0000
1000
0100
0000
0010
0000
0001
0100
1000
0100
0001
0000
,  // measure 40
1000
0000
0001
0000
0100
0010
0200
0000
0000
0000
0301
0000
1001
0000
0000
0000
,  // measure 41
0010
0000
0001
1000
0000
0100
0020
0000
0000
0000
0031
1000
0001
0000
1000
0000
,  // measure 42
0001
0000
0010
0001
0000
1000
0200
0000
0000
0000
1300
0000
0110
0000
0001
0000
,  // measure 43
1000
0000
0010
1000
0000
0001
0020
0000
0000
0000
0031
1000
0100
0000
1000
0000
,  // measure 44
0001
0000
0100
0010
0000
0010
0200
0000
0000
0000
0310
0000
1001
0000
0000
0000
,  // measure 45
0100
0000
0001
2000
0000
3010
0000
1010
0000
0002
0000
0103
0001
0000
1000
0000
,  // measure 46
0001
0000
0010
0002
0000
0103
0000
0101
0000
1000
0000
0001
1000
0000
0001
0000
,  // measure 47
1000
0000
0100
2000
0000
3020
0000
0032
0000
0023
0000
1030
0001
0000
1000
0000
,  // measure 48
0010
0000
0100
0002
0000
0203
0000
2300
0000
3020
0000
0031
2000
0000
0002
0000
,  // measure 49
3003
0000
0000
0000
;
