#TITLE:THE LADY IS A TRAMP;
#SUBTITLE:;
#ARTIST:TOKYO INCIDENTS;
#TITLETRANSLIT:;
#SUBTITLETRANSLIT:;
#ARTISTTRANSLIT:;
#CREDIT:;
#BANNER:;
#BACKGROUND:;
#LYRICSPATH:;
#CDTITLE:;
#MUSIC:THE LADY IS A TRAMP.mp3;
#OFFSET:-6.670;
#SAMPLESTART:6.650;
#SAMPLELENGTH:13.570;
#SELECTABLE:YES;
#DISPLAYBPM:140.000:148.000;
#BPMS:0.000=140.000,4.000=142.000,8.000=143.000,12.000=145.000,16.000=140.000,20.000=143.000,24.000=144.000,28.000=143.000,32.000=142.000,36.000=140.000,40.000=141.000,44.000=140.000,48.000=142.000,56.000=143.000,64.000=145.000,68.000=146.000,72.000=147.000,76.000=145.000,84.000=148.000,88.000=133.000,89.000=142.000,92.000=145.000,96.000=144.000,100.000=143.000,104.000=144.000,112.000=143.000,116.000=146.000,120.000=145.000,124.000=146.000,128.000=141.000,132.000=145.000,140.000=144.000,144.000=143.000,148.000=145.000,152.000=142.000,160.000=143.000,168.000=144.000,172.000=142.000,180.000=141.000,182.000=146.000,184.000=142.000,188.000=144.000,192.000=140.000,196.000=142.000,200.000=143.000,204.000=144.000,206.000=140.000,208.000=145.000,212.000=144.000,220.000=149.000,234.000=162.000;
#STOPS:;
#BGCHANGES:;

//---------------dance-single - ----------------
#NOTES:
     dance-single:
     :
     Challenge:
     9:
     0.631,0.606,0.299,0.150,0.341:
1001
0000
0001
0100
1000
0100
0001
0000
,
1000
0000
0100
0000
0010
0000
0000
0000
0100
0000
0010
0001
0010
0000
0001
0000
,
1000
0000
0001
0000
0100
0000
0000
0100
0001
0000
1000
0000
0001
0000
0000
0000
,
1000
0000
0010
0000
0001
0000
0010
0000
1000
0000
0001
0010
0001
0000
1000
0000
,
0100
0001
0100
1000
0001
0100
0010
1000
,
0001
0000
0010
0000
0001
1000
0000
1000
0001
0000
1000
0100
1000
0000
0001
0000
,
0100
0100
0010
0010
1000
0001
1000
0100
,
0210
0000
0000
0000
1000
0000
0000
0000
0010
0000
0000
0010
0000
0000
0310
0000
,
0100
0010
0001
1000
0001
0100
0000
0010
,
0100
0000
0001
0000
1000
0000
0000
1000
0010
0000
0100
0000
0001
0100
0001
0000
,
1000
0001
0010
0100
0010
0001
0000
1000
,
0010
0000
1000
0000
0001
0000
0000
0001
0100
0010
1000
0000
0001
1000
0001
0000
,
1000
0100
0110
0010
0001
0100
0110
0010
,
1000
0000
0001
0000
1001
0000
1000
0001
1000
0000
0001
0000
0101
0000
0000
0000
,
0001
1000
0100
0010
0100
1000
0001
1000
,
2002
0000
0000
3003
,
0001
0000
1000
0000
0100
0000
0010
0000
0100
1000
0001
0000
0100
0000
0000
0010
,
0100
0000
0001
0000
0010
0000
0100
0000
0010
0001
1000
0000
0001
0000
0000
1000
,
0100
0010
0001
0100
0001
0000
1001
0000
,
1100
0101
1100
1001
,
1000
0000
0001
0000
0100
0000
1000
0000
0100
0000
0000
0010
0000
0000
0100
0000
,
0001
0000
1000
0000
0100
0000
0010
0000
0100
0000
0010
0001
0010
0001
1000
0000
,
2002
3003
1001
1010
,
0001
0100
0001
1000
0010
1000
1001
0000
,
1000
0000
0100
0000
0010
0001
0000
0010
0001
0000
1000
0000
0010
0100
0000
0010
,
0100
0000
0001
0000
1000
0100
0000
1000
0100
0000
0010
0000
0001
0010
0001
0000
,
1000
0000
0001
0000
0100
0010
0000
0100
0010
0000
1000
0000
0010
1000
0000
0010
,
1000
0000
0001
0000
0010
0001
0000
0010
0001
0000
0001
0000
0001
1000
0001
1000
,
0002
0000
0103
0001
0100
0000
0010
1000
,
0100
0010
0100
0010
0001
1000
0001
0100
,
0001
0000
0001
0000
0100
0000
0010
1000
0000
0000
1000
0000
0100
0000
0010
0002
,
0000
0000
0010
0000
2000
0000
0000
3003
,
1000
0000
0100
0000
0010
0000
0001
0000
0100
0000
0001
0000
0000
1000
0000
0000
,
0010
0000
0100
0000
0001
0000
1000
0000
0001
0010
0001
0000
1000
0010
1000
0000
,
0001
0000
0100
0000
0010
0000
1000
0000
0100
0000
0010
0000
0000
0001
0000
0000
,
1000
0000
0001
0000
0100
0000
0010
0000
1000
0010
1000
0000
0001
1000
0001
0000
,
1000
0100
0010
0100
1000
0000
0001
0010
,
0100
0000
0000
0000
0010
0000
0000
0001
0000
0000
2002
0000
0000
0000
3003
0000
,
1000
0000
0010
0000
0100
0000
0001
0200
0000
0000
0310
0000
0100
0000
0001
0000
,
1001
0000
0000
0110
0000
0000
1001
0000
,
1000
0000
0010
0000
0100
0001
0000
0100
0001
0000
1000
0000
0001
0010
0000
0001
,
0010
0100
0001
0100
1000
0001
0110
0000
,
0010
1000
1100
0000
0010
0001
0101
0000
,
0010
0000
0100
0000
1001
0000
0000
0000
1000
0100
0000
0000
0011
0000
0000
0000
,
0001
0100
1000
0100
0010
1000
0100
1000
,
0100
0000
0010
0000
1000
0000
0010
0000
0001
0010
0001
1000
0100
0000
0010
0001
,
0200
0300
0110
1001
,
1000
0100
0010
0001
0100
0010
0110
0000
,
0100
0000
0001
0100
0001
0000
1000
0000
0100
0000
0010
0100
0010
0000
0001
0000
,
0100
0000
1000
0100
1000
0000
0100
0000
0001
0000
0010
1000
0010
0000
0001
0000
,
1000
0000
0100
1000
0010
0000
0100
0000
0001
0010
0100
0000
0010
0000
0001
0000
,
1001
0000
1000
0010
0220
0000
0330
0000
,
0010
0000
1000
0000
0001
0010
0000
0010
0100
0000
0010
0100
1000
0000
0001
0000
,
0100
0000
0001
0000
1000
0010
0000
0010
0100
0000
0010
0100
0001
0000
1000
0001
,
1000
0001
1000
0001
1000
0001
1000
0001
1000
0001
1000
0001
1000
0100
0000
0000
,
0220
0000
0000
0000
,
0000
0000
0000
0000
,
0000
0000
0000
0000
,
0000
0000
0330
0000
,
1001
0000
0000
0000
;

//---------------dance-single - ----------------
#NOTES:
     dance-single:
     :
     Medium:
     6:
     0.423,0.469,0.187,0.131,0.000:
1000
0000
0001
0000
0100
0000
0010
0100
,
0001
0000
1000
0000
0100
0010
0100
0010
,
0001
0000
1000
0000
0001
0000
1000
0010
,
1000
0000
0001
0000
0010
0001
0100
0010
,
0100
0000
0010
0000
1000
0000
0001
0010
,
0100
0000
0010
0000
0001
1000
0001
0000
,
1000
0000
0100
0000
0010
0000
0001
1000
,
0020
0000
0000
0030
,
0110
0000
0100
0000
0001
0000
1000
0100
,
0010
0100
1000
0001
,
0100
0000
1000
0000
0100
0000
0001
1000
,
0001
0010
0100
0010
,
0001
0010
0100
0000
0010
0001
1000
0000
,
0001
1000
0010
0000
0100
0001
1000
0001
,
0010
0000
0100
0000
0010
0001
1000
0010
,
0200
0000
0000
0300
,
0010
0100
0010
0000
1000
0000
0001
0000
,
1000
0000
0100
0010
0001
0010
0100
0000
,
0010
0000
0001
1000
0001
0000
1000
0000
,
0010
0110
0100
0101
,
0001
1000
0100
1000
0001
0000
1000
0000
,
0010
0000
0100
0001
0100
0000
0001
0000
,
2002
3003
1010
0101
,
1001
0000
1100
0000
0010
0001
0100
0000
,
0110
0000
1000
0010
1000
0001
0000
0010
,
0001
0000
1000
0000
0001
1000
0100
0000
,
0010
0100
1000
0100
0010
0000
0100
0010
,
0001
0000
0010
0000
0001
1000
0001
1000
,
0001
1000
0010
1000
,
0100
0000
0010
0000
0100
1000
0100
0000
,
0010
0001
0010
0001
0010
0000
0001
1000
,
0002
0010
2000
3003
,
1000
0010
1000
0010
1000
0010
0000
0100
,
0010
0100
0001
1000
,
0001
0010
0001
0010
0001
0010
0000
0100
,
0010
0000
0001
0000
1000
0001
1000
0000
,
0001
0000
1000
0010
1000
0000
0001
0010
,
0001
1000
0100
0010
,
0022
0033
0101
1010
,
1000
0001
1000
0000
0001
1000
0001
0000
,
1000
0010
0100
0001
0100
0000
0001
0000
,
0010
0000
0001
1000
0000
1000
0100
0000
,
0010
0100
0010
0001
0010
0000
0001
0000
,
1000
1010
0001
0011
,
0002
0010
0000
1000
0000
0100
0000
2003
,
0000
0010
0000
0001
0000
0100
0000
3001
,
2002
3003
0110
0110
,
0010
1000
0001
1000
0001
0000
1001
0000
,
1000
0100
0010
0001
0010
0000
0001
0000
,
0100
0001
0100
0010
1000
0000
0010
0000
,
1000
0001
1000
0100
0010
0000
0100
0000
,
0010
0000
0100
0010
0001
0000
0010
0000
,
0001
1000
0001
1000
0001
0000
1000
0010
,
1000
0000
0010
0000
0100
0010
0100
0000
,
0001
0100
0001
0100
0010
0100
0010
0000
,
2002
0000
0000
0000
,
0000
0000
0000
0000
,
0000
0000
0000
0000
,
0000
0000
3003
0000
,
1001
0000
0000
0000
;

//---------------dance-single - ----------------
#NOTES:
     dance-single:
     :
     Easy:
     4:
     0.288,0.358,0.112,0.178,0.000:
1000
0001
1000
0001
,
0100
0100
0100
0000
,
0010
0100
0001
0010
,
0100
0100
0100
0000
,
0010
0001
1000
0001
,
0100
0010
1000
0000
,
1000
0001
0100
0010
,
0220
0000
0000
0330
,
0010
1000
0001
1000
,
0100
0010
0100
0000
,
0010
0001
1000
0001
,
0100
0010
0100
0000
,
0010
1000
0001
1000
,
0100
0010
0100
0000
,
0010
0001
1000
0001
,
2002
0000
0000
3003
,
1000
0100
1000
0000
,
0001
0100
0001
0000
,
1000
0100
0010
0001
,
0100
0010
0100
0010
,
1000
0001
1000
0010
,
0100
0001
0010
0000
,
2002
3003
1000
0001
,
2002
0000
0000
3003
,
1000
0100
0010
0001
,
0010
0100
1000
0000
,
0001
0100
0010
1000
,
0010
0100
0001
0000
,
1000
0001
1000
0001
,
0100
0010
0100
0000
,
0010
1000
0001
1000
,
2002
0000
0000
3003
,
1000
0100
0010
0001
,
0010
0001
0010
0000
,
0001
0100
0010
0100
,
0001
0010
0100
0000
,
0010
0001
1000
0001
,
0100
0010
1000
0001
,
2002
3003
1001
0110
,
2002
0000
0000
3003
,
1000
0100
0010
0100
,
1000
0001
0100
0010
,
0100
0001
1000
0000
,
1000
1000
0001
0001
,
0100
0001
0100
0001
,
1000
0010
1000
0000
,
2002
0003
0001
0001
,
0002
0000
0000
3003
,
1000
0100
0010
0001
,
1000
0010
0100
0001
,
1000
0001
1000
0001
,
0100
0010
0100
0010
,
0100
0001
1000
0100
,
0010
0001
0100
0010
,
1000
0001
1000
0010
,
0220
0000
0000
0000
,
0000
0000
0000
0000
,
0000
0000
0000
0000
,
0000
0000
0330
0000
,
1001
0000
0000
0000
;

//---------------dance-single - ----------------
#NOTES:
     dance-single:
     :
     Beginner:
     1:
     0.150,0.165,0.093,0.019,0.000: // measure 1
1000
0000
0001
0000
,  // measure 2
0100
0000
0010
0000
,  // measure 3
0100
0000
0001
0000
,  // measure 4
1000
0000
0100
0000
,  // measure 5
0010
0000
0001
0000
,  // measure 6
1000
0000
0001
0000
,  // measure 7
0100
0000
0000
0000
,  // measure 8
0001
0000
0000
0000
,  // measure 9
1001
0000
1000
0000
,  // measure 10
0100
0000
0010
0000
,  // measure 11
0100
0000
0100
0000
,  // measure 12
0010
0000
0001
0000
,  // measure 13
1000
0000
0001
0000
,  // measure 14
0100
0000
0010
0000
,  // measure 15
1000
0000
0001
0000
,  // measure 16
1001
0000
0000
0000
,  // measure 17
1001
0000
0001
0000
,  // measure 18
0100
0000
0100
0000
,  // measure 19
0010
0000
0010
0000
,  // measure 20
1000
0000
0001
0000
,  // measure 21
1000
0000
0100
0000
,  // measure 22
0010
0000
0001
0000
,  // measure 23
1001
0000
0000
0000
,  // measure 24
0110
0000
0000
0000
,  // measure 25
0100
0000
0001
0000
,  // measure 26
1000
0000
0001
0000
,  // measure 27
1000
0000
0001
0000
,  // measure 28
0010
0000
0100
0000
,  // measure 29
0010
0000
0001
0000
,  // measure 30
1000
0000
0001
0000
,  // measure 31
0100
0000
0010
0000
,  // measure 32
0110
0000
0000
0000
,  // measure 33
0100
0000
0001
0000
,  // measure 34
1000
0000
0100
0000
,  // measure 35
0010
0000
0001
0000
,  // measure 36
0100
0000
0010
0000
,  // measure 37
1000
0000
0000
0000
,  // measure 38
0001
0000
0000
0000
,  // measure 39
1000
0000
0000
0000
,  // measure 40
0100
0000
0000
0000
,  // measure 41
0010
0000
0001
0000
,  // measure 42
1000
0000
0100
0000
,  // measure 43
0010
0000
0100
0000
,  // measure 44
1000
0000
0001
0000
,  // measure 45
0100
0000
0010
0000
,  // measure 46
0100
0000
0001
0000
,  // measure 47
1001
0000
0000
0000
,  // measure 48
0110
0000
0000
0000
,  // measure 49
0100
0000
0100
0000
,  // measure 50
0001
0000
0001
0000
,  // measure 51
1000
0000
1000
0000
,  // measure 52
0100
0000
0100
0000
,  // measure 53
0010
0000
0001
0000
,  // measure 54
1000
0000
0001
0000
,  // measure 55
0100
0000
0010
0000
,  // measure 56
0220
0000
0000
0000
,  // measure 57
0000
0000
0000
0000
,  // measure 58
0000
0000
0000
0000
,  // measure 59
0000
0000
0330
0000
,  // measure 60
1001
0000
0000
0000
;

//---------------dance-single - ----------------
#NOTES:
     dance-single:
     :
     Hard:
     7:
     0.515,0.496,0.224,0.121,0.014:
1001
0000
1000
0100
0010
0001
0010
0000
,
0001
0100
0010
0000
0100
0001
0100
0000
,
0001
1000
0100
0010
0100
1000
0001
0000
,
1000
0010
0100
0000
0010
0100
0001
0000
,
1000
0001
1000
0010
0100
0001
0000
0100
,
0001
0010
0100
0000
0010
0001
1000
0001
,
0100
0010
0100
0001
0100
0001
1000
0001
,
2000
0000
0000
3000
,
1000
0100
0010
0001
0010
0100
0000
0010
,
0001
0100
0010
0000
0100
0001
0100
0000
,
0001
1000
0100
0010
0100
1000
0000
0001
,
1000
0010
0100
0000
0001
0100
0001
0100
,
0110
0000
0101
0000
0001
1000
0100
1000
,
0100
0000
0110
0000
0010
0001
0100
0001
,
1000
0010
0010
0100
0001
0010
0100
0010
,
0002
0010
2000
3003
,
1000
0001
0100
0010
0100
0000
0001
0000
,
1000
0100
1000
0000
0001
0010
0001
0000
,
1000
0100
0010
0100
1000
0000
0001
0000
,
0101
0110
1010
1001
,
1000
0000
0100
0000
0010
0000
0001
0000
0010
0000
0000
0100
0000
0000
0010
0000
,
0001
1000
0010
0100
0001
0000
1001
0000
,
0220
0330
1010
1100
,
0010
0001
0100
0010
1000
0001
1000
0000
,
0001
0100
1000
0100
0001
1000
0000
0001
,
1000
0000
0100
0000
0010
0001
0100
0000
,
0010
0100
0001
0010
0100
0010
0000
0001
,
0010
0000
0001
0000
1000
0001
1000
0001
,
0100
0010
0100
0001
1000
0000
0001
1000
,
0100
0000
0010
0100
0010
0001
1000
0000
,
0100
0100
0001
0001
1000
0100
0010
0100
,
0020
0032
2000
3003
,
1000
0100
0010
0100
1000
0001
0000
0100
,
0001
0100
0010
0000
0010
0100
0001
0000
,
1000
0001
0010
0100
0010
0001
0000
0010
,
0001
0100
0010
1000
0001
0000
1001
0000
,
1000
0010
0100
0001
0100
0000
0001
0100
,
0010
0000
0000
0000
1000
0000
0000
0100
0000
0000
0010
0000
0001
0000
1000
0000
,
0020
0030
0110
1001
,
1000
0100
0010
0001
0010
0001
1000
0000
,
0001
0100
0010
0100
0001
1000
0100
0010
,
0100
0000
0010
0001
0000
0001
0010
0000
,
0001
1000
0010
0100
0001
0000
1000
0010
,
0110
0101
0011
1100
,
1000
0100
1000
0100
0001
0100
0001
0100
,
1000
0100
0010
0001
0100
0010
1000
0001
,
2002
3003
1010
0101
,
0001
1000
0010
0100
0001
1000
0001
0000
,
1000
0010
0100
0001
0010
0100
0010
0001
,
1000
0001
0100
0010
1000
0100
1000
0100
,
0010
0100
0010
0001
0100
0010
1000
0001
,
0100
1000
0100
0001
1000
0010
0100
0001
,
0010
0001
0010
0001
1000
0001
1000
0001
,
0100
0010
0100
0010
1000
0010
1000
0001
,
0100
0000
0010
0000
0100
0000
0001
0000
1000
0000
0001
0000
1000
0001
0000
0000
,
2002
0000
0000
0000
,
0000
0000
0000
0000
,
0000
0000
0000
0000
,
0000
0000
3003
0000
,
1001
0000
0000
0000
;
