#TITLE:Scatman (Starving Trancer REMIX);
#SUBTITLE:;
#ARTIST:Scatman John;
#TITLETRANSLIT:;
#SUBTITLETRANSLIT:;
#ARTISTTRANSLIT:;
#GENRE:;
#CREDIT:;
#BANNER:;
#BACKGROUND:;
#LYRICSPATH:;
#CDTITLE:;
#MUSIC:[Final Round] Scatman (Starving Trancer REMIX).mp3;
#OFFSET:-0.040;
#SAMPLESTART:74.460;
#SAMPLELENGTH:26.849;
#SELECTABLE:YES;
#BPMS:0.000=144.000;
#STOPS:;
#BGCHANGES:;
#KEYSOUNDS:;

//---------------dance-single - ----------------
#NOTES:
     dance-single:
     :
     Easy:
     3:
     0.000,0.000,0.000,0.000,0.000:
0000
0000
0000
0000
,
0000
0000
0000
0000
,
0000
0000
0000
0000
,
0000
0000
0000
0000
,
1001
0000
0000
0000
,
0000
0000
0000
0000
,
0010
0000
0000
0000
,
0000
0000
0000
0000
,
1000
0000
0001
0000
,
1000
0000
0000
0000
,
1001
0000
0000
0000
,
0000
0000
0000
0000
,
0001
1000
1000
1000
,
0000
0100
0100
0100
,
1000
0001
0001
0001
,
0000
0100
0100
0100
,
0001
1000
1000
1000
,
0000
0100
0100
0100
,
1000
0001
0001
0001
,
0000
0100
0100
0100
,
0000
0000
0000
0000
,
1000
0000
0001
0000
,
1000
0000
0001
0000
,
0100
0000
0000
0000
,
1000
0001
1000
0001
,
0100
0001
1000
0000
,
0001
0000
1000
0000
,
0001
0000
1000
0000
,
0001
1000
0001
1000
,
0100
1000
0001
0000
,
1000
0000
0001
0000
,
1000
0000
0001
0000
,
1001
0000
0000
0000
,
0110
0000
0000
0000
,
1001
0000
0000
0000
,
0110
0000
0000
0000
,
1000
0001
1000
0001
,
0100
0001
1000
0000
,
0001
0000
1000
0000
,
0001
0000
1000
0000
,
0001
1000
0001
1000
,
0100
1000
0001
0000
,
1000
0000
0001
0000
,
1000
0000
0001
0000
,
0000
0000
0000
0000
,
0001
1000
1000
1000
,
0000
0100
0100
0100
,
1000
0001
0001
0001
,
0000
0100
0100
0100
,
0001
1000
1000
1000
,
0000
0100
0100
0100
,
1000
0001
0001
0001
,
0000
0100
0100
0100
,
0001
0100
0010
1000
,
0001
1000
0001
1000
,
0001
0100
0010
1000
,
0001
1000
0001
1000
,
0001
0100
0010
1000
,
0001
1000
0001
1000
,
0001
0100
0010
1000
,
0001
1000
0001
0000
,
1001
0000
0110
0000
,
1000
0100
1000
0100
,
1000
0000
0001
0000
,
0100
0000
0001
0000
,
1000
0000
1001
0000
,
0001
0000
1001
0000
,
1000
1000
0100
1000
,
0001
0001
0100
0001
,
1000
0000
0000
0000
,
0000
0000
0000
0000
,
0000
0000
0000
0000
,
0000
0000
0000
0000
;

//---------------dance-single - ----------------
#NOTES:
     dance-single:
     :
     Medium:
     7:
     0.000,0.000,0.000,0.000,0.000:
0000
0000
0000
0000
,
0000
0000
0000
0000
,
0000
0000
0000
0000
,
0000
0000
0000
0000
,
1000
0000
0000
0000
,
0000
0000
0000
0000
,
0001
0000
0000
0000
,
0000
0000
0000
0000
,
0001
0100
0001
0000
1000
0100
1000
0000
,
0010
1000
0001
0010
,
2002
0000
0000
0000
,
0000
0000
0000
3003
,
2000
0000
3001
1000
0001
1000
0001
0000
,
0000
0000
1000
0001
1000
0001
1000
0000
,
0002
0000
1003
0001
1000
0001
1000
0000
,
0000
0000
1000
0100
1000
0100
1000
0100
,
2000
0000
3001
0100
0001
0100
0001
0000
,
0000
0000
1000
0100
1000
0100
1000
0000
,
0002
0000
1003
0100
1000
0100
1000
0000
,
0000
0000
0001
0100
0001
0100
0001
0000
,
1000
1100
0001
0101
,
2000
3200
2300
3002
,
0203
0302
2003
3002
,
1003
0010
0100
0001
,
1000
0100
1000
0000
0010
0000
0100
0000
,
0001
0100
0001
0000
0010
0000
0100
0000
,
1000
0100
1000
0000
0001
0010
0001
0000
,
1000
0100
1000
0001
0100
0001
0100
0000
,
0001
0000
0100
0000
0001
1000
0001
0000
,
1000
0010
1000
0010
1000
0000
0000
0000
,
0001
0100
0001
0000
1000
0100
1000
0000
,
0001
0010
0100
1000
,
0002
0013
0200
1300
,
0002
0103
0020
1030
,
0002
1003
0020
0130
,
0002
2003
3002
1003
,
0001
0100
0001
0000
1000
0100
1000
0000
,
0001
0010
0001
0010
0001
0000
0000
0000
,
1000
0100
1000
0000
0001
0100
0001
0000
,
1000
0010
0100
0001
,
2000
3010
0200
0301
,
2000
3100
0020
0031
,
2000
3001
0020
0130
,
2000
3002
2003
3002
,
0013
0000
0000
0000
,
2000
0000
3001
1000
0001
0100
0001
0000
,
0000
0000
1000
0010
1000
0100
1000
0000
,
0002
0000
1003
0001
1000
0100
1000
0000
,
0000
0000
1000
0010
1000
0100
1000
0100
,
2000
0000
3001
0100
0001
0010
0001
0000
,
0000
0000
1000
0100
1000
0010
1000
0000
,
0002
0000
1003
0100
1000
0010
1000
0000
,
0000
0000
0001
0100
0001
1000
0001
0000
,
1000
1100
0001
0101
,
1000
0100
0010
0001
,
1000
1010
0001
0011
,
1000
1010
0001
0011
,
2000
3010
0200
0301
,
1000
1100
0001
0101
,
2000
0000
3002
0000
,
2003
0000
3000
0000
,
0001
0010
0001
0010
0001
0010
0001
0000
,
1000
0100
0010
0001
,
1000
0100
1000
0100
1000
0100
1000
0000
,
0001
1000
0010
0000
,
2000
3002
0203
0302
,
1003
0100
0010
0001
,
1000
0100
1000
0000
0001
0100
0001
0000
,
1000
0001
1000
0001
1000
0001
1000
0001
,
1000
0000
0000
0000
,
0000
0000
0000
0000
,
0000
0000
0000
0000
,
0000
0000
0000
0000
;

//---------------dance-single - ----------------
#NOTES:
     dance-single:
     :
     Hard:
     9:
     0.000,0.000,0.000,0.000,0.000:
0000
0000
0000
0000
,
0000
0000
0000
0000
,
0000
0000
0000
0000
,
0000
0000
0000
0000
,
1000
0000
0000
0000
,
0000
0000
0000
0000
,
0001
0000
0000
0000
,
0000
0000
0000
0000
,
1000
0000
0100
0000
1000
0100
1000
0000
0001
0000
0100
0000
0001
0100
0001
0000
,
0010
0100
1000
0100
1000
0100
0010
0001
,
0020
0000
0000
0000
,
0000
0000
0001
0130
,
2000
0000
0000
0000
3001
0000
1000
0000
0001
0100
0000
0001
0000
0000
0000
0000
,
0000
0000
0000
0000
1000
0000
0001
0000
0100
0010
0000
1000
0000
0000
0000
0000
,
0200
0000
0000
0000
0310
0000
0001
0000
1000
0010
0000
0100
0000
0000
0000
0000
,
0000
0000
0001
1000
0001
0100
0001
1000
,
0020
0000
0000
0000
0130
0000
0001
0000
1000
0010
0000
0100
0000
0000
0000
0000
,
0000
0000
0000
0000
0001
0000
1000
0000
0010
0100
0000
0001
0000
0000
0000
0000
,
0020
0000
0000
0000
0130
0000
1000
0000
0001
0100
0000
0001
0000
0000
0000
0000
,
0000
0000
0000
0000
1000
0000
0001
0000
1000
0001
0000
0100
0000
0000
0000
0000
,
0001
0000
0010
0000
0001
0000
1000
0000
0010
0000
0100
0000
0001
0000
1000
0100
,
0000
0000
0010
0001
0000
0000
0100
0010
0000
0000
1000
0001
0000
0000
0010
0100
,
0000
0000
1000
0010
0000
0000
0100
0001
0000
0000
0010
0100
0000
0000
1000
0001
,
0000
0010
0100
1000
,
0001
0010
0100
0010
0001
1000
0010
0100
,
0010
0100
0001
0010
0001
0000
0000
0000
,
1000
0100
1000
0000
0001
0010
0001
0000
,
1000
0100
0010
0001
0010
0001
1000
0000
,
0010
1000
0100
0010
0001
1000
0001
0000
,
1000
0010
0100
0010
1000
0000
0000
0000
,
0001
0100
0001
0000
1000
0100
1000
0000
,
0001
0010
0100
1000
0001
0100
0010
0000
,
1000
0000
0100
0000
0010
0001
0000
1000
0000
0010
0100
0000
0001
0000
0010
0000
,
0100
0000
1000
0000
0001
0100
0000
0001
0000
1000
0100
0000
0010
0000
0001
0000
,
1000
0000
0010
0000
1000
0001
0000
0100
0000
0010
1000
0000
0100
0000
1000
0000
,
0100
0000
0010
0000
0001
0100
0000
0010
0000
0100
0001
0000
0100
0000
0001
0000
,
1000
0100
0010
0001
0100
1000
0100
0001
,
0010
0100
1000
0010
1000
0000
0000
0000
,
0001
0100
0010
1000
0100
0001
0100
1000
,
0010
0100
0001
0010
0001
1000
0100
0000
,
0010
0001
0010
0000
0100
0000
1000
0000
0100
0000
0001
0000
0100
0000
1000
0000
,
0010
0100
0010
1000
0100
0000
0000
0000
,
1000
0100
1000
0000
0001
0100
0001
0000
,
1000
0010
0100
0001
0010
0001
1000
0100
,
0010
0000
0000
0000
,
0002
0000
0000
0000
0103
0000
0001
0000
1000
0100
0000
0010
0000
0000
0000
0000
,
0000
0000
0000
0000
0001
0000
1000
0000
0100
0010
0000
0001
0000
0000
0000
0000
,
0200
0000
0000
0000
0310
0000
1000
0000
0001
0010
0000
0100
0000
0000
0000
0000
,
0000
0000
1000
0001
1000
0001
1000
0001
,
0020
0000
0000
0000
0130
0000
1000
0000
0001
0100
0000
0010
0000
0000
0000
0000
,
0000
0000
0000
0000
1000
0000
0001
0000
0100
0010
0000
1000
0000
0000
0000
0000
,
0200
0000
0000
0000
0310
0000
0001
0000
1000
0010
0000
0100
0000
0000
0000
0000
,
0000
0000
0000
0000
0001
0000
1000
0000
0001
1000
0000
0001
0000
0000
0000
0000
,
1000
0000
0010
0000
0100
0000
0001
0000
0010
0100
0000
1000
0000
0010
0100
0000
,
0001
0000
1000
0000
0100
0000
0010
0000
0001
0100
0000
0010
0000
0100
0010
0000
,
1000
0000
0001
0000
0010
0000
0100
0000
1000
0100
0000
0010
0000
0001
1000
0000
,
0100
0000
1000
0000
0001
0000
0010
0000
0100
1000
0000
0010
0000
0100
0001
0000
,
0100
0000
0001
0000
1000
0000
0100
0000
1000
0100
0000
0010
0000
0001
0100
0000
,
0001
0000
0010
0000
0001
0000
0010
0000
0001
0100
0000
0010
0000
1000
0100
0000
,
1000
0000
0100
0000
1000
0000
0100
0000
0010
0001
0000
0100
0000
0010
1000
0000
,
0100
1000
0001
1000
0001
0100
0010
1000
,
1001
0100
0010
0001
0100
1000
0100
0001
,
0010
0100
1000
0000
0010
0100
0001
0000
1000
0001
1000
0000
0001
0100
0001
0000
,
1000
0100
0010
0001
1000
0100
1000
0000
,
0011
1100
0110
1001
,
0001
0100
0001
0010
0100
1000
0100
0010
,
0001
0100
0001
0000
1000
0001
1000
0000
0010
0100
0001
0000
0010
0100
1000
0000
,
0001
1000
0001
0010
0100
0010
0001
1000
,
0001
0000
1001
0000
0110
0000
1000
0100
,
1001
0000
0000
0000
,
0000
0000
0000
0000
,
0000
0000
0000
0000
,
0000
0000
0000
0000
;
