#TITLE:Nightmare;
#SUBTITLE:;
#ARTIST:M2U;
#TITLETRANSLIT:;
#SUBTITLETRANSLIT:;
#ARTISTTRANSLIT:;
#GENRE:;
#CREDIT:Telperion;
#BANNER:[Final Round] Nightmare.png;
#BACKGROUND:[Final Round] Nightmare-bg.png;
#LYRICSPATH:;
#CDTITLE:;
#MUSIC:[Final Round] Nightmare.ogg;
#OFFSET:-0.050;
#SAMPLESTART:17.084;
#SAMPLELENGTH:20.211;
#SELECTABLE:YES;
#DISPLAYBPM:95.000:190.000;
#BPMS:0.000=95.000,75.000=190.000,139.000=95.000,171.000=190.000,235.000=95.000,251.000=47.500;
#STOPS:;
#BGCHANGES:0.000=[Final Round] Nightmare-bg.png=1.000=0=0=0=StretchNoLoop====,
0.712=[Final Round] Nightmare.avi=1.000=0=0=0=StretchNoLoop====,
255.000=[Final Round] Nightmare-bg.png=1.000=1=0=0=StretchNoLoop==CrossFade==,
99999=-nosongbg-=1.000=0=0=0 // don't automatically add -songbackground-
;
#KEYSOUNDS:;

//---------------dance-single - Telperion----------------
#NOTES:
     dance-single:
     Telperion:
     Hard:
     9:
     0.524,0.560,0.333,0.114,0.101:
0000
0000
0000
0000
,
0000
0000
0000
0000
,
0000
0000
0000
1001
,
0000
0010
0000
0000
0000
0000
0000
0000
,
0000
0000
0000
1001
,
0000
0010
0000
0000
0000
0000
0100
0001
,
0100
0000
0010
1000
0100
0000
0010
0100
,
1100
1000
0010
0100
0001
0000
0001
0100
,
0110
0000
0010
1000
0000
1000
0001
0000
0010
0000
0000
0000
0100
0000
1000
0000
,
1001
0001
0010
0100
1000
0000
0010
0100
,
0101
0001
0010
0100
0001
0000
0100
1000
,
1010
0000
0010
0100
0001
0000
0100
0000
0110
0000
0000
0000
0001
0000
1000
0000
,
1010
0000
0010
0000
0100
0001
0100
0001
0010
0000
0000
0000
0100
0000
0010
0001
,
0010
0100
1000
0000
0000
0000
0100
0000
1100
0000
0000
0000
1000
0000
0001
1000
,
0010
0000
0100
0001
0010
0000
0100
1000
0010
0000
0000
0000
0100
0000
0100
0000
,
0110
0000
0001
1000
0001
0000
0010
0000
0210
0000
0000
0000
1300
0000
0001
0000
,
0011
0000
0001
1000
0010
0000
1000
0100
0020
0000
0000
0000
0130
0000
1000
0000
,
0011
0000
0010
0000
0001
0000
0100
0000
1010
0000
0010
0000
1000
0100
0010
0000
,
0001
0100
0010
0000
0001
0010
0100
0010
1000
0100
0010
0001
1000
0000
0001
0000
,
0101
0000
0010
1000
1100
0000
0010
0001
,
0001
0100
0010
1010
0000
0000
0100
0001
,
0001
0010
0010
0100
0000
1000
0001
1000
,
1010
0000
0001
0001
0010
0000
0100
1000
,
1100
0000
0001
0100
0110
0000
0010
0100
,
0100
0001
0010
0010
0000
0000
0100
0010
,
1001
0000
0000
0001
0100
0100
0010
1000
,
0100
0010
0001
0100
1000
0100
0010
1000
,
1010
0000
0100
0001
0011
0000
0100
1000
,
1000
0001
1000
0001
0000
0000
0100
0010
,
0010
0100
1000
0100
0000
0001
0010
0100
,
0100
1000
0010
0010
0100
0000
0001
0100
,
1010
0000
0000
1000
0100
0010
0001
0010
,
1100
0000
0000
0001
0100
0010
1000
0010
,
0110
0000
0001
0010
0100
0000
1000
0010
,
0100
0010
1000
0100
0001
0100
0020
0000
,
0100
0000
0230
2300
,
3002
0000
0010
0203
,
0000
0310
0020
0000
0000
0000
0001
0000
,
1030
0100
0010
0002
2000
3003
0110
0100
,
0001
0000
1000
0000
0000
1000
0001
0000
1000
0000
0000
0000
0100
0000
0010
0000
,
0001
0000
1000
0000
0000
1000
0001
0000
1000
0000
0000
0000
0010
0000
0010
0000
,
0100
0000
0001
0000
1000
0001
1000
0000
1000
0000
0000
0000
0100
0000
0010
0000
,
0011
0000
0001
0000
1000
0010
1000
0000
0100
0010
0100
1000
0010
0000
1000
0000
,
1010
0000
0001
0010
0110
0000
1000
0010
,
0010
0100
0001
0001
0010
0000
0001
1000
,
1000
0010
1000
0001
0000
0001
0010
0100
,
0100
0010
1000
0010
0100
0000
1000
0010
,
0110
0000
0001
1000
1010
0000
0100
0001
,
0001
0010
0100
1000
0001
0000
0001
1000
,
0110
0000
0000
0100
0001
0001
0010
0100
,
1000
0001
0010
0100
0001
0100
1000
0010
,
0110
0000
0100
0001
0011
0000
1000
0100
,
0100
1000
0001
0100
0110
0000
0100
0001
,
0001
0010
1000
0010
0001
0100
0010
1000
,
0010
1000
0001
0100
0001
0000
1000
0100
,
0110
0000
0001
0100
1010
0000
0100
0001
,
0010
0100
1000
0100
0001
0000
0100
0100
,
0010
0010
0001
0100
0010
0010
1000
0100
,
0010
0100
0001
1000
0010
0001
0100
0010
,
0020
0000
1030
0010
0000
0100
0001
1000
,
2000
0000
3100
0010
0000
0100
2000
0000
,
3002
0000
0103
0010
0000
0100
0001
0000
,
0010
0100
0110
1001
;

//---------------dance-single - Telperion----------------
#NOTES:
     dance-single:
     Telperion:
     Beginner:
     1:
     0.065,0.076,0.000,0.000,0.000:
0000
0000
0000
0000
,
0000
0000
0000
0000
,
0000
0000
0000
1000
,
0000
0000
0000
0000
,
0000
0000
0000
0001
,
0000
0000
0000
0010
,
0000
0000
0000
0001
,
0000
0000
0000
0100
,
0000
0000
0000
0010
,
0000
0000
0000
0100
,
0000
0000
0000
1000
,
0000
0000
0000
0100
,
0000
0000
0000
0010
,
0000
0000
0000
0001
,
0000
0000
0000
0010
,
0000
0000
0000
0100
,
0000
0000
0000
1000
,
0000
0000
0000
0001
,
0000
0000
0000
0010
,
0000
0000
0000
0010
,
0000
0000
0000
0100
,
0000
0000
0000
0100
,
0000
0000
0000
1000
,
0000
0000
0000
1000
,
0000
0000
0000
0010
,
0000
0000
0000
0000
,
0000
0000
0000
0010
,
0000
0000
0000
0010
,
0000
0000
0000
1000
,
0000
0000
0000
1000
,
0000
0000
0000
0001
,
0000
0000
0000
0010
,
0000
0000
0000
0100
,
0000
0000
0000
1000
,
0000
0000
0000
0010
,
0000
0000
0000
0000
,
0000
0000
0000
0100
,
0000
0000
0000
0000
,
0000
0000
0000
0001
,
0000
0000
0000
0000
,
0000
0000
0000
0010
,
0000
0000
0000
0000
,
0000
0000
0000
0100
,
0000
0000
0000
0100
,
0000
0000
0000
1000
,
0000
0000
0000
1000
,
0000
0000
0000
0010
,
0000
0000
0000
0010
,
0000
0000
0000
0100
,
0000
0000
0000
0000
,
0000
0000
0000
0100
,
0000
0000
0000
0100
,
0000
0000
0000
0001
,
0000
0000
0000
0001
,
0000
0000
0000
1000
,
0000
0000
0000
1000
,
0000
0000
0000
0010
,
0000
0010
0000
0010
,
0000
0010
0000
0100
,
0000
0000
0000
0100
,
0000
0000
0000
0100
,
0000
0000
0000
0100
,
0000
0000
0000
0100
;

//---------------dance-single - Telperion----------------
#NOTES:
     dance-single:
     Telperion:
     Easy:
     3:
     0.221,0.259,0.024,0.162,0.000:
0000
0000
0000
0000
,
0000
0000
0000
0000
,
0000
0000
0000
0001
,
0000
0000
0000
1000
,
0000
0000
0000
0001
,
0000
0001
0000
0000
0000
0000
1000
0000
,
0000
1000
0000
0010
,
0000
0010
0000
0000
0000
0000
0100
0000
,
0001
0100
0010
1000
,
0000
1000
0000
0000
0000
0000
0100
0000
,
0010
0001
1000
0100
,
1000
0001
1000
0010
,
0100
0001
1000
0001
,
0010
0100
0010
0001
,
1000
0010
0100
0010
,
0010
0100
0002
0013
,
0010
0100
2000
3010
,
0100
0001
0100
0010
,
1000
0100
0010
0001
,
1000
0000
1000
0010
,
0100
0000
0100
0001
,
1000
1000
0000
0100
,
0010
0001
0000
1000
,
0001
0000
0001
0010
,
0100
0000
0100
0010
,
0011
0000
0001
0100
,
0010
1000
0010
0100
,
0001
0000
0001
1000
,
0100
0000
1000
0100
,
0010
0010
0000
0100
,
1000
0010
0000
0100
,
0001
0000
0010
0100
,
1000
0000
0010
0100
,
0010
0000
0010
0000
,
0010
0000
0010
2001
,
0000
0000
3020
0230
,
0000
0000
0320
2030
,
0000
3200
0000
0000
,
0320
0032
0003
0002
,
0000
0000
0203
0320
,
0230
0000
0000
0000
0000
0300
0020
0000
,
0000
0000
0000
0030
,
0000
0000
0000
1000
,
0001
0000
0001
0000
,
0010
0100
1000
0001
,
1000
1000
0000
0010
,
0100
0010
0000
1000
,
0010
0000
0010
1000
,
0100
0000
0100
1000
,
1100
0000
0100
1000
,
0001
0010
0100
1000
,
0010
0000
0010
0100
,
0001
0000
0001
0010
,
0100
0100
0000
0010
,
0001
0100
0001
0100
,
0010
0000
0010
1000
,
0010
0000
0010
0100
,
0001
1000
0010
0100
,
0001
0010
0100
2000
,
0000
3000
0000
0002
,
0000
0003
0000
2000
,
0000
3000
0000
0002
,
0000
0003
0000
2000
,
0000
0000
0000
3000
;

//---------------dance-single - Telperion----------------
#NOTES:
     dance-single:
     Telperion:
     Medium:
     8:
     0.439,0.440,0.130,0.154,0.000:
0000
0000
0000
0000
,
0000
0000
0000
0000
,
0000
0000
0000
1001
,
0000
1000
0000
0000
0000
0000
0000
0000
,
0000
0000
0000
1001
,
0000
0001
0000
0000
0000
0000
0000
0000
,
0000
0000
0000
0000
0000
0000
1100
0100
,
1000
1010
0010
0100
0001
0000
0010
0001
,
0001
0010
0000
0100
1000
0000
1100
0100
,
0010
0011
0000
0001
0100
0000
0020
0000
,
0000
0130
0001
0100
0010
0000
1000
0001
,
1001
0100
0010
0001
0100
0000
0010
1000
,
1010
0001
0010
0100
1000
0000
0100
0010
,
0011
0001
0000
1000
1000
0000
0010
0100
,
1000
0100
0010
0100
0001
0100
0010
1000
,
1100
0100
0010
0100
2000
0000
3001
0100
,
0101
0001
0010
0100
0010
0000
0001
1000
,
1010
0001
0100
0010
0100
0000
0001
0010
,
0100
1000
0001
0010
0100
1000
0010
0100
,
1000
0000
1000
0100
0001
0000
0010
0100
,
1000
0100
0010
0100
0000
0000
1000
0010
,
0100
0001
0100
0010
0000
1000
0001
0010
,
0100
0000
0010
0001
0100
0000
0010
1000
,
0100
0000
0001
0100
1000
0000
0010
0100
,
0001
1000
0010
1000
0000
0000
0100
0010
,
0110
0000
0000
0100
1000
0001
1000
0100
,
0010
0001
1000
0100
0010
0001
1000
0010
,
0001
0000
0001
0010
1000
0000
0100
1000
,
0010
0100
0010
1000
0000
0000
0001
0010
,
0100
0010
0001
0100
0000
0010
0100
0001
,
1000
0100
1000
0001
0100
0000
0010
1000
,
0100
0001
0000
0100
1000
0010
0100
0001
,
0100
1000
0000
0100
0001
0100
0010
1000
,
0100
1000
0000
0001
0100
0001
0000
1000
,
0100
0010
0001
0100
0010
1000
0002
0000
,
0000
0000
0023
0100
,
0032
0000
0010
2003
,
3000
1000
0020
0000
0000
0000
0230
0000
,
0301
0010
0100
1000
0001
0000
2001
0000
,
0010
0000
3200
0320
,
0230
0000
0000
0000
0300
1000
0002
0000
,
0000
0000
0000
0000
0000
0000
0103
0010
,
0100
0001
1000
0010
0100
0001
1000
0100
,
1000
0000
0001
0100
0001
0000
1000
0100
,
0010
0001
0100
0010
0001
0000
0010
0100
,
0001
1000
0100
1000
0000
0001
0010
0100
,
1000
0000
0010
0100
0001
0000
1000
0010
,
1000
0000
0001
0010
0001
0000
1000
0100
,
0010
0100
0001
0100
0010
0000
0001
1000
,
1001
0000
0000
0001
0100
0010
1000
0001
,
0010
0001
1000
0010
1000
0001
0010
0100
,
0010
0000
0001
0100
0010
0000
1000
0001
,
1000
0000
0100
0010
0100
0000
1000
0010
,
0100
0001
0100
0010
0000
1000
0100
0010
,
0001
0000
0010
0100
0010
0000
0001
0100
,
1000
0000
0100
0010
1000
0000
0100
0010
,
1000
0000
0010
0001
0100
0000
0010
0100
,
0001
0100
0010
0100
1000
0100
0010
1000
,
0100
0010
0001
1000
0100
0010
0001
0100
,
0200
0000
0010
0020
0330
0000
1000
0100
,
0200
0000
0010
0020
0330
0000
0001
0000
,
0100
0000
0010
0010
0000
0000
1000
0000
,
0001
0010
0100
0220
,
0000
0000
0000
0330
;

//---------------dance-double - Telperion----------------
#NOTES:
     dance-double:
     Telperion:
     Hard:
     10:
     0.486,0.535,0.349,0.114,0.093:
00000000
00000000
00000000
00000000
,
00000000
00000000
00000000
00000000
,
00000000
00000000
00000000
00001000
,
00000000
01000000
00000000
00000000
00000000
00000000
00000000
00000000
,
00000000
00000000
00000000
00010000
,
00000000
00000100
00000000
00000000
00000000
00000000
00000000
00000000
,
00000000
00000000
00000000
00000000
00000000
00000000
00001000
00100000
,
00110000
00010000
10000000
01000000
01100000
00000000
00010000
10000000
,
10100000
00000000
00100000
01000000
00000000
01000000
00010000
00000000
00100000
00000000
00000000
00000000
01000000
00000000
10000000
00000000
,
11000000
00010000
00000000
01000000
01100000
00000000
10000000
01000000
,
01100000
01000000
00100000
00001000
00010000
00000000
00000010
00001000
,
00001100
00000000
00000100
00000010
00000001
00000000
00000100
00000000
00000110
00000000
00000010
00010000
00000100
00000000
00000000
00000000
,
00000110
00000000
00000000
00000000
00000100
00000000
00000000
00000000
00001000
00000000
00000001
00000000
00000010
00000000
00000100
00000000
00010000
00000000
00001000
00000000
00010000
00000000
01000000
00000000
10000000
00000000
00000000
00000000
00000000
00000000
00100000
01000000
,
00100000
01000000
00000000
00010000
01010000
00000000
10000000
01000000
,
00110000
00000000
00100000
00001000
00010000
00000000
00000010
00000000
00001010
00000000
00000100
00000001
00000010
00000000
00000010
00000000
,
00000110
00000000
00001000
00000010
00000210
00000000
00000301
00000100
,
00001010
00000000
00010000
00001000
00110000
00000000
01000000
10000000
,
10100000
00000000
01000000
00000000
00001000
00000000
00010000
00000000
00001100
00000000
00000010
00000000
00000001
00000100
00000010
00000000
,
00001000
00000100
00010000
00000000
00001000
01000000
00100000
10000000
00010000
00100000
01000000
10000000
000100MM
00000000
00100000
00000000
,
00110000
00000000
10000000
00100000
01100000
00000000
00001000
00010000
,
00100000
10000000
01000000
01100000
00000000
00000000
00010000
01000000
,
00100000
01000000
00001000
00100000
00000000
01000000
10000000
00100000
,
00010000
00000000
00001000
00001000
00000010
00000000
00000001
00000010
,
00000011
00000000
00000100
00001000
00001010
00000000
00000100
00000001
,
00000110
00001000
00000100
00000110
00000000
00000000
00000001
00000010
,
00001100
00000000
00000000
00001000
00000001
00000100
00010000
01000000
,
00100000
00010000
00001000
00000010
00000100
00001000
00000001
00000010
,
00000011
00000000
00001000
00000010
00000110
00000000
00001000
00000100
,
00010000
00001000
01000000
01100000
00000000
00000000
10000000
01000000
,
00001000
01000000
00100000
10000000
00000000
00100000
00001000
00010000
,
00010000
00001000
01000000
01000000
00100000
01000000
00010000
10000000
,
10010000
00000000
00000000
10000000
01000000
00010000
00001000
00000010
,
00000110
00000000
00000001
00000001
00000100
00001000
00010000
00000100
,
00000010
00000100
00010000
00001000
01000000
00100000
10000000
01000000
,
00100000
00000000
00001000
00000000
00010000
00001000
00010000
00000000
00000010
00000000
00000100
00000000
MM000002
00000000
00000000
00000000
,
00000000
00000000
00000100
00000023
,
00001000
00000000
00000230
00020300
,
00000000
00002000
00000000
00033000
,
00001000
01000000
00200000
00000000
00300000
00000000
20000000
00000000
,
00010000
00000000
32000000
03020000
,
01000000
00000000
00000000
00002000
,
00000000
00000000
00000000
00000000
00033000
00000000
00001000
01000000
,
00100000
00000000
01000000
00000000
10000000
01000000
00100000
01000000
00010000
10000000
01000000
00100000
000100MM
00000000
10000000
00000000
,
11000000
00000000
00100000
01000000
01010000
00000000
00001000
00010000
,
01000000
00100000
00001000
01000000
00000000
00000000
00100000
10000000
,
10000000
01000000
00100000
01000000
00000000
01000000
00100000
00001000
,
00010000
00000010
00000100
00000001
00001000
00000010
00000100
00000010
,
00000110
00000000
00000001
00000010
00000110
00000000
00001000
00000010
,
00000100
00000010
00010000
00011000
00000000
00000000
00001000
00000100
,
00000010
00000000
00000000
00001000
00000010
00000100
00001000
00010000
,
01000000
00100000
00001000
00010000
01000000
10000000
00100000
01000000
,
01100000
00000000
00010000
10000000
11000000
00000000
01000000
00100000
,
01000000
00010000
00001000
01000000
00010000
00000000
10000000
00010000
,
00010000
01000000
00001000
00010000
00000000
00000010
00010000
00001000
,
00010000
00000100
00000010
00000001
00001000
00000000
00000010
00000100
,
00000101
00000000
00001000
00000100
00001100
00000000
00010000
00001000
,
01001000
00000000
00100000
01000000
01010000
00000000
10000000
00010000
,
10000000
01000000
00100000
00001000
00010000
00100000
00001000
00000010
,
00000100
00001000
00000100
00000001
00000010
00000100
MM002000
00000000
,
00000001
00000000
00000000
00000100
00003000
00000000
00000002
00000000
,
00001000
00000000
00000000
00000100
00000003
00000000
00020000
00000000
,
00001000
00000000
00000000
00000100
00030000
00000000
00001000
00000000
,
01000000
00000000
00000000
00001000
00010000
00000000
00011000
00000000
;
