#TITLE:For The Navy;
#SUBTITLE:;
#ARTIST:Task Force feat. Trisha;
#CREDIT:;
#MUSIC:[Final Round] For The Navy;
#SELECTABLE:YES;
#BACKGROUND:[Final Round] For The Navy-BG;
#BANNER:[Final Round] For The Navy;
#CDTITLE:;
#OFFSET:-0.023;
#SAMPLESTART:52.929;
#SAMPLELENGTH:13.697;
#BPMS:0=143.952;
#STOPS:;

//---------------dance-single - ----------------
#NOTES:
     dance-single:
     :
     Hard:
     8:
     0.000,0.000,0.000,0.000,0.000:
0000
0000
0000
0000
,
0000
0000
0000
0000
,
0000
0000
0000
0000
,
0000
0000
0000
0000
,
0000
0000
0000
0000
,
0000
0000
0000
0000
,
0000
0000
0000
0000
,
0000
0000
0000
0000
,
0001
0000
1000
0000
0001
0100
0001
0000
,
0100
0000
0010
0000
1000
0100
1000
0000
,
0010
1000
0100
0001
0100
1000
0010
0001
,
0010
1000
0100
0000
0001
0000
0100
0000
,
0010
0000
1000
0000
0001
0100
1000
0000
,
0100
0000
0010
0000
1000
0100
0001
0000
,
0100
0000
1000
0000
0001
0000
0100
0010
,
0010
1000
1000
0001
0001
0000
0110
0000
,
0001
0000
1000
0000
0001
0100
0001
0000
,
0010
0000
0100
0000
1000
0100
1000
0000
,
0001
0100
0010
1000
0010
0100
0001
2000
,
0000
3100
0000
0000
0000
0000
1000
0000
,
0010
0100
0001
0000
1000
0000
0001
0000
,
0100
0010
1000
0000
0101
0000
0000
0000
,
0011
0000
0101
0000
1000
0001
1000
0001
,
0100
1001
0100
0010
,
1000
0100
1000
0100
1000
0100
1000
0200
,
0000
1300
0000
0000
0000
0000
0000
0000
,
0001
0100
0001
0100
0001
0100
0001
0200
,
0000
0301
0000
0000
0000
0000
0000
0000
,
0001
0100
1000
0100
0001
0100
1000
0200
,
0000
0310
0000
0000
0000
0000
0100
0010
,
1001
0000
0100
0010
1001
0000
0100
0010
,
1001
0100
0010
1000
1001
0000
0000
0000
,
0001
0000
0001
1000
0000
1000
0001
0000
0001
0100
0000
0100
,
0010
0000
0010
1000
0000
1000
0010
0000
0010
0100
0000
0100
,
0001
0000
0001
0100
0000
0100
0010
0000
0010
1000
0000
1000
,
0001
0000
0000
0010
0000
0000
0100
0000
0000
1000
0000
0000
0100
0000
0000
0000
0000
0000
0010
0000
0000
0000
0010
0000
,
0001
0000
0001
0100
0000
0100
0010
0000
0010
1000
0000
1000
,
0001
0000
0001
0010
0000
0010
0001
0000
0001
0100
0000
0000
,
0010
1000
1100
0000
0100
0010
0011
0000
,
1000
0001
1001
1000
0100
0000
0000
0000
,
0010
0000
1000
0000
0001
0100
0001
0000
,
1000
0000
0100
0000
1000
0000
0001
0100
0010
0000
1000
0000
0010
0000
0000
0000
,
1000
0000
0100
0000
0010
0001
0101
0000
,
0010
0000
1000
0001
1000
0000
0001
1000
0001
0000
1000
0000
0100
0000
0000
0000
,
0010
0000
0001
0000
1000
0100
1000
0000
,
0001
0000
0100
0000
0001
0000
1000
0000
0010
0000
0000
0000
0100
0000
0000
0001
,
0100
0001
0100
0001
1000
0000
0100
1000
,
0200
0000
0000
0300
0000
0000
0000
0000
,
1010
0000
0101
0000
1100
0101
1100
0000
,
0001
0100
0010
0100
0001
1000
0100
0000
,
1000
0100
0010
0001
1000
0100
0010
0001
,
1000
0101
0110
1100
,
0001
0100
0001
0000
1000
0100
1000
0000
,
0001
0100
0010
1000
0010
0100
0001
0000
,
1000
0100
0010
0001
0100
0010
1000
0010
,
0100
0001
0100
0001
0010
0001
1000
0000
,
1001
0000
0001
0000
1000
0100
0001
0000
,
0100
0000
0010
0000
0001
0100
1000
0000
,
0100
0001
1000
0100
,
0010
0001
0000
0000
,
1000
0000
0001
0000
1000
0100
1000
0000
,
0100
0000
0010
0000
0001
0100
0001
0000
,
0010
0001
0100
1000
0100
0001
0010
1000
,
0010
0001
0100
1000
0000
0100
0001
0000
,
0010
0000
0001
0000
1000
0100
1000
0000
,
0001
0000
0100
0000
0001
0000
1000
0100
1000
0000
0001
0000
0010
0000
0000
0000
,
0001
0000
0100
0000
0010
1000
0001
0000
,
0010
0000
0001
1000
0001
0000
1000
0001
1000
0000
0001
0000
0100
0000
0000
0000
,
0010
0000
1000
0000
0001
0100
0001
0000
,
1000
0000
0100
0000
1000
0000
1000
0000
0010
0000
0000
0000
0100
0000
0000
0001
,
0100
0001
0100
0001
1000
0000
0100
1000
,
0200
0000
0000
0300
0000
0000
0000
0000
,
0000
0000
0000
0000
,
0000
0000
0000
0000
;

//---------------dance-single - ----------------
#NOTES:
     dance-single:
     :
     Medium:
     5:
     0.000,0.000,0.000,0.000,0.000:
0000
0000
0000
0000
,
0000
0000
0000
0000
,
0000
0000
0000
0000
,
0000
0000
0000
0000
,
0000
0000
0000
0000
,
0000
0000
0000
0000
,
0000
0000
0000
0000
,
0000
0000
0000
0000
,
1000
1000
1000
0000
,
0001
0001
0001
0000
,
1000
0100
1000
0001
,
0100
0001
0000
0000
,
1000
1000
1000
0000
,
0001
0001
0001
0000
,
1000
0001
1000
0001
,
0100
0000
0000
0000
,
0001
1000
0100
0000
,
1000
0001
0100
0000
,
0001
0100
0001
1000
,
0100
1000
0000
0000
,
1000
1000
1000
0000
,
0001
0001
0001
0000
,
1000
0001
1000
0001
,
0100
0000
0000
0000
,
2000
0000
0000
0000
,
0001
0001
3001
0000
,
0002
0000
0000
0000
,
1000
1000
1003
0000
,
0010
0100
0010
0100
,
0010
0100
0000
0000
,
1001
0000
1001
0000
,
1001
1000
0001
0000
,
1000
0100
1000
0001
,
0100
0001
1000
0001
,
1000
0002
0000
0003
,
1000
0100
0010
0001
,
0100
0001
1000
0100
,
1000
0001
1000
0001
,
2000
0000
3002
0000
,
0203
0000
0300
0010
,
1000
0000
0100
0000
1000
0100
1000
0000
,
0001
0100
0001
1000
,
0001
0000
0100
0000
0001
0100
0001
0000
,
1000
0100
1000
0001
,
1000
0001
1000
1000
,
0100
0100
0010
0010
,
0001
1000
0100
1000
,
0001
0000
0000
0000
,
1001
0000
1100
0000
,
0001
0100
0001
0100
,
0001
1000
0100
1000
,
0200
2300
3002
1003
,
0001
0010
0100
0000
,
1000
0100
0010
0001
,
1000
0001
0100
0001
,
1000
0100
1000
0001
,
1000
1000
1100
0000
,
0001
0001
0101
0000
,
1000
0100
1000
0001
,
0100
0001
1000
0000
,
1000
1000
1100
0000
,
0001
0001
0101
0000
,
1000
0100
0010
0001
,
0010
0100
1000
1001
,
0001
0000
0100
0000
0001
0100
0001
0000
,
1000
0100
1000
0001
,
1000
0000
0100
0000
1000
0100
1000
0000
,
0001
0100
0001
1000
,
0001
1000
0001
0001
,
0100
0100
0010
0010
,
1000
0000
0000
0000
0001
0000
1000
0001
,
2000
0000
3000
0000
,
0000
0000
0000
0000
,
0000
0000
0000
0000
;

//---------------dance-single - ----------------
#NOTES:
     dance-single:
     :
     Easy:
     3:
     0.000,0.000,0.000,0.000,0.000:
0000
0000
0000
0000
,
0000
0000
0000
0000
,
0000
0000
0000
0000
,
0000
0000
0000
0000
,
0000
0000
0000
0000
,
0000
0000
0000
0000
,
0000
0000
0000
0000
,
0000
0000
0000
0000
,
1000
1000
1000
0000
,
0001
0001
0001
0000
,
1001
0000
1000
0000
,
0001
0000
0100
0000
,
0001
0001
0001
0000
,
1000
1000
1000
0000
,
1001
0000
1000
0000
,
0001
0000
0000
0000
,
0010
0000
0010
0000
,
0100
0000
0100
0000
,
1000
0000
1000
0000
,
1001
0000
0000
0000
,
0001
0001
0001
0000
,
1000
1000
1000
0000
,
0001
0000
0100
0000
,
0001
0000
0000
0000
,
2000
0000
3002
0000
,
2003
0000
3000
0000
,
0002
0000
2003
0000
,
3002
0000
0003
0000
,
1001
0000
1000
0000
,
0001
0000
1000
0000
,
1001
0000
0110
0000
,
0001
1000
1001
0000
,
1000
0000
0100
0000
,
1000
0000
0100
0000
,
0001
0000
0100
0000
,
0001
0000
0100
0000
,
0001
0000
1000
0000
,
0100
0000
1000
0000
,
0001
0000
0100
0000
,
0001
0000
0000
0000
,
1001
0000
1000
0000
,
1001
0000
0001
0000
,
1000
1000
0001
0001
,
1000
0000
1000
0000
,
1001
0000
0001
0000
,
1001
0000
1000
0000
,
0001
0001
1000
1000
,
0001
0000
0000
0000
,
1001
0000
0000
0000
,
1100
0000
0000
0000
,
0101
0000
0000
0000
,
1000
0001
1000
0001
,
0000
0000
1000
0000
,
0001
0000
0100
0000
,
0001
0000
1000
0000
,
0001
0000
0100
0000
,
1001
0000
1000
0000
,
0001
0000
1000
0000
,
0010
0010
0010
0000
,
0100
0100
0100
0000
,
0001
0000
1000
0000
,
0001
1000
0100
0000
,
0010
0010
0010
0000
,
0000
0000
0000
0000
,
1001
0000
0001
0000
,
1001
0000
1000
0000
,
0001
0001
1000
1000
,
0001
0000
0001
0000
,
1001
0000
1000
0000
,
1001
0000
0001
0000
,
1000
0000
0100
0000
,
0020
0000
0030
0000
,
0000
0000
0000
0000
,
0000
0000
0000
0000
;
