#TITLE:Drop Zone;
#SUBTITLE:;
#ARTIST:Darren Styles;
#TITLETRANSLIT:;
#SUBTITLETRANSLIT:;
#ARTISTTRANSLIT:;
#CREDIT:;
#BANNER:bn.jpg;
#BACKGROUND:bg.png;
#LYRICSPATH:;
#CDTITLE:;
#MUSIC:Drop Zone.mp3;
#OFFSET:-0.037;
#SAMPLESTART:67.764;
#SAMPLELENGTH:12.000;
#SELECTABLE:YES;
#BPMS:0.000=170.000;
#STOPS:28.000=1.059
;
#BGCHANGES:;

//---------------dance-single - ----------------
#NOTES:
     dance-single:
     :
     Hard:
     7:
     0.421,0.479,0.207,0.199,0.117: // measure 1
0000
0000
0000
0000
,  // measure 2
0000
0000
0000
0000
,  // measure 3
0000
0000
0000
0000
,  // measure 4
0000
0000
0000
0000
,  // measure 5
0000
0000
0000
0000
,  // measure 6
0000
0000
0000
0000
,  // measure 7
0000
0000
0000
0000
,  // measure 8
0000
0000
0000
0000
0101
0000
0000
0000
0001
0000
0100
0000
0010
0000
0000
0010
,  // measure 9
0000
0000
0010
0000
0000
0000
0100
0000
0000
0000
0010
0000
1000
0000
0000
1000
,  // measure 10
0000
0000
1000
0000
0001
0000
0000
0000
0100
0000
0010
0000
1000
0000
0000
0100
,  // measure 11
0000
0000
0010
0000
0000
0000
0100
0000
0000
0000
0100
0000
1000
0000
0000
0010
,  // measure 12
0000
0000
0100
0000
0001
0000
0000
0000
0001
0000
0010
0000
1000
0000
0000
0010
,  // measure 13
0000
0000
0001
0000
0000
0000
0100
0000
0000
0000
0100
0000
0010
0000
0000
0010
,  // measure 14
0000
0000
0010
0000
1000
0000
0000
0000
1000
0000
0001
0000
0010
0000
0000
0010
,  // measure 15
0000
0100
2000
0000
0000
0000
3002
0000
,  // measure 16
0000
0000
0000
0000
0103
0000
0000
0000
0010
0000
1000
0000
0001
0000
0000
0001
,  // measure 17
0000
0000
1000
0000
0000
0000
1000
0000
0000
0000
1000
0000
0001
0000
0000
0010
,  // measure 18
0000
0000
0001
0000
0100
0000
0000
0000
0010
0000
1000
0000
0100
0000
0000
0100
,  // measure 19
0000
0000
1000
0000
0000
0000
1000
0000
0000
0000
1000
0000
0010
0000
0000
0010
,  // measure 20
0000
0000
0100
0000
0001
0000
0000
0000
1000
0000
0010
0000
0100
0000
0000
0001
,  // measure 21
0000
0000
0010
0000
0000
0000
0010
0000
0000
0000
0010
0000
0001
0000
0000
0100
,  // measure 22
0000
0000
0010
0000
0100
0000
0000
0000
0010
0000
1000
0000
0100
0000
0000
1000
,  // measure 23
0000
0000
0010
0000
0000
0000
0010
0000
0000
0000
0010
0000
0100
0000
0000
1000
,  // measure 24
0000
0000
0001
0000
0100
0000
0000
0000
0001
0000
0100
0000
0010
0000
0000
1000
,  // measure 25
0000
0000
0001
0000
0010
0000
0000
0000
0010
0000
0001
0000
0100
0000
0000
0010
,  // measure 26
0000
0000
1000
0000
0100
0000
0000
0000
1000
0000
0010
0000
0100
0000
0000
0010
,  // measure 27
0000
0000
1000
0000
0001
0000
0000
0000
1000
0000
0001
0000
0010
0000
0000
0001
,  // measure 28
0000
0000
0100
0000
0010
0000
0000
0010
0000
0000
0010
0000
1000
0000
0000
0001
,  // measure 29
0000
0000
0010
0000
0001
0000
0000
0100
0000
0000
0010
0000
0100
0000
0000
0010
,  // measure 30
0000
0000
1000
0000
0001
0000
0000
0001
0010
0000
0000
0010
0100
0000
0000
0100
,  // measure 31
1000
0000
0000
1000
0001
0000
0000
0000
0000
0000
0000
0000
0000
0000
0000
0000
,  // measure 32
0000
0120
0000
0000
,  // measure 33
0000
0000
0000
0000
0000
0000
0000
0130
,  // measure 34
0001
0020
0000
0002
0000
0000
0000
0000
,  // measure 35
0000
0000
0000
0000
0000
0000
0000
0033
,  // measure 36
0200
0020
0000
0000
,  // measure 37
0000
0000
0000
0000
0000
0000
0330
0100
,  // measure 38
0010
0001
0000
0100
0000
0020
0000
0000
,  // measure 39
0000
0000
0000
0000
,  // measure 40
0130
2020
0000
0000
,  // measure 41
0000
0000
0000
0000
0000
0000
3030
1000
,  // measure 42
0001
0020
0000
0002
0000
0000
0000
0000
,  // measure 43
0000
0000
0000
0000
0000
0033
0000
0001
,  // measure 44
2000
0020
0000
0000
0000
0000
0000
0000
,  // measure 45
0000
0000
0000
0000
0000
0000
3000
2000
,  // measure 46
0000
0030
0002
0000
0000
0000
0000
0000
,  // measure 47
0000
0000
3003
0000
0000
0000
0000
0020
,  // measure 48
0000
0030
1001
0000
0100
0000
0001
0000
,  // measure 49
0010
0000
0001
0000
0100
0000
0010
0100
,  // measure 50
0010
1000
0100
0000
0010
0000
0001
0000
,  // measure 51
0010
0001
0001
0100
,  // measure 52
0110
1010
1000
0001
,  // measure 53
0010
0000
0010
0000
0001
0000
0100
0001
,  // measure 54
1000
0100
0010
0001
0010
0001
0100
0000
,  // measure 55
0010
1000
0001
0010
,  // measure 56
0110
2100
0100
0010
,  // measure 57
0010
0000
0001
0000
0001
0000
3001
0001
,  // measure 58
1000
0100
0020
0000
0100
0000
0100
0000
,  // measure 59
0100
0000
0130
0010
1000
0001
0100
0010
,  // measure 60
1000
0100
0020
0000
0001
0000
0001
0000
,  // measure 61
0001
0000
0100
0000
0100
0000
0130
0010
,  // measure 62
0001
0200
0020
0000
0000
0000
0000
0000
,  // measure 63
0000
0330
0110
0000
1001
0000
0110
0000
,  // measure 64
1001
0000
0010
1000
0100
0000
0000
0110
,  // measure 65
0000
0000
0001
0000
0000
1100
0000
0001
,  // measure 66
0100
0010
0000
0000
0110
0000
0000
1000
,  // measure 67
0000
1001
0000
0101
,  // measure 68
1000
0100
0010
0000
0001
0000
0000
1001
,  // measure 69
0000
0000
0100
0000
0000
1001
0000
0001
,  // measure 70
0010
0000
0000
0000
1100
0000
0000
0010
,  // measure 71
0000
0011
0000
0101
,  // measure 72
0100
0001
0010
0100
0010
0000
0010
0001
,  // measure 73
0000
0001
0100
0000
0100
0010
0000
0010
,  // measure 74
1000
0001
0000
0000
1000
0000
0001
0010
,  // measure 75
0000
0001
0100
0000
0000
0000
0110
0000
,  // measure 76
0010
1000
0001
0010
0100
0000
0100
0010
,  // measure 77
0000
0001
1000
0000
1000
0001
0000
0001
,  // measure 78
0010
0001
0100
0000
0002
0000
0000
1000
,  // measure 79
0000
1000
0000
0000
,  // measure 80
0003
1100
0000
0000
;

//---------------dance-single - ----------------
#NOTES:
     dance-single:
     :
     Medium:
     5:
     0.301,0.520,0.268,0.207,0.000: // measure 1
0000
0000
0000
0000
,  // measure 2
0000
0000
0000
0000
,  // measure 3
0000
0000
0000
0000
,  // measure 4
0000
0000
0000
0000
,  // measure 5
0000
0000
0000
0000
,  // measure 6
0000
0000
0000
0000
,  // measure 7
0000
0000
0000
0000
,  // measure 8
0000
0001
1000
0100
,  // measure 9
0100
0100
1000
0010
,  // measure 10
0100
0001
1000
0100
,  // measure 11
1000
0001
0100
0001
,  // measure 12
0010
0100
1000
0000
0001
0000
0100
0000
,  // measure 13
0001
0010
1000
0010
,  // measure 14
0001
0100
0010
0000
0100
0000
0010
0000
,  // measure 15
1000
0002
0000
0020
,  // measure 16
0033
0000
1100
0000
1000
0001
0100
0000
,  // measure 17
0001
0010
1000
0010
,  // measure 18
0001
0000
1010
0000
1000
0001
0010
0000
,  // measure 19
0100
0010
0001
1000
,  // measure 20
0001
0000
0101
0000
0001
0100
0001
0000
,  // measure 21
0010
0100
0010
0100
,  // measure 22
1000
0000
1001
0000
0001
1000
0100
0000
,  // measure 23
1000
0010
0100
0001
,  // measure 24
1000
0000
0100
0000
1000
0100
1000
0000
,  // measure 25
0010
0000
0101
0000
0001
0010
0100
0000
,  // measure 26
0010
0000
0011
0000
0010
0100
1000
0000
,  // measure 27
0100
0000
1100
0000
0100
1000
0010
0000
,  // measure 28
0100
1001
0010
1001
,  // measure 29
0010
1001
0010
1001
,  // measure 30
0010
1001
0110
1001
,  // measure 31
0110
0000
0000
0000
,  // measure 32
0000
0120
0000
0000
,  // measure 33
0000
0000
0000
0000
,  // measure 34
0000
0130
0000
0020
0000
0000
0000
0000
,  // measure 35
0000
0000
0000
0030
,  // measure 36
0100
0002
1000
0000
,  // measure 37
0000
0000
0000
0000
0000
0000
0003
1000
,  // measure 38
0000
0001
0000
1000
0000
0200
0000
0000
,  // measure 39
0000
0000
0000
0000
,  // measure 40
1300
0022
0000
0000
,  // measure 41
0000
0000
0000
0000
0000
0000
0033
0010
,  // measure 42
0000
0001
0000
0200
0000
0000
0000
0000
,  // measure 43
0000
0000
0000
0000
0000
0000
0000
0310
,  // measure 44
1000
0020
0000
0000
0000
0000
0000
0000
,  // measure 45
0000
0000
0000
0000
0000
0000
0000
0230
,  // measure 46
0000
0002
0000
0000
,  // measure 47
0000
0000
0000
0000
0000
0000
0000
0300
,  // measure 48
0000
0023
0000
0000
,  // measure 49
0000
0000
0000
0000
0000
0000
0000
0031
,  // measure 50
0010
0100
0000
0200
0000
0000
0000
0000
,  // measure 51
0000
0000
0000
0000
,  // measure 52
1300
2000
0000
0000
,  // measure 53
0000
0000
0000
0000
0000
0000
0000
3010
,  // measure 54
0100
0010
0000
1000
0000
0002
0000
0000
,  // measure 55
0000
0000
0000
0003
,  // measure 56
1000
0202
0000
0000
,  // measure 57
0000
0000
0000
0000
0000
0000
0303
0001
,  // measure 58
0100
0010
0000
0200
0000
0000
0000
0000
,  // measure 59
0000
0000
0000
0310
1000
0010
0100
0010
,  // measure 60
0001
0020
0000
0000
0000
0000
0000
0000
,  // measure 61
0000
0000
0000
0000
0000
0000
0000
0230
,  // measure 62
0000
0002
0000
0000
,  // measure 63
0000
0303
0000
0000
,  // measure 64
0000
0000
0000
0000
0001
0000
0000
1000
,  // measure 65
0000
0000
0100
0000
0000
0010
0000
0000
,  // measure 66
0101
0000
0000
0000
0010
0000
0000
0100
,  // measure 67
0000
0010
0000
1000
,  // measure 68
0010
1000
0000
0000
1000
0000
0000
0100
,  // measure 69
0000
0000
1000
0000
0000
0010
0000
0000
,  // measure 70
0101
0000
0000
0000
0001
0000
0000
1000
,  // measure 71
0000
0100
0000
1100
,  // measure 72
1000
0100
0000
0000
1100
0000
0000
0100
,  // measure 73
0000
0000
0011
0000
0000
0100
0000
0000
,  // measure 74
1001
0000
0000
0000
0110
0000
0000
0001
,  // measure 75
0000
1010
0000
0110
,  // measure 76
0010
1000
0000
0000
1100
0000
0000
0010
,  // measure 77
0000
0000
0011
0000
0000
0100
0000
0000
,  // measure 78
1001
0000
0000
0000
0001
0000
0000
0100
,  // measure 79
0000
0010
0000
0000
,  // measure 80
0000
2200
0000
0000
,  // measure 81
0000
3300
0000
0000
;

//---------------dance-single - ----------------
#NOTES:
     dance-single:
     :
     Easy:
     3:
     0.238,0.406,0.095,0.043,0.000: // measure 1
0000
0000
0000
0000
,  // measure 2
0000
0000
0000
0000
,  // measure 3
0000
0000
0000
0000
,  // measure 4
0000
0000
0000
0000
,  // measure 5
0000
0000
0000
0000
,  // measure 6
0000
0000
0000
0000
,  // measure 7
0000
0000
0000
0000
,  // measure 8
0000
0010
0000
1000
,  // measure 9
0000
0010
1000
0010
,  // measure 10
0100
0010
0000
0100
,  // measure 11
0000
0001
0100
0010
,  // measure 12
0100
0001
0000
1000
,  // measure 13
0000
1000
0001
0010
,  // measure 14
0001
1000
0000
0100
,  // measure 15
0000
0020
0000
0000
,  // measure 16
0030
0001
0010
0001
,  // measure 17
0001
0000
0100
0000
,  // measure 18
0010
1000
0010
0100
,  // measure 19
0100
0000
0010
0000
,  // measure 20
1000
0001
0100
0010
,  // measure 21
0010
0000
0100
0000
,  // measure 22
0010
1000
0001
0100
,  // measure 23
0100
0000
0001
0000
,  // measure 24
1000
0100
0010
0001
,  // measure 25
0010
0011
0001
0100
,  // measure 26
0010
1010
0010
1000
,  // measure 27
0001
1001
0001
0100
,  // measure 28
0010
1010
0000
0101
,  // measure 29
0000
1100
0000
0011
,  // measure 30
0000
0011
0110
1100
,  // measure 31
1001
0000
0000
0000
,  // measure 32
0000
0002
0000
0000
,  // measure 33
0000
0000
0000
0000
,  // measure 34
0000
0000
0000
0000
,  // measure 35
0000
0000
0000
0000
,  // measure 36
1003
2000
0000
0000
,  // measure 37
0000
0000
0000
0000
,  // measure 38
0000
0000
0000
0000
,  // measure 39
0000
0000
0000
0000
,  // measure 40
0100
3200
0000
0000
,  // measure 41
0000
0000
0000
0000
,  // measure 42
0000
0000
0000
0000
,  // measure 43
0000
0000
0000
0000
,  // measure 44
0000
0020
0000
0000
,  // measure 45
0000
0000
0000
0000
,  // measure 46
0300
0000
0000
0000
,  // measure 47
0000
0030
0000
0000
,  // measure 48
0000
0010
0001
0010
,  // measure 49
0001
0010
0001
0010
,  // measure 50
0001
0010
0100
0010
,  // measure 51
0100
0010
0100
0010
,  // measure 52
0100
1000
0100
1000
,  // measure 53
0100
1000
0100
1000
,  // measure 54
0100
1000
0001
1000
,  // measure 55
0001
1000
0001
1000
,  // measure 56
0001
0100
0001
0100
,  // measure 57
0001
0100
0001
0100
,  // measure 58
0001
0100
0010
0100
,  // measure 59
0010
0100
0010
0100
,  // measure 60
0010
1000
0010
1000
,  // measure 61
0010
1000
0010
1000
,  // measure 62
0010
1000
0100
1000
,  // measure 63
0100
1000
1000
1000
,  // measure 64
1000
0000
0000
0000
0001
0000
0000
0001
,  // measure 65
0000
0000
1000
0000
0000
0001
0000
0000
,  // measure 66
0100
0000
0000
0000
0010
0000
0000
1000
,  // measure 67
0000
0100
0000
1000
,  // measure 68
0010
0000
0000
0000
0100
0000
0000
0100
,  // measure 69
0000
0000
0010
0000
0000
1000
0000
0000
,  // measure 70
0001
0000
0000
0000
0001
0000
0000
0010
,  // measure 71
0000
0100
0000
0010
,  // measure 72
0001
0000
0000
0000
1000
0000
0000
0001
,  // measure 73
0000
0000
0100
0000
0000
0010
0000
0000
,  // measure 74
1000
0000
0000
0000
1000
0000
0000
0001
,  // measure 75
0000
0100
0000
0010
,  // measure 76
1000
0000
0000
0000
1000
0000
0000
0001
,  // measure 77
0000
0000
0100
0000
0000
0001
0000
0000
,  // measure 78
0010
0000
0000
0000
0010
0000
0000
0100
,  // measure 79
0000
1000
0000
0000
;

//---------------dance-single - ----------------
#NOTES:
     dance-single:
     :
     Beginner:
     1:
     0.093,0.205,0.095,0.000,0.000: // measure 1
0000
0000
0000
0000
,  // measure 2
0000
0000
0000
0000
,  // measure 3
0000
0000
0000
0000
,  // measure 4
0000
0000
0000
0000
,  // measure 5
0000
0000
0000
0000
,  // measure 6
0000
0000
0000
0000
,  // measure 7
0000
0000
0000
0000
,  // measure 8
0000
0010
0000
0000
,  // measure 9
0000
0000
0000
0000
,  // measure 10
0000
1000
0000
0000
,  // measure 11
0000
0000
0000
0000
,  // measure 12
0000
0001
0000
0000
,  // measure 13
0000
0000
0000
0000
,  // measure 14
0000
0100
0000
0000
,  // measure 15
0000
0010
0000
0010
,  // measure 16
0000
0010
0010
0000
,  // measure 17
0000
0000
0000
0000
,  // measure 18
1000
0000
1000
0000
,  // measure 19
0000
0000
0000
0000
,  // measure 20
0001
0000
1000
0000
,  // measure 21
0000
0000
0000
0000
,  // measure 22
0000
0000
0100
0000
,  // measure 23
0000
0000
1000
0000
,  // measure 24
1000
0010
0000
0000
,  // measure 25
0000
0100
0000
0000
,  // measure 26
0000
0010
0000
0000
,  // measure 27
0000
1000
0000
0000
,  // measure 28
0000
0001
0000
0001
,  // measure 29
0000
1000
0000
1000
,  // measure 30
0000
0010
0010
0010
,  // measure 31
0010
0000
0000
0000
,  // measure 32
0000
0110
0000
0000
,  // measure 33
0000
0000
0000
0000
,  // measure 34
0000
0000
0000
0000
,  // measure 35
0000
0000
0000
0000
,  // measure 36
0000
0001
0000
0000
,  // measure 37
0000
0000
0000
0000
,  // measure 38
0000
0000
0000
0000
,  // measure 39
0000
0000
0000
0000
,  // measure 40
0000
1001
0000
0000
,  // measure 41
0000
0000
0000
0000
,  // measure 42
0000
0000
0000
0000
,  // measure 43
0000
0000
0000
0000
,  // measure 44
0000
1000
0000
0000
,  // measure 45
0000
0000
0000
0000
,  // measure 46
0000
0010
0000
0000
,  // measure 47
0000
0000
0000
0000
,  // measure 48
0000
0100
0000
0000
,  // measure 49
0000
0000
0000
0000
,  // measure 50
0010
0010
0000
0000
,  // measure 51
0000
0000
0000
0000
,  // measure 52
1000
0001
0000
0000
,  // measure 53
0000
0000
0000
0000
,  // measure 54
0001
0100
0100
0100
,  // measure 55
0000
0000
0000
0000
,  // measure 56
0010
1001
0000
0000
,  // measure 57
0000
0000
0000
0000
,  // measure 58
1000
1000
0000
0000
,  // measure 59
0000
0001
0000
0001
,  // measure 60
0000
0001
0000
0000
,  // measure 61
0000
0000
0000
0000
,  // measure 62
1000
1000
0000
0000
,  // measure 63
0000
0010
0000
0100
,  // measure 64
0000
0110
0000
0000
,  // measure 65
0000
0000
0000
0000
,  // measure 66
0000
1001
0000
0000
,  // measure 67
0000
0000
0000
0000
,  // measure 68
0000
0110
0000
0000
,  // measure 69
0000
0000
0000
0000
,  // measure 70
0000
1001
0000
0000
,  // measure 71
0000
0000
0000
0000
,  // measure 72
0000
1001
0000
0000
,  // measure 73
0000
0000
0000
0000
,  // measure 74
0000
0110
0000
0000
,  // measure 75
0000
0000
0000
0000
,  // measure 76
0000
1001
0000
0000
,  // measure 77
0000
0010
0000
0000
,  // measure 78
0000
0100
0000
0100
,  // measure 79
0000
0100
0000
0000
,  // measure 80
0000
1001
0000
0000
;
