#VERSION:0.81;
#TITLE:Plan 8;
#SUBTITLE:;
#ARTIST:Ryu☆;
#TITLETRANSLIT:;
#SUBTITLETRANSLIT:;
#ARTISTTRANSLIT:;
#GENRE:;
#ORIGIN:;
#CREDIT:TaroNuke;
#BANNER:[Round 3] - Plan 8.png;
#BACKGROUND:[Round 3] - Plan 8-bg.png;
#PREVIEWVID:;
#JACKET:[Round 3] - Plan 8-jacket.png;
#CDIMAGE:;
#DISCIMAGE:;
#LYRICSPATH:;
#CDTITLE:TaroNuke_small.png;
#MUSIC:[Round 3] - Plan 8.ogg;
#OFFSET:-0.010;
#SAMPLESTART:10.192;
#SAMPLELENGTH:12.000;
#SELECTABLE:YES;
#BPMS:0.000=212.000;
#STOPS:;
#DELAYS:;
#WARPS:;
#TIMESIGNATURES:0.000=4=4;
#TICKCOUNTS:0.000=4;
#COMBOS:0.000=1;
#SPEEDS:0.000=1.000=0.000=0;
#SCROLLS:0.000=1.000;
#FAKES:;
#LABELS:0.000=Song Start;
#BGCHANGES:;
#KEYSOUNDS:;
#ATTACKS:
;

//---------------dance-single - TaroNuke----------------
#NOTEDATA:;
#CHARTNAME:TaroNuke;
#STEPSTYPE:dance-single;
#DESCRIPTION:TaroNuke;
#CHARTSTYLE:;
#DIFFICULTY:Hard;
#METER:9;
#RADARVALUES:0.694,0.700,0.180,0.744,0.053,481.000,22.000,91.000,0.000,0.000,0.000,0.000,0.000,0.694,0.700,0.180,0.744,0.053,481.000,22.000,91.000,0.000,0.000,0.000,0.000,0.000;
#CREDIT:TaroNuke;
#NOTES:
0000
0000
0000
0000
,
0000
0000
0000
0000
,
0000
0000
0000
0000
,
0000
0000
0000
0000
,
1000
0000
0100
0000
0010
0100
1000
0000
,
0001
0000
0100
0000
0010
0100
0001
0000
,
1000
0100
1000
0100
0010
0001
0010
0001
,
0200
0000
0000
0000
,
0020
0000
0000
0330
,
2001
0100
0001
3100
,
0001
0100
0010
1000
0100
0000
1100
0000
,
1002
0100
1000
0103
,
1000
0100
0010
0001
0100
0010
1000
0000
,
1200
0001
1000
0301
,
0010
0001
1000
0010
0100
0000
0110
0000
,
0201
1000
0001
1300
,
0010
1000
0001
0010
0100
1000
0100
0000
,
0010
0000
0010
0000
0010
0000
0001
1000
,
0100
0000
0100
0000
0100
1000
0001
0100
,
0010
0000
0010
0000
0010
0000
1000
0010
,
0100
0100
0100
0110
,
1001
0000
1000
0000
1000
0000
0100
0010
,
0001
0000
0001
0000
0001
0100
0010
1000
,
0100
0010
0100
0010
0100
0010
0100
0010
,
0002
0010
0100
1003
,
0001
0000
0100
0000
0010
0000
0100
0000
0001
0000
0000
1000
0000
0000
0001
0000
,
1000
0000
0100
0000
0010
0000
0100
0000
1000
0000
0000
0001
0000
0000
1000
0000
,
0010
0000
1000
0000
0100
0000
1000
0000
0010
0000
0000
1000
0000
0000
0001
0000
,
0010
0000
0001
0000
0100
0000
0001
0000
0010
0000
0000
0001
0000
0000
1000
0000
,
0001
0000
0100
0000
1000
0000
0100
0000
0010
0000
0000
0100
0000
0000
0001
0000
,
1000
0000
0100
0000
0001
0000
0100
0000
0010
0000
0000
0100
0000
0000
1000
0000
,
0001
0000
0100
0000
0010
0000
1000
0000
0100
0000
0000
0001
0000
0000
0100
0000
,
1000
0100
0010
0001
0100
1000
0100
0010
,
1000
0000
0100
0000
0010
0000
0001
0000
0100
0000
0000
1000
0000
0000
0100
0000
,
0001
0000
0100
0000
0010
0000
1000
0000
0100
0000
0000
0001
0000
0000
0100
0000
,
0010
0000
0001
0000
1000
0000
0010
0000
0100
0000
0000
1000
0000
0000
0100
0000
,
0010
0000
1000
0000
0001
0000
0010
0000
0100
0000
0000
0001
0000
0000
0100
0000
,
0010
0000
0001
0000
0100
0000
1000
0000
0001
0000
0000
0010
0000
0000
1000
0000
,
0001
0000
1000
0000
0100
0000
0001
0000
1000
0000
0000
0010
0000
0000
0001
0000
,
1000
0010
0100
0001
0010
1000
0010
0100
,
2000
3020
0230
0301
,
0002
0100
0000
0100
0000
0100
0003
0200
,
0320
1000
0000
1000
0000
1000
0030
2000
,
3200
0010
0000
0010
0000
0010
0300
0020
,
0032
0100
0000
0100
0003
0100
0101
0000
,
2000
0100
0000
0100
0000
0100
3000
0200
,
0320
0001
0000
0001
0000
0001
0030
0002
,
0103
0010
0100
0010
0100
0010
0100
0010
,
2000
0001
0100
3001
,
1020
0100
1000
0130
,
1000
0100
0010
0100
0001
0000
0110
0000
,
0021
0100
0001
0130
,
0001
0100
0010
0100
1000
0100
0010
0000
,
1020
0001
1000
0031
,
1000
0010
0100
0001
0010
0000
0110
0000
,
0021
1000
0001
1030
,
0001
0010
0100
1000
0100
0010
0001
0000
,
1000
0010
0100
0001
0100
0010
1000
0000
,
0001
0010
0100
1000
0100
0010
0001
0000
,
1000
0010
1000
0000
0001
0100
0010
0000
,
1000
0100
1000
0000
0001
1000
0001
1000
,
0100
0010
0100
0010
0001
1000
0001
1000
,
0200
1000
0010
1300
,
0020
0000
0000
0000
,
0000
0000
0000
0130
,
2001
0000
0000
0000
,
3002
0000
0203
0000
,
0320
0000
0000
0000
,
2030
0000
3200
0320
,
0032
0000
0000
0000
,
2003
0000
3020
0000
,
0230
0000
0000
0302
,
0023
0230
2300
3002
,
0203
0000
0000
0000
,
0320
0000
2030
0000
,
3002
0000
0000
0000
,
0023
0000
0032
0203
,
0320
0000
0000
0000
,
2030
0000
3002
0000
,
2003
0000
0000
0000
,
0000
0000
3200
0000
,
0320
0001
0100
0001
,
0230
1000
0010
2300
,
3020
1000
0100
1000
,
0230
0001
0010
0302
,
0013
0100
0010
0100
1000
0010
1000
0010
,
0100
0001
0100
0001
0010
0100
0010
0100
,
1000
0001
1000
0001
0100
0010
0100
0010
,
2000
0001
0100
3001
,
0200
0000
0000
0310
,
2001
0000
0000
0000
3001
0010
0100
2000
,
0000
0000
3020
1030
,
1020
0000
0000
0000
2030
3002
0000
0023
,
0000
0000
0230
1300
,
1002
0000
0000
0000
1003
0010
0100
0002
,
0000
0000
0023
0031
,
0021
0000
0000
0000
0032
2003
0000
3020
,
0000
0000
0230
0301
,
2001
0000
0000
0000
3010
0100
0010
2000
,
0000
0000
3200
0302
,
0203
0000
0000
0000
0320
0032
0000
2003
,
0000
0000
3000
0002
,
0103
0000
0100
0000
0100
0010
0100
0001
,
0010
0000
0010
0000
0010
0100
0010
0001
,
1000
0010
1000
0010
0100
0001
0100
0001
,
1000
0100
0010
0001
1000
0010
0100
0000
,
2002
0000
0000
0000
,
3003
0000
0000
0000
;

//---------------dance-single - Ama-tan----------------
#NOTEDATA:;
#CHARTNAME:Ama-tan;
#STEPSTYPE:dance-single;
#DESCRIPTION:Ama-tan;
#CHARTSTYLE:;
#DIFFICULTY:Challenge;
#METER:9;
#RADARVALUES:0.722,0.700,0.114,0.613,0.074,529.000,14.000,75.000,26.000,0.000,0.000,0.000,0.000,0.722,0.700,0.114,0.613,0.074,529.000,14.000,75.000,26.000,0.000,0.000,0.000,0.000;
#CREDIT:Ama-tan;
#NOTES:
// measure 0
0000
0000
0000
0000
,  // measure 1
0000
0000
0000
0000
,  // measure 2
0000
0000
0000
0000
,  // measure 3
0000
0000
0000
0000
,  // measure 4
1000
0000
0000
0000
0001
0000
0000
1000
0100
0000
1000
0000
0010
0000
1000
0000
,  // measure 5
0001
0000
0000
0000
1000
0000
0000
0001
0100
0000
0001
0000
0010
0000
0001
0000
,  // measure 6
1000
0100
0010
0001
1000
0100
0010
0001
,  // measure 7
2000
0100
0001
0100
,  // measure 8
0020
0000
0000
0000
0000
0000
3030
M0M0
,  // measure 9
0002
0000
0000
0000
2003
0000
0000
0000
3001
0000
0001
0000
1000
0000
0000
1000
,  // measure 10
0010
0100
0010
1000
0001
0000
0011
0000
,  // measure 11
0020
0000
0000
0000
0230
0000
0000
0000
0310
0000
0010
0000
0100
0000
0000
0100
,  // measure 12
1000
0100
0010
0001
0100
0010
1000
0000
,  // measure 13
0020
0000
0000
0000
2030
0000
0000
0000
3010
0000
0010
0000
1000
0000
0000
1000
,  // measure 14
0001
0010
0100
1000
0010
0000
1010
0000
,  // measure 15
0002
0000
0023
0000
0031
0001
0020
0000
,  // measure 16
0230
1000
0010
1300
,  // measure 17
0001
0000
0001
0000
0001
0000
0010
0100
,  // measure 18
1000
0000
1000
0000
1000
0010
0100
0001
,  // measure 19
0010
0000
0010
0000
0010
0000
0001
1000
,  // measure 20
0100
0100
0100
1100
,  // measure 21
0101
0000
1000
0010
1000
0000
0010
0100
,  // measure 22
0001
0000
0010
0100
1000
0000
0001
1000
,  // measure 23
0010
0100
0010
1000
0010
0100
0010
1000
,  // measure 24
0002
0010
0100
1003
,  // measure 25
1000
0010
0100
0001
0100
1000
0100
0010
,  // measure 26
1000
0000
0100
0000
1000
0000
0100
0000
1000
0000
0000
0010
0000
0000
0100
0000
,  // measure 27
0001
0010
0100
1000
0100
0001
0100
0010
,  // measure 28
0001
0000
0100
0000
0001
0000
0100
0000
0001
0000
0000
0010
0000
0000
0100
0000
,  // measure 29
1000
0010
0100
0010
1000
0001
0010
0100
,  // measure 30
0001
0000
0100
0000
0001
0000
0100
0000
0010
0000
0000
0001
0000
0000
1000
0000
,  // measure 31
0001
0100
0010
0100
0001
1000
0010
0100
,  // measure 32
1000
0100
1000
0100
0010
0100
0001
0010
,  // measure 33
0001
0000
1000
0000
1000
0000
0000
0000
0010
0000
0000
0100
0000
0000
0010
0000
,  // measure 34
1000
0000
0001
0000
0001
0000
0000
0000
0010
0000
0000
0100
0000
0000
0010
0000
,  // measure 35
0001
0000
0100
0000
0100
0000
0000
0000
0010
0000
0000
0100
0000
0000
0010
0000
,  // measure 36
1000
0000
0100
0000
0100
0000
0000
0000
0010
0000
0000
0100
0000
0000
0010
0000
,  // measure 37
0001
0000
0100
0000
0010
0000
1000
0000
0100
0000
0000
0001
0000
0000
0100
0000
,  // measure 38
1000
0000
0100
0000
0010
0000
0001
0000
0100
0000
0000
1000
0000
0000
0100
0000
,  // measure 39
0010
1000
0100
0001
0100
0010
0001
0100
,  // measure 40
0002
2003
3002
0103
,  // measure 41
0001
1000
0M00
0010
M000
0100
000M
0010
,  // measure 42
0M00
1000
000M
0100
M000
0010
0M00
0001
,  // measure 43
M000
0100
000M
0010
M000
0100
00M0
0001
,  // measure 44
0M00
0010
000M
0100
00M0
1000
010M
0000
,  // measure 45
M010
0001
0M00
0010
000M
1000
0M00
0010
,  // measure 46
M000
0001
00M0
0100
000M
1000
00M0
0100
,  // measure 47
M001
0010
0100
1000
0001
0010
0100
1000
,  // measure 48
0020
1000
0100
1030
,  // measure 49
1000
0000
0100
0000
2000
0000
0000
0000
3001
0000
0100
0000
0001
0000
0000
0001
,  // measure 50
1000
0100
0010
0001
0100
0000
0101
0000
,  // measure 51
0001
0000
0100
0000
0002
0000
0000
0000
1003
0000
0100
0000
1000
0000
0000
1000
,  // measure 52
0001
0010
0100
1000
0010
0100
0010
0100
,  // measure 53
0001
0000
0100
0000
0002
0000
0000
0000
1003
0000
0100
0000
1000
0000
0000
1000
,  // measure 54
0001
0100
0010
1000
0100
0000
1100
0000
,  // measure 55
1000
0000
0001
0000
0200
0000
0000
0000
0310
0000
1000
0000
0100
0000
0000
0100
,  // measure 56
1000
0100
0010
0100
0001
0100
0010
0000
,  // measure 57
0001
0100
0010
0100
1000
0100
0010
0000
,  // measure 58
1000
0100
0010
0100
0001
0100
0010
0000
,  // measure 59
0001
0100
0010
1000
0010
0100
0001
0100
,  // measure 60
0010
1000
0010
1000
0001
0010
0001
0010
,  // measure 61
0100
1000
0100
1000
0001
1000
0001
1000
,  // measure 62
0020
1000
0100
1030
,  // measure 63
0200
0000
0000
0000
,  // measure 64
0000
0000
0000
0310
,  // measure 65
2001
0000
0000
0000
,  // measure 66
3200
0000
0320
0000
,  // measure 67
0032
0000
0000
0000
,  // measure 68
2003
0000
3002
0203
,  // measure 69
0320
0000
0000
0000
,  // measure 70
2030
0000
3002
0000
,  // measure 71
0023
0000
0000
0230
,  // measure 72
0302
0203
2300
3002
,  // measure 73
0203
0000
0000
0000
,  // measure 74
0320
0000
0230
0000
,  // measure 75
2300
0000
0000
0000
,  // measure 76
3200
0000
0320
2030
,  // measure 77
3002
0000
0000
0000
,  // measure 78
0023
0000
0230
0000
,  // measure 79
2300
0000
0000
0000
,  // measure 80
0000
0000
3200
0000
,  // measure 81
0310
0000
0001
0000
1000
0001
0100
0020
,  // measure 82
0000
0000
2030
3002
,  // measure 83
0013
0000
0100
0000
1000
0020
0000
0230
,  // measure 84
0000
0000
0302
1003
,  // measure 85
1000
0100
0010
0001
1000
0100
0010
0001
,  // measure 86
1000
0010
0100
0001
1000
0010
0100
0001
,  // measure 87
1000
0100
0010
0100
1000
0001
0100
0001
,  // measure 88
2000
0100
0001
0100
,  // measure 89
0020
0000
0000
3030
,  // measure 90
1002
0000
0100
0000
1003
0100
0010
0001
,  // measure 91
0200
1000
0010
0301
,  // measure 92
2001
0000
0100
0000
3001
0100
0010
1000
,  // measure 93
0200
0001
0010
1300
,  // measure 94
1002
0000
0010
0000
1003
0010
0100
0001
,  // measure 95
0020
1000
0100
0031
,  // measure 96
2001
0000
0010
0000
3001
0010
0100
2000
,  // measure 97
0000
3020
0000
0230
0301
0000
1001
0000
,  // measure 98
0201
0000
1000
0000
0310
1000
0100
0010
,  // measure 99
0200
0001
0010
1300
,  // measure 100
1200
0000
0001
0000
0310
0001
0100
0010
,  // measure 101
0200
1000
0010
0301
,  // measure 102
1000
0100
0010
0001
1000
0100
0010
0001
,  // measure 103
1000
0010
0100
0001
1000
0010
0100
0001
,  // measure 104
1000
0001
0010
0001
1000
0010
0100
0010
,  // measure 105
1000
0100
0001
0100
0010
0001
2000
0000
,  // measure 106
0020
0000
0000
0000
,  // measure 107
3030
0000
0000
0000
;

//---------------dance-single - TaroNuke----------------
#NOTEDATA:;
#CHARTNAME:TaroNuke;
#STEPSTYPE:dance-single;
#DESCRIPTION:TaroNuke;
#CHARTSTYLE:;
#DIFFICULTY:Medium;
#METER:7;
#RADARVALUES:0.536,0.612,0.572,0.155,0.000,370.000,70.000,19.000,0.000,0.000,0.000,0.000,0.000,0.536,0.612,0.572,0.155,0.000,370.000,70.000,19.000,0.000,0.000,0.000,0.000,0.000;
#CREDIT:TaroNuke;
#NOTES:
0000
0000
0000
0000
,
0000
0000
0000
0000
,
0000
0000
0000
0000
,
0000
0000
0000
0000
,
1000
1000
1000
1000
,
0001
0001
0001
0001
,
1000
0100
1000
0100
1000
0100
1000
0100
,
0020
0000
0000
0000
,
0002
0000
0000
0033
,
1001
1100
1001
1100
,
0001
1000
0001
1000
0010
0000
0010
0000
,
1001
0101
1001
0101
,
1000
0001
1000
0001
0010
0000
0010
0000
,
0011
0110
0011
0110
,
1000
0001
1000
0001
0010
0000
0010
0000
,
0001
0100
0001
0000
1000
0100
1000
0000
,
0020
0000
0000
0030
,
1000
1000
1000
0100
,
0001
0001
0100
0010
,
0001
0001
0001
0100
,
1000
1000
1000
0100
,
0010
1000
0100
0010
,
0001
0100
0010
0001
,
0010
0100
0010
0100
0010
0100
0010
0100
,
0020
0000
0000
0030
,
1010
1010
1010
0000
,
0101
0101
0101
0000
,
0011
0011
0011
0000
,
1100
0000
1100
0000
1100
0000
1000
0001
,
0010
0000
0010
0000
0010
0000
0100
1000
,
0001
0000
0001
0000
0001
0100
0010
1000
,
0100
0000
0100
0000
0100
0000
1000
0001
,
0200
0000
0000
0000
,
0301
0100
0001
0000
0100
0000
1000
0000
,
0100
0010
0100
0000
0001
0000
1000
0000
,
0100
0001
0100
0000
0010
0000
0001
0000
,
1000
0010
1000
0000
0001
0000
0010
0000
,
0100
0001
0100
0000
0010
0000
0001
0000
,
0100
1000
0100
0000
0010
0000
1000
0000
,
0100
0010
0100
0000
0001
0000
0100
0000
,
0020
0032
2003
3000
,
0010
0000
0000
0000
,
0100
0000
0000
0000
,
0001
0000
0000
0000
,
1000
0000
0000
0110
,
0110
0000
0000
0000
,
0001
0000
0000
0000
,
1000
0001
1000
0001
1000
0001
1000
0001
,
0200
0000
0000
0300
,
1010
0101
1010
0101
,
1000
0001
1000
0001
0010
0000
0010
0000
,
0011
1100
0011
1100
,
0001
1000
0001
1000
0010
0000
0010
0000
,
1010
0101
1010
0101
,
0001
1000
0001
1000
0010
0000
0010
0000
,
1000
0100
1000
0000
0001
0100
0001
0000
,
0010
0100
0010
0000
,
0100
1000
0100
0000
,
0010
0001
0010
0000
,
0100
1000
0100
1000
,
0010
0100
0010
0100
,
0001
1000
0001
1000
0001
1000
0001
1000
,
0200
0000
0000
0300
,
0020
0000
0000
0000
,
0000
0000
0000
0031
,
1001
0000
0000
0000
,
0100
0000
0010
0000
,
1001
0000
0000
0000
,
1000
0000
0010
0100
,
0101
0000
0000
0000
,
0001
0000
0010
0000
,
1100
0000
0000
1000
,
0001
0010
0100
1000
,
1001
0000
0000
0000
,
0100
0000
0010
0000
,
1001
0000
0000
0000
,
0001
0000
1000
0010
,
0110
0000
0000
0000
,
1000
0000
0010
0000
,
0101
0000
0000
0000
,
0000
0000
0200
0000
,
0301
1000
0100
1000
,
0001
0010
0100
0010
,
0001
1000
0010
0100
,
2000
0000
3100
0010
,
1000
0001
0010
0001
,
1000
0010
0100
0010
,
1000
0100
1000
0100
0010
0001
0010
0001
,
2000
3020
0230
0302
,
2000
0000
0000
3003
,
0101
0101
0101
0000
,
1100
1100
1100
0000
,
1010
1010
1010
0000
,
0011
0011
0011
0001
,
0100
0000
0100
0000
0010
1000
0001
0100
,
0010
0010
1000
0100
,
0010
0000
0010
0000
0001
1000
0010
0100
,
0000
0010
0000
0100
0001
0000
1000
0000
,
0001
0010
0001
0000
1000
0100
1000
0100
,
0000
0010
0000
0001
0100
0000
0010
0000
,
1000
0001
1000
0000
0010
0100
0000
0001
,
0000
1000
0001
0010
,
0011
0011
0011
0001
,
1010
1010
1010
1000
,
0110
0110
0110
0010
,
1001
0110
1001
0000
,
0020
0000
0000
0000
,
0030
0000
0000
0000
;

//---------------dance-single - TaroNuke----------------
#NOTEDATA:;
#CHARTNAME:TaroNuke;
#STEPSTYPE:dance-single;
#DESCRIPTION:TaroNuke;
#CHARTSTYLE:;
#DIFFICULTY:Beginner;
#METER:3;
#RADARVALUES:0.231,0.260,0.074,0.139,0.000,172.000,9.000,17.000,0.000,0.000,0.000,0.000,0.000,0.231,0.260,0.074,0.139,0.000,172.000,9.000,17.000,0.000,0.000,0.000,0.000,0.000;
#CREDIT:TaroNuke;
#NOTES:
0000
0000
0000
0000
,
0000
0000
0000
0000
,
0000
0000
0000
0000
,
0000
0000
0000
0000
,
1000
0000
0000
0000
,
0000
0000
0000
0000
,
0001
0000
0001
0000
,
0200
0000
0000
0000
,
0020
0000
0000
0330
,
1000
0000
1000
0000
,
1000
0100
0010
0000
,
0001
0000
0001
0000
,
0001
0100
0010
1000
,
0100
0000
0100
0000
,
0100
0010
0001
0000
,
0100
0000
0100
0000
,
0100
0010
1000
0100
,
0010
0000
0000
0000
,
0100
0000
0000
0000
,
0010
0000
0000
0000
,
0100
0000
0000
0000
,
1000
0000
0000
0000
,
0001
0000
0000
0000
,
2000
0000
0000
0000
,
0002
0000
0000
3003
,
1000
0000
1000
0000
,
0001
0000
0001
0000
,
0100
0000
0100
0000
,
0010
0000
0010
0000
,
1000
0000
1000
0000
,
0100
0000
0100
0000
,
0001
0000
0001
0000
,
0010
0000
0010
0000
,
1000
1000
1000
0000
,
0100
0100
0100
0000
,
0001
0001
0001
0000
,
0100
0100
0100
0000
,
1000
1000
1000
0000
,
0010
0010
0010
0000
,
0001
0001
0001
0000
,
0010
0010
0010
0000
,
0100
0000
0000
0000
,
0100
0000
0000
0000
,
0001
0000
0000
0000
,
0001
0000
0000
0000
,
1000
0000
0000
0000
,
1000
0000
0000
0000
,
0200
0000
0000
0000
,
0020
0000
0000
0330
,
0001
0000
0001
0000
,
0001
0100
0010
0000
,
1000
0000
1000
0000
,
1000
0100
0010
0001
,
0100
0000
0100
0000
,
0100
0010
1000
0000
,
0001
0000
0001
0000
,
1000
0001
0010
0000
,
0001
1000
0010
0000
,
1000
0001
0010
0000
,
0001
0001
0001
0000
,
1000
1000
1000
0000
,
0002
0000
0000
0000
,
2000
0000
0000
3003
,
0000
0000
0000
0000
,
0000
0000
0000
0000
,
1001
0000
0000
0000
,
0000
0000
0000
0000
,
1010
0000
0000
0000
,
0000
0000
0000
0000
,
1001
0000
0000
0000
,
0000
0000
0000
0000
,
0011
0000
0000
0000
,
0000
0000
0000
0000
,
1001
0000
0000
0000
,
0000
0000
0000
0000
,
1100
0000
0000
0000
,
0000
0000
0000
0000
,
1001
0000
0000
0000
,
0000
0000
0000
0000
,
0101
0000
0000
0000
,
0000
0000
0000
0000
,
2000
0000
3000
0000
,
0200
0000
0300
0000
,
0020
0000
0030
0000
,
0002
0000
0003
0000
,
0200
0000
0000
0000
,
0320
0000
0000
0000
,
2030
0000
0000
0000
,
3002
0000
0000
0000
,
0200
0000
0000
0303
,
0001
0000
0001
0000
,
0100
0000
0100
0000
,
0010
0000
0010
0000
,
1000
0000
1000
0000
,
0001
0000
0001
0000
,
0010
0000
0010
0000
,
1000
0000
1000
0000
,
0100
0000
0100
0000
,
0001
0000
1000
0000
,
0010
0000
0100
0000
,
0001
0000
1000
0000
,
0100
0000
1000
0000
,
0010
0010
0010
0000
,
0100
0100
0100
0000
,
0001
0001
0001
0000
,
1000
1000
1000
0000
,
0110
0000
0000
0000
;

//---------------dance-single - TaroNuke----------------
#NOTEDATA:;
#CHARTNAME:TaroNuke;
#STEPSTYPE:dance-single;
#DESCRIPTION:TaroNuke;
#CHARTSTYLE:;
#DIFFICULTY:Easy;
#METER:5;
#RADARVALUES:0.521,0.611,0.327,0.711,0.000,319.000,40.000,87.000,0.000,0.000,0.000,0.000,0.000,0.521,0.611,0.327,0.711,0.000,319.000,40.000,87.000,0.000,0.000,0.000,0.000,0.000;
#CREDIT:TaroNuke;
#NOTES:
0000
0000
0000
0000
,
0000
0000
0000
0000
,
0000
0000
0000
0000
,
0000
0000
0000
0000
,
0001
0001
0001
0000
,
1000
1000
1000
0000
,
0001
0100
0001
0100
,
0020
0000
0000
0000
,
2000
0000
0000
3030
,
2000
3002
2003
3002
,
0103
0010
1000
1010
,
0020
0230
0320
0230
,
0301
0000
1000
0000
0100
0010
0100
0010
,
0002
0203
0302
0203
,
0310
1000
0100
1100
,
2000
3200
2300
3200
,
0310
0000
0001
0000
1000
0001
1000
0000
,
0010
0010
0010
0000
,
0100
0100
0100
0001
,
1000
1000
1000
0000
,
0001
0001
0001
0100
,
0110
0000
1000
0000
0100
1000
0100
0000
,
0010
0000
0001
0000
0100
0001
0100
0000
,
0010
0010
0010
0010
,
2000
0000
0000
3000
,
1001
1000
1001
0001
,
1001
0110
1001
0000
,
1001
0001
1001
1000
,
1001
0110
1001
1000
,
1100
1000
1100
0100
,
1100
0110
0011
0000
,
0101
0001
0101
0100
,
0002
0203
0320
2030
,
3001
0000
0001
0000
0001
0100
0001
0000
,
1000
0000
1000
0000
1000
0100
1000
0000
,
0010
0000
0010
0000
0010
0100
0010
0000
,
0100
0000
0100
0000
0100
0001
0100
0000
,
0001
0000
0010
0000
0100
1000
0100
0000
,
1000
0000
0010
0000
0100
0001
0100
0000
,
0001
0000
0100
0000
0010
1000
0100
0000
,
0020
0032
2003
0000
,
3020
0000
0000
0000
,
0000
0000
0000
0000
,
0000
0000
0000
0000
,
0000
0000
0000
0100
,
0230
0000
0000
0000
,
0000
0000
0000
0000
,
0302
0000
0000
0000
,
2000
0000
0000
3003
,
0002
2003
3002
2003
,
3100
0010
0001
0011
,
0020
0230
0320
0230
,
1300
0000
0001
0000
0100
0010
0100
0010
,
2000
3200
2300
3200
,
0310
0001
0100
0101
,
0002
0203
0302
0203
,
0301
0010
0100
0100
,
1000
0010
0100
0100
,
0001
0010
0100
0100
,
1000
0010
0100
0100
,
0001
0001
1000
1000
,
0200
0000
0000
0000
,
0020
0000
0000
0330
,
0000
0000
0000
0000
,
0000
0000
0000
0000
,
2001
0000
3000
0000
,
0200
0300
0020
0030
,
0002
0000
0003
0000
,
0200
0300
0020
2030
,
3200
0000
0300
0000
,
0020
0030
0002
0003
,
0200
0300
0000
0002
,
0023
0230
2300
3002
,
0203
0000
0300
0000
,
0020
0030
2000
3000
,
0002
0000
0003
0000
,
0020
0030
0200
2300
,
3020
0000
0030
0000
,
0200
0300
0002
0003
,
2000
0000
3000
0000
,
0000
0000
0200
0000
,
0320
0000
0031
0000
,
0200
0000
1300
0000
,
0200
0000
0310
0000
,
2000
0000
3100
0010
,
0001
0100
0001
0100
,
0010
1000
0010
1000
,
0100
0010
0100
0010
,
0002
0000
0000
0000
,
0200
0000
0000
0303
,
1001
1000
1001
0001
,
1001
0110
1001
0000
,
1001
0001
1001
1000
,
1001
0110
1001
1000
,
1100
1000
1100
0100
,
1100
0110
0011
0000
,
0101
0001
0101
0100
,
0002
0203
0320
2030
,
3001
0000
0001
0000
0001
0100
0001
0000
,
1000
0000
1000
0000
1000
0100
1000
0000
,
0010
0000
0010
0000
0010
0100
0010
0000
,
0100
0000
0100
0000
0100
0001
0100
0000
,
0001
0010
0100
1000
,
0001
0100
0010
1000
,
0100
0100
0010
0010
,
0001
0001
0100
0100
,
0020
0000
0000
0030
;

//---------------dance-double - Ama-tan----------------
#NOTEDATA:;
#CHARTNAME:Ama-tan;
#STEPSTYPE:dance-double;
#DESCRIPTION:Ama-tan;
#CHARTSTYLE:;
#DIFFICULTY:Hard;
#METER:9;
#RADARVALUES:0.729,0.700,0.294,0.507,0.037,526.000,36.000,62.000,22.000,0.000,0.000,0.000,0.000,0.729,0.700,0.294,0.507,0.037,526.000,36.000,62.000,22.000,0.000,0.000,0.000,0.000;
#CREDIT:Ama-tan;
#NOTES:
00000000
00000000
00000000
00000000
,
00000000
00000000
00000000
00000000
,
00000000
00000000
00000000
00000000
,
00000000
00000000
00000000
00000000
,
10000000
01000000
00100000
00010000
,
00100000
00000000
00001000
00000000
00010000
00001000
00010000
00001000
,
00010000
00000100
00001000
00000010
00000100
00000001
00000010
00000001
,
00000100
00000010
00001000
00000100
00010000
00001000
00100000
00001000
,
00020000
00000000
00000000
00031000
,
00011000
00001100
00011000
00110000
,
00100000
01000000
10000000
00010000
01000000
00000000
01010000
00000000
,
00011000
01001000
00011000
00010010
,
00000010
00001000
00000001
00000010
00000100
00010000
00001000
00000000
,
00011000
01010000
00011000
00001100
,
00000100
00000010
00000001
00001000
00000010
00000000
00010010
00000000
,
00010000
00001000
01000000
00010000
00100000
01000000
10000000
00100000
,
10000000
01000000
00100000
00010000
01000000
00001000
00010000
00000000
,
00011000
00000000
00010000
00000000
00010000
00000000
00001000
00000010
,
00000100
00000000
00000100
00000000
00000010
00000001
00000100
00001000
,
00010000
00000000
00010000
00000000
00010000
00000000
00001000
00100000
,
01000000
00000000
01000000
00000000
00010000
01000000
10000000
00100000
,
01000000
00000000
00010000
00000000
01000000
00100000
00100000
00000000
,
10000000
00000000
01000000
00000000
00100000
00001000
00010000
00000000
,
00001000
00010000
00000010
00001000
00000100
00000010
00000001
00000100
,
00000001
00000010
00000100
00001000
00000010
00010000
00001000
00000000
,
10000000
00010000
01000000
00100000
00010000
00100000
01000000
00001000
,
00010000
00000000
00000100
00000000
00000010
00000000
00000100
00000000
00001000
00000000
00000000
00000010
00000000
00000000
00000100
00000000
,
00000001
00001000
00000100
00000010
00001000
00000010
00000100
00010000
,
00001000
00000000
01000000
00000000
00100000
00000000
01000000
00000000
00010000
00000000
00000000
00100000
00000000
00000000
01000000
00000000
,
10000000
00010000
00100000
01000000
00010000
01000000
00100000
00001000
,
00010000
00000000
00000010
00000000
00000100
00000000
00000010
00000000
00001000
00000000
00000000
00000100
00000000
00000000
00000010
00000000
,
00000001
00001000
00000010
00000100
00001000
00000100
00000010
00010000
,
00001000
00100000
00010000
01000000
00100000
10000000
01000000
00100000
,
00010000
00000000
01000000
00000000
00001000
00000000
00010000
00000000
00100000
00000000
00000000
00010000
00000000
00000000
00000010
00000000
,
00001000
00000000
00000100
00000000
00010000
00000000
00001000
00000000
00000010
00000000
00000000
00001000
00000000
00000000
00100000
00000000
,
00001000
00000000
01000000
00000000
00100000
00000000
01000000
00000000
10000000
00000000
00000000
01000000
00000000
00000000
00001000
00000000
,
00010000
00000000
00000100
00000000
00000010
00000000
00000100
00000000
00000001
00000000
00000000
00000100
00000000
00000000
00010000
00000000
,
00001000
00000000
00000010
00000000
00000001
00000000
00000100
00000000
00000010
00000000
00000000
00010000
00000000
00000000
00001000
00000000
,
00010000
00000000
00100000
00000000
10000000
00000000
01000000
00000000
00100000
00000000
00000000
00001000
00000000
00000000
00010000
00000000
,
00000100
00001000
00000100
00000010
00000001
00000100
00001000
00000100
,
00000020
00002030
00003002
00000013
,
00M00001
00001000
000000M0
00000100
0M000000
00100000
0000M000
00010000
,
M0000000
01000000
000M0000
00100000
0M000000
10000000
0000M000
00010000
,
00M00000
01000000
0000M000
00000010
00000M00
00010000
0000M000
00000100
,
0000000M
00000010
00000M00
00000001
000M0000
00001000
00000010
00000000
,
00010000
00001000
00000M00
00100000
000M0000
00000100
0000M000
00000010
,
00000M00
00000001
0000M000
00000100
0000000M
00000010
000M0000
00001000
,
00000010
00010000
00001000
00100000
00010000
01000000
00100000
10000000
,
01000000
10000000
00100000
01000000
00010000
00100000
00001000
00000000
,
00011000
00010100
00001010
00000101
,
00000001
00001000
00000010
00001000
00000100
00000000
00001100
00000000
,
00011000
01001000
00110000
11000000
,
10000000
01000000
00100000
00010000
01000000
00010000
01000000
00000000
,
00011000
00010100
00010010
00010001
,
00000001
00001000
00000010
00001000
00000100
00000000
00001100
00000000
,
00011000
01001000
00101000
10001000
,
10000000
00010000
10000000
00100000
10000000
01000000
10000000
00000000
,
00001000
01000000
00001000
00100000
00001000
00010000
00001000
00000000
,
00010000
00000100
00010000
00000010
00010000
00001000
00010000
00000000
,
00000001
00001000
00000001
00000010
00000001
00000100
00000001
00001000
,
00000010
00000100
00000010
00010000
00000100
00001000
00000100
00010000
,
00001000
00100000
00001000
00100000
00010000
01000000
00010000
01000000
,
00100000
10000000
00100000
10000000
01000000
00100000
00000000
00000000
,
00002000
00000000
00000000
00000000
,
00000000
00000000
00000000
00013000
,
00012000
00000000
00000000
00000000
,
00003020
00000000
00000032
00000000
,
00000203
00000000
00000000
00000000
,
00002300
00000000
00023000
00230000
,
20300000
00000000
00000000
00000000
,
32000000
00000000
03020000
00000000
,
02030000
00000000
00000000
03200000
,
00302000
00023000
00030200
00002300
,
00003020
00000000
00000000
00000000
,
00000230
00000000
00000302
00000000
,
00000023
00000000
00000000
00000000
,
00000230
00000000
00020300
00032000
,
02003000
00000000
00000000
00000000
,
03200000
00000000
20300000
00000000
,
32000000
00000000
00000000
00000000
,
00000000
00000000
23000000
00000000
,
30200000
01000000
00010000
02300000
,
03002000
00010000
00100000
00023000
,
00030200
00000010
00001000
00000320
,
00000032
00001000
00000100
00002003
,
00003010
00001000
00000010
00001000
00100000
00001000
00100000
00001000
,
00100000
01000000
00100000
01000000
00010000
01000000
00010000
01000000
,
00100000
10000000
01000000
00100000
00001000
01000000
00100000
10000000
,
02000000
00000000
00000000
00000000
,
00200000
00000000
00000000
03300000
,
10020000
00000000
00100000
00000000
01030000
00001000
00100000
00001000
,
00020000
00000100
00001000
00030010
,
00010000
00000100
00000010
00000100
00001000
00000200
00000000
00000302
,
00000000
00000000
00000000
00000003
00000200
00000000
00000310
00000000
,
00002001
00000000
00000010
00000000
00003100
00010000
00000010
00010000
,
00002000
01000000
00010000
00103000
,
00001000
01000000
00100000
01000000
00010000
02000000
00000000
23000000
,
00000000
32000000
00000000
23000000
32000000
00000000
03100000
00000000
,
10000000
01000000
00010000
00001000
00000010
00000100
00010000
00000200
,
00001000
00000010
00001000
00000320
,
00000031
00000100
00001000
00010000
00100000
02000000
00000000
23000000
,
00000000
00000000
32000000
03001000
,
00010000
00001000
00010000
00000100
00001000
00000010
00000100
00000010
,
00000001
00000010
00000100
00000001
00000010
00000100
00010000
00001000
,
01000000
00010000
00100000
01000000
10000000
00100000
01000000
00100000
,
00010000
00100000
01000000
00001000
00020000
00000000
00000000
00000000
,
00000020
00000000
00000000
00000000
,
00030030
00000000
00000000
00000000
;
