#TITLE:New Lights;
#SUBTITLE:;
#ARTIST:kors k;
#TITLETRANSLIT:;
#SUBTITLETRANSLIT:;
#ARTISTTRANSLIT:;
#GENRE:;
#CREDIT:;
#MENUCOLOR:;
#METERTYPE:DDR;
#BANNER:[Round 3] - New Lights.png;
#BACKGROUND:[Round 3] - New Lights-bg.png;
#LYRICSPATH:;
#CDTITLE:cdtitle.png;
#MUSIC:[Round 3] - New Lights.mp3;
#OFFSET:-0.028;
#SAMPLESTART:98.751;
#SAMPLELENGTH:15.000;
#SELECTABLE:YES;
#LISTSORT:;
#DISPLAYBPM:175.000;
#BPMS:0.000=175.000,95.250=525.000,96.000=175.000;
#STOPS:95.000=0.171
,284.000=1.029
;
#BGCHANGES:;
#ATTACKS:;

//---------------dance-single - ----------------
#NOTES:
     dance-single:
     :
     Hard:
     9:
     0.749,0.813,0.341,0.301,0.269:
0000
0000
0000
0000
,
0000
0000
0000
0000
,
0000
0000
0000
0000
,
0000
0000
0000
0000
,
1001
0000
0100
0000
0010
0001
0000
2002
,
0000
0000
3003
0000
0000
0000
0100
0010
0100
0000
0001
0000
0010
0000
0100
0000
,
0000
0000
1001
0100
0010
1000
0001
0101
,
0000
1100
0000
1001
0000
0110
1001
0000
,
0012
0000
0103
0000
0010
0000
1000
1001
,
0000
0001
0100
0000
0001
0010
0100
2000
,
0000
3000
0101
0000
0100
0010
1000
1200
,
0000
0300
0000
0011
0000
1100
1000
0001
,
0201
0000
1300
0000
0100
0010
0000
2002
,
0000
0000
3003
0000
0000
0000
1000
0001
1000
0000
0010
0000
0100
0000
0002
0000
,
0000
0003
0110
0100
0001
1000
0001
0011
,
0000
1010
0000
1001
0000
0110
1001
0000
,
0002
0000
0103
0001
0010
0100
1000
0000
,
2000
0000
3001
0100
0010
1000
0100
0000
,
0020
0000
0130
1000
0001
0100
0010
0000
,
0020
0000
0130
0001
1000
0100
0010
0000
,
0001
0100
0001
0100
1000
0100
1000
0100
,
0001
0010
0001
0010
1000
0010
1000
0010
,
0001
0100
1000
0100
0010
0001
0010
1000
,
0100
0000
0010
0000
0100
0000
0000
0000
0010
0000
0001
0000
0010
0000
0000
0000
0001
0000
1000
0000
0001
0000
1000
0000
0020
0030
0000
0000
0000
0000
0000
0000
,
0100
0001
0000
0000
0001
0000
0000
0010
0000
0000
0010
0000
0000
0100
0000
0000
,
0100
0000
0000
1000
0000
0000
1000
0000
0000
0001
0000
0000
0001
0000
0100
0000
,
0010
1000
0000
0000
1000
0000
0000
0100
0000
0000
0100
0000
0000
0010
0000
0000
,
0010
0000
0000
0001
0000
0000
0001
0000
0000
1000
0000
0000
1000
0000
0010
0000
,
0100
0001
0000
0000
1000
0000
0000
0100
0000
0000
0010
0000
0000
0100
0000
0000
,
1000
0000
0000
0001
0000
0000
0100
0000
0000
0010
0000
0000
1001
0000
0000
0000
,
0001
0000
0001
0000
1000
0000
0010
0100
0010
0000
1000
0000
0001
0100
0001
0000
,
0010
0100
0010
0000
0001
0000
0100
0010
0100
0000
0001
0000
1000
0100
1000
0000
,
1001
0000
0000
0000
0010
0000
1000
0010
0000
0000
0100
0000
0001
0100
0000
0000
,
0001
0000
1000
0001
0000
0000
1000
0000
0100
1000
0000
0000
0010
0100
0010
0000
,
1000
0100
0000
0000
1000
0000
0001
0100
0000
0000
0001
0000
1000
0100
0000
0000
,
1000
0000
0001
0010
0000
0000
0001
0000
1000
0010
0000
0000
0100
0010
0100
0000
,
0002
0000
0000
0000
0103
0000
0010
1000
0000
0000
0100
0000
0010
0001
0000
0000
,
0100
0000
0001
0010
0000
0000
0100
0000
1000
0010
0000
0000
1000
0001
1000
0000
,
0001
0100
1000
0100
0001
0100
1000
0100
,
0001
0010
1000
0010
0001
0010
1000
0010
,
0001
0000
0000
0001
0100
0000
0010
0000
0010
0000
1000
0000
0100
0000
0010
0000
,
0000
0000
0100
0000
0100
0000
0000
0000
2000
3000
0002
0003
2000
3000
0002
0003
,
0200
0000
0310
1000
0100
0010
0001
0100
,
0000
0000
0101
0000
0000
0000
1000
0100
1000
0000
0001
0000
0010
0000
0100
0000
,
2000
0000
0000
0000
3010
0000
0100
0000
0001
0000
0010
0000
0100
0000
1000
0001
,
1000
0001
1000
0001
1000
0000
0010
0000
0100
0000
0001
0000
1000
0100
0010
0001
,
2000
0000
3001
0010
0100
1000
0010
0110
,
0000
0101
0000
1001
0000
1100
0001
0100
,
0010
0000
0000
0000
1000
0100
0000
0000
1000
0000
0010
0000
0100
0000
0010
0000
,
1000
0000
0100
0000
0001
0000
0100
0000
0010
0001
0010
0000
0001
1000
0001
0000
,
0010
0000
0100
0000
1000
0001
1000
0000
0100
0000
0010
0000
0001
0000
0210
0000
,
0000
0000
1300
0010
0100
0001
0010
0100
,
2000
0000
3001
0010
0001
0100
0010
1000
,
0001
0010
0100
1000
0010
0100
0010
1000
,
0100
0010
0100
0010
0001
1000
0010
0102
,
0000
0023
0230
2300
3001
0100
1000
0010
,
0002
0000
0000
0000
0000
0000
1003
0200
,
0000
0000
0000
0300
,
0000
0000
0020
0000
0032
0000
0013
0200
,
0000
0000
0000
1300
0000
1000
0010
0100
,
0001
0000
0011
0000
0100
0001
0000
0101
,
0000
1000
0100
0000
0010
0100
1000
0100
,
0000
0000
0110
0000
0001
0100
0010
1010
,
0000
0001
0000
0001
0000
0001
0010
0100
,
1000
0000
0000
1000
0100
0000
0010
0000
0100
0000
1000
0000
0001
0000
0100
0000
,
0010
0000
0000
0010
0100
0000
0010
0100
0001
0000
1000
0000
0100
0000
0010
0000
,
0001
0000
0000
0001
0010
0000
0100
0000
1000
0000
0010
0000
0100
0000
0001
0000
,
0010
0000
0000
0010
0100
0000
0010
0100
1000
0000
0010
0000
0100
0000
0001
0000
,
0010
0001
0010
0001
0100
1000
0100
1000
,
0001
0010
0001
0010
1000
0100
1000
0100
,
0010
0001
0010
0000
0001
0100
0001
0000
0100
0010
0100
0000
0010
1000
0010
0000
,
2002
3003
0000
0000
0000
0000
0000
0000
0100
0000
0000
0000
0001
0000
0000
0000
0100
0000
0000
0000
0001
0000
0000
0000
0100
0000
0000
0000
0000
0000
0100
0000
,
0010
1000
0100
0010
0100
0010
0100
1000
,
0001
0100
0010
1000
0010
1000
0010
0001
,
0010
0100
0001
0010
0001
0010
0100
1000
,
0010
0000
0100
0000
0001
0000
0000
0001
0010
0000
0100
0000
1000
0000
0010
0000
,
1000
0100
1000
0010
1000
0010
0100
0001
,
0010
0100
1000
0001
1000
0001
0010
0100
,
1000
0000
1100
0000
0000
0000
0001
0000
0100
0000
0010
0000
1000
0000
0000
1000
,
0100
0000
0010
0000
0002
0000
0000
0000
0103
0000
0010
0000
0100
0000
0000
0100
,
0001
1000
0001
0010
0001
0010
1000
0010
,
0001
0100
0010
0000
0110
0000
1000
0100
,
0010
0001
0100
0010
0100
0010
1000
0010
,
0001
0000
0010
0000
1000
0000
0000
1000
0100
0000
0010
0000
0001
0000
0100
0000
,
1000
0100
0001
0010
0001
0010
0100
1000
,
0010
0100
0001
0010
0001
0010
1000
0010
,
0001
0101
0000
1100
0000
1001
0000
0110
,
1000
0001
2002
0000
0000
0000
0000
0000
,
0000
0000
0000
0000
,
0000
3003
0000
0000
;

//---------------dance-single - ----------------
#NOTES:
     dance-single:
     :
     Medium:
     7:
     0.596,0.601,0.222,0.190,0.000:
0000
0000
0000
0000
,
0000
0000
0000
0000
,
0000
0000
0000
0000
,
0000
0000
0000
0000
,
1001
0000
0000
0000
0100
0010
0000
1001
,
0000
0000
0000
0100
0100
0001
0010
0100
,
0000
0000
1000
0100
0010
0001
0000
1000
,
0000
1001
0000
0110
0000
1000
0001
0000
,
0010
0000
0000
0000
0000
0000
0100
1000
,
0000
0000
0000
0000
0001
0100
0010
1000
,
0000
0000
0100
0000
0010
0100
1000
0001
,
0000
0000
0000
0100
0000
0010
0100
0010
,
1000
0000
0001
0000
0010
0100
1000
0001
,
0000
0000
0000
0100
0100
0010
0100
0001
,
0000
0000
1000
0100
0010
0001
0000
0011
,
0000
1100
0000
1001
0000
0100
0010
0000
,
1000
0000
1000
0000
1000
0100
0001
0000
,
0100
0000
0100
0000
0100
0001
0010
0000
,
0001
0000
0001
0000
0001
0010
1000
0000
,
0010
0000
0010
0000
0010
1000
0100
0000
,
1000
0100
0010
0000
0010
0100
1000
0000
,
0001
0100
0010
0000
0010
0100
0001
0000
,
0001
0100
1000
0000
0001
0010
1000
0000
,
0001
0010
0001
0010
0100
1000
0001
0000
,
1000
0000
1000
0100
1000
0100
1000
0010
,
1000
0010
1000
0100
0010
0001
1000
0100
,
0000
0000
0010
0001
0010
0001
0010
0100
,
0010
0100
1000
0001
1000
0001
1000
0100
,
0000
0000
1000
0010
1000
0010
0100
0001
,
0100
0001
1000
0100
1000
0100
0110
0000
,
0002
0000
0103
2000
0000
3100
0001
0010
,
0200
0000
0301
0200
0000
1300
0010
0100
,
0001
0000
1000
0100
1000
0100
1000
0001
,
1000
0001
1000
0010
1000
0010
0100
0001
,
0000
0000
0001
0010
0001
0010
0001
1000
,
0001
1000
0001
0100
0001
0100
0010
1000
,
0200
0000
1300
0100
0010
0100
1000
0100
,
0010
0001
0010
0100
0010
0001
1000
0001
,
1000
0100
0002
0003
0001
0100
2000
3000
,
1000
0010
0002
0003
0001
0010
2000
3000
,
0001
0000
1000
0001
0100
0000
0010
0100
,
0000
0100
0100
0000
0001
0010
0100
1000
,
0002
0000
0103
0010
1000
0010
0100
0001
,
0000
1000
0000
0001
0010
0100
0010
0001
,
0200
0000
0310
0000
1000
0001
1000
0001
,
0010
0010
0010
0000
0100
1000
0001
0001
,
0100
0000
0010
1000
0100
0010
0100
1000
,
0000
0001
0000
1001
0000
0110
0000
1000
,
0100
0000
0110
0000
0010
0001
1000
0001
,
0100
0100
1000
0100
0100
0001
0010
0100
,
1000
0010
0010
0100
0001
0001
1000
0200
,
0000
0300
0010
0100
1000
0100
0001
0100
,
1000
0000
1001
0000
0001
0100
0100
0000
,
0010
0000
1000
0000
0001
0010
0010
0000
,
0100
1000
0100
1000
0001
0100
0001
0200
,
0000
0310
1000
0001
0010
1000
0100
0001
,
0010
0000
0000
0100
0000
1000
0000
0000
,
0001
0000
0000
0000
0100
0000
0000
0010
,
0000
0000
0000
0000
1000
0000
0100
0010
,
0000
0000
0000
0001
1000
0001
0000
1000
,
0001
0000
0010
0000
,
0100
0000
0000
1000
0010
0100
0001
0100
,
0010
0000
0100
0000
,
2002
0000
0000
3003
,
1100
0000
1100
0000
1000
0100
0001
0000
,
0101
0000
0101
0000
0100
0001
0010
0000
,
0011
0000
0011
0000
0001
0010
1000
0000
,
1010
0000
1010
0000
0010
1000
0100
0000
,
1000
0001
0100
0000
0001
1000
0100
0000
,
1000
0010
0100
0000
0001
0010
0100
0000
,
1000
0010
0100
0001
0100
0010
1000
0001
,
0020
0030
0000
0000
0000
0000
0000
0000
0100
0000
0000
0000
1000
0000
0000
0000
0100
0000
0000
0000
1000
0000
0000
0000
0100
0000
0000
0000
0010
0000
0000
0000
,
0000
0100
0000
1000
0000
0010
0100
0001
,
0100
0001
0010
0100
0010
0100
0010
0001
,
0010
0100
0000
1000
0000
0001
0000
0100
,
0010
1000
0010
0100
0001
0010
0001
0010
,
0100
1000
0001
0010
0000
0100
0000
0010
,
0001
0100
0010
1000
0010
0100
0010
0100
,
0010
1000
0000
0100
0000
0010
0000
0100
,
0010
0001
1002
0000
0103
0000
0010
1000
,
0100
0000
2100
0000
3001
0000
0010
0100
,
1000
0100
0120
0000
0031
0000
0100
0010
,
1000
0000
0102
0000
1003
0000
0010
1000
,
0001
0010
0210
0000
1300
0000
0001
0100
,
1000
0000
0120
0000
1030
0000
0001
0100
,
1000
0100
0001
0000
1000
0100
0001
0100
,
1000
0010
0000
0010
0000
0100
0000
0010
,
1000
0001
2002
0000
0000
0000
0000
0000
,
0000
0000
0000
0000
,
0000
3003
0000
0000
;

//---------------dance-single - ----------------
#NOTES:
     dance-single:
     :
     Easy:
     5:
     0.363,0.389,0.000,0.063,0.000:
0000
0000
0000
0000
,
0000
0000
0000
0000
,
0000
0000
0000
0000
,
0000
0000
0000
0000
,
1000
0000
0000
0000
0001
0100
0000
0001
,
0000
0000
0000
0000
1000
0000
0100
1000
,
0000
0000
0001
0000
0100
0001
0000
1000
,
0000
1000
0000
0001
0000
0001
1000
0000
,
0001
0000
0000
0000
0000
0000
0100
0001
,
0000
0000
0000
0000
1000
0000
0100
1000
,
0000
0000
0001
0000
1000
0100
0000
1000
,
0000
0000
0000
1000
0000
0100
0000
1000
,
0001
0000
0000
0000
1000
0100
0000
1000
,
0000
0000
0000
0000
0001
0000
0100
0001
,
0000
0000
1000
0000
0100
1000
0000
0001
,
0000
0001
0000
1000
0000
1000
0001
0000
,
2000
0100
0100
3100
,
0002
0100
0100
0103
,
2000
0010
0010
3010
,
0002
0010
0010
0013
,
1000
1000
0100
0100
,
0001
0001
0010
0010
,
1000
0010
0001
0100
,
1000
0100
0010
0001
,
1000
0100
1000
0100
,
0010
0100
1000
1000
,
0001
0100
0001
0100
,
0010
0100
0001
0001
,
0010
0100
1000
0010
,
0100
0001
1000
0100
,
0100
0000
1000
0000
0010
0100
0010
0000
,
1000
0000
0100
0000
0010
0100
0010
0000
,
0100
0100
1000
0010
,
0010
0100
0001
0010
,
0010
0001
0100
0100
,
0010
1000
0100
0100
,
0020
0130
1000
0010
,
0100
0001
1000
1000
,
0001
0100
1000
0100
,
0001
0010
1000
0010
,
0001
0001
0001
0001
,
0010
0000
0100
0000
1000
0100
1000
0100
,
0000
1000
1000
1000
,
0010
0100
0010
0100
,
0001
0001
0001
0001
,
1000
0000
0100
0000
0010
0000
0001
1000
,
0001
0001
0001
0001
,
1000
0100
0010
0001
,
1000
0100
1000
0100
,
1000
0100
1000
0000
0100
1000
0100
0000
,
1000
0010
0100
0001
,
0010
0001
0100
0010
,
1000
1000
0100
0010
,
0001
0001
0100
0010
,
1000
0100
0001
1000
,
0010
0001
0100
0010
,
1000
0000
0000
0000
,
0000
0000
0000
0000
,
0000
0000
0000
0000
,
0000
0000
0000
0000
,
0001
0000
0000
0000
,
1000
0000
0000
0000
,
0100
0000
0010
0000
,
0001
1000
0010
0100
,
0001
0001
0001
0001
,
0100
0100
0100
0100
,
1000
1000
1000
1000
,
0010
0010
0010
0010
,
0001
0001
0100
0100
,
1000
1000
0010
0010
,
0001
0100
1000
0010
,
0001
1000
1000
0100
,
0100
0010
0100
1000
,
0100
0010
0010
0001
,
0001
0010
0100
0010
,
0001
0001
0100
0100
,
0010
0100
0001
0100
,
0010
0010
1000
1000
,
0001
0010
0100
1000
,
0001
2000
3100
0010
,
0001
0010
0100
1000
,
0001
0100
0010
1000
,
0010
0100
0001
1000
,
0100
0020
0130
1000
,
0010
0100
0001
0010
,
0100
1000
1000
0001
,
0001
0010
0000
0010
0000
0100
0000
0010
,
0000
0001
2000
0000
0000
0000
0000
0000
,
0000
0000
0000
0000
,
0000
3000
0000
0000
;

//---------------dance-single - ----------------
#NOTES:
     dance-single:
     :
     Beginner:
     1:
     0.114,0.173,0.008,0.032,0.000:
0000
0000
0000
0000
,
0000
0000
0000
0000
,
0000
0000
0000
0000
,
0000
0000
0000
0000
,
0000
0000
0000
0000
,
0000
0000
0000
0000
,
0000
0000
0000
0000
,
0000
0000
0000
0000
,
0100
0000
0000
0000
,
0100
0000
0000
0000
,
0100
0000
0000
0000
,
0100
0000
0000
0000
,
0100
0000
0000
0000
,
0100
0000
0000
0000
,
0100
0000
0000
0000
,
0001
0000
0001
0000
,
0000
0001
0000
0000
,
0000
1000
0000
0000
,
0000
0001
0000
0001
,
0000
0001
0000
0000
,
1000
0000
1000
0000
,
1000
0000
0000
0000
,
0001
0000
0001
0000
,
0001
0000
0000
0000
,
0000
0000
0100
0000
,
0100
0000
0000
0000
,
0001
0000
0000
0000
,
1000
0000
1000
0000
,
1000
0000
0000
0000
,
0100
0000
0100
0000
,
0000
0000
0000
0000
,
0010
0000
0010
0000
,
0010
0000
0000
0000
,
0001
0000
0001
0000
,
0001
0000
0000
0000
,
1000
0000
1000
0000
,
2000
0000
3000
0000
,
0010
0000
0010
0000
,
0020
0000
0030
0000
,
0020
0000
0030
0000
,
1000
0000
0000
0000
,
0001
0000
0001
0000
,
0001
0000
0000
0000
,
1000
0000
1000
0000
,
1000
0000
0000
0000
,
0010
0000
0010
0000
,
0010
0000
0000
0000
,
0100
0000
0000
0000
,
0001
0000
0001
0000
,
0001
0000
0000
0000
,
1000
0000
0000
0000
,
0001
0000
0001
0000
,
0001
0000
0000
0000
,
0010
0000
0010
0000
,
0010
0000
0000
0000
,
0100
0000
0000
0000
,
1001
0000
0000
0000
,
0000
0000
0000
0000
,
0000
0000
0000
0000
,
0000
0000
0000
0000
,
1000
0000
0000
0000
,
0001
0000
0000
0000
,
1000
0000
0000
0000
,
0001
0000
0000
0000
,
0100
0000
0000
0000
,
0100
0000
0000
0000
,
0100
0000
0000
0000
,
0100
0000
0000
0000
,
0100
0000
0100
0000
,
0100
0000
0000
0000
,
0100
0000
0100
0000
,
0100
0000
0000
1000
,
0000
0000
0000
0001
,
0000
0000
0000
1000
,
0000
1000
0000
0000
,
0000
0001
0000
0000
,
0000
0010
0000
0010
,
0000
0010
0000
0000
,
0000
0100
0000
0000
,
0000
2000
0000
3000
,
0000
0001
0000
0000
,
0000
0100
0000
0100
,
0000
0100
0000
0000
,
0000
0010
0000
0000
,
0000
1000
0000
0000
,
0000
0001
0000
0000
,
0000
0000
0000
0000
,
0000
0100
0000
0000
;

//---------------dance-double - ----------------
#NOTES:
     dance-double:
     :
     Hard:
     8:
     0.665,0.742,0.166,0.388,0.139: // measure 1
00000000
00000000
00000000
00000000
,  // measure 2
00000000
00000000
00000000
00000000
,  // measure 3
00000000
00000000
00000000
00000000
,  // measure 4
00000000
00000000
00000000
00000000
,  // measure 5
10010000
00000000
00000000
00000000
00010000
00001000
00000000
00001001
,  // measure 6
00000000
00000000
00000000
00000001
00000010
00000100
00010000
00001000
,  // measure 7
00000000
00000000
01000000
10000000
01000000
00010000
00000000
01010000
,  // measure 8
00000000
00011000
00000000
00001010
00000000
00000010
00000100
00000000
,  // measure 9
00001001
00000000
00001000
00000000
00010000
00000000
10000000
10010000
,  // measure 10
00000000
00000000
00010000
00000000
00100000
00010000
00001000
00000100
,  // measure 11
00000000
00000000
00000110
00000000
00000010
00000001
00000100
00001000
,  // measure 12
00000000
00000000
00000000
00011000
00000000
00010000
01000000
10000000
,  // measure 13
10010000
00000000
00010000
00000000
00001000
00000001
00000000
00001001
,  // measure 14
00000000
00000000
00001000
00000010
00000100
00001000
01000000
00100000
,  // measure 15
00000000
00000000
10000000
01000000
00010000
00001000
00000000
00101000
,  // measure 16
00000000
00110000
00000000
01010000
00000000
01000000
00001000
00000000
,  // measure 17
00010000
01000000
00001000
00000100
,  // measure 18
00010000
00100000
00001000
00000010
,  // measure 19
00010000
10000000
00010000
00001000
,  // measure 20
00000001
00001000
00010000
10000000
,  // measure 21
01000000
00010000
01000000
00000000
00010000
00100000
00010000
00000000
,  // measure 22
00100000
01000000
00100000
00000000
01000000
10000000
01000000
00000000
,  // measure 23
10000000
01000000
00010000
00001000
00000010
00001000
00010000
00001000
,  // measure 24
00000010
00000000
00000000
00000000
00000001
00000000
00000000
00000000
00000100
00000000
00000000
00000000
00001000
00000000
00000000
00000000
00010000
00000000
00000000
00000000
00100000
00000000
00000000
00000000
20000000
30000000
00000000
00000000
00000000
00000000
00000000
00000000
,  // measure 25
00010000
00000000
00000000
00000000
01000000
00000000
00000000
00010000
00000000
00000000
00100000
00000000
00000000
00001000
00000000
00000000
,  // measure 26
00010000
00000000
00000000
01000000
00000000
00000000
00001000
00000000
00000000
00000100
00000000
00000000
00000010
00000000
00000001
00000000
,  // measure 27
00000100
00000000
00000000
00000000
00000010
00000000
00000000
00001000
00000000
00000000
00000100
00000000
00000000
00010000
00000000
00000000
,  // measure 28
00001000
00000000
00000000
01000000
00000000
00000000
00100000
00000000
00000000
10000000
00000000
00000000
01000000
00000000
00100000
00000000
,  // measure 29
00010000
00000000
00000000
00000000
01000000
00000000
00000000
00001000
00000000
00000000
00010000
00000000
00000000
00001000
00000000
00000000
,  // measure 30
00000010
00000000
00000000
00000001
00000000
00000000
00000100
00000000
00000000
00000010
00000000
00000000
00001001
00000000
00000000
00000000
,  // measure 31
00000001
00000100
00001000
00010000
00100000
10000000
00010000
00010000
,  // measure 32
10000000
01000000
00010000
00001000
00000010
00000001
00001000
00001000
,  // measure 33
00001001
00000000
00000000
00000000
00000001
00000000
00000000
00000100
00000000
00000000
00000010
00000000
00000000
00010000
00000000
00000000
,  // measure 34
00001000
00000000
00000000
01000000
00000000
00000000
00100000
00000000
10000000
00000000
01000000
00000000
00100000
00000000
00010000
00000000
,  // measure 35
10000000
01000000
00000000
00000000
10000000
00000000
00000000
01000000
00000000
00000000
00100000
00000000
00000000
00001000
00000000
00000000
,  // measure 36
00010000
00000000
00000000
00000100
00000000
00000000
00000010
00000000
00000001
00000000
00000100
00000000
00000010
00000000
00001000
00000000
,  // measure 37
00000002
00000000
00000000
00000000
00000013
00000000
00000000
00000100
00000000
00000000
00010000
00000000
00000000
00001000
00000000
00000000
,  // measure 38
01000000
00000000
00000000
00100000
00000000
00000000
10000000
00000000
01000000
00000000
00100000
00000000
00001000
00000000
01000000
00000000
,  // measure 39
00001000
00010000
00100000
00010000
00001000
00000100
00000010
00000100
,  // measure 40
00001000
00010000
01000000
00010000
00001000
00000010
00000001
00000010
,  // measure 41
00001000
00000000
00000000
00100000
00010000
00000000
01000000
00000000
01000000
00000000
00100000
00000000
10000000
00000000
01000000
00000000
,  // measure 42
00000000
00000000
00100000
00000000
00100000
00000000
00000000
00000000
00002000
00003000
00020000
00030000
00002000
00003000
00020000
00030000
,  // measure 43
00000200
00000000
00000310
00000000
00000001
00000100
00001000
00000100
,  // measure 44
00000000
00000000
00000010
00000000
00000010
00000000
00010000
00001000
00010000
00000000
00001000
00000000
01000000
00000000
00100000
00000000
,  // measure 45
10000000
00000000
00000000
00000000
01000000
00000000
00100000
00000000
00001000
00000000
00010000
00000000
00000100
00000000
00001000
00000010
,  // measure 46
00001000
00001000
00001000
00000010
00000100
00001000
01000000
10000000
,  // measure 47
02000000
00000000
03010000
00100000
00010000
00001000
00000000
00000200
,  // measure 48
00000000
00000320
00000000
00000032
00000000
00000103
00000010
00001000
,  // measure 49
00000100
00000000
00000000
00000000
00010000
00000100
00000000
00000000
00010000
00000000
00001000
00000000
01000000
00000000
00010000
00000000
,  // measure 50
00100000
00001000
00000010
00000200
00020300
02030000
23000000
30020000
,  // measure 51
01030000
00000000
00100000
00000000
10000000
01000000
10000000
00000000
01000000
00000000
00010000
00000000
00001000
00000000
00000020
00000000
,  // measure 52
00000000
00000030
00000001
00000100
00000001
00001000
00000100
00010000
,  // measure 53
00012000
00000000
01003000
00000000
00010000
00100000
00001000
00010000
,  // measure 54
00000000
00000100
00000100
00000000
00000010
00000001
00000100
00001000
,  // measure 55
00010000
00100000
10000000
01000000
10000000
00100000
00010000
00002000
,  // measure 56
00000000
00003100
00000001
00001000
00000001
00000010
00001000
00010000
,  // measure 57
02000000
00000000
00000000
23000000
00000000
30200000
00000000
00300000
,  // measure 58
00020000
00000000
00000000
00000000
00032000
00003200
00002300
00003200
,  // measure 59
00000000
00000000
00000300
00000000
00000002
00000000
00000023
00000230
,  // measure 60
00000000
00000000
00020300
00032000
00023000
02030000
23000000
30020000
,  // measure 61
02030000
00000000
03000000
00000000
00200000
00000000
00000000
00300000
,  // measure 62
00000000
00020000
00000000
00000000
00000000
00032000
00003200
00000320
,  // measure 63
00002030
00003000
00000002
00000003
,  // measure 64
00001002
00001000
00001000
00001003
,  // measure 65
00000001
00000000
00000000
00000001
00000100
00000000
00000010
00000000
00001000
00000000
00000100
00000000
00010000
00000000
00001000
00000000
,  // measure 66
00100000
00000000
00000000
00100000
00010000
00000000
01000000
00010000
01000000
00000000
00100000
00000000
10000000
00000000
01000000
00000000
,  // measure 67
00010000
00000000
00000000
00010000
00001000
00000000
00000010
00000000
00000100
00000000
00001000
00000000
00000001
00000000
00000100
00000000
,  // measure 68
00000010
00000000
00000000
00000010
00001000
00000000
00000100
00001000
00000100
00000000
00010000
00000000
00001000
00000000
01000000
00000000
,  // measure 69
00010000
00100000
00010000
00100000
00001000
00010000
00001000
00010000
,  // measure 70
00000100
00001000
00000100
00001000
00000010
00000100
00000010
00000100
,  // measure 71
00000001
00000010
00001000
00010000
01000000
10000000
00100000
00010000
,  // measure 72
00022000
00033000
00000000
00000000
00000000
00000000
00000000
00000000
00010000
00000000
00000000
00000000
00001000
00000000
00000000
00000000
00010000
00000000
00000000
00000000
00001000
00000000
00000000
00000000
00010000
00000000
00000000
00000000
00000100
00000000
00000000
00000000
,  // measure 73
00010000
00001000
00010000
00000100
00010000
00000100
00001000
00000010
,  // measure 74
00000100
00000001
00000010
00000100
00000010
00000100
00000010
00000001
,  // measure 75
00000010
00000100
00000010
00000100
00000010
00000100
00000010
00000100
,  // measure 76
00001000
00010000
00100000
00001000
00100000
00001000
00100000
00010000
,  // measure 77
00100000
00001000
00100000
00010000
00100000
00010000
00100000
01000000
,  // measure 78
10000000
01000000
00010000
00001000
00000100
00000010
00001000
00000100
,  // measure 79
00010000
00001000
00010000
00001000
00010000
00001000
00010000
00000100
,  // measure 80
00001000
00000000
00000001
00000000
00001000
00000000
00000000
00000000
00001001
00000000
00000000
00000000
00000001
00000000
00000000
00000100
,  // measure 81
00001000
00010000
00000000
00100000
00100000
00000000
10000000
01000000
,  // measure 82
00010000
00001000
00000010
00000000
00000001
00000000
00001000
00000100
,  // measure 83
00010000
00001000
00000000
01000000
01000000
00010000
00100000
01000000
,  // measure 84
10000000
00000000
01000000
00000000
00010000
00000000
00000000
00010000
00001000
00000000
00000000
00000000
00001000
00000000
00000010
00000000
,  // measure 85
00000001
00000010
00000100
00001000
00001000
00000000
00000001
00000100
,  // measure 86
00001000
00010000
00001000
00000010
00000001
00000010
00001000
00010000
,  // measure 87
01000000
10000000
00000000
00010000
00000000
00001000
00000000
00000001
,  // measure 88
00000100
00000010
00000220
00000000
00000000
00000000
00000000
00000000
,  // measure 89
00000000
00000000
00000000
00000000
,  // measure 90
00000000
00000330
00000000
00000000
;

//---------------dance-double - ----------------
#NOTES:
     dance-double:
     :
     Medium:
     8:
     0.518,0.566,0.079,0.095,0.004: // measure 1
00000000
00000000
00000000
00000000
,  // measure 2
00000000
00000000
00000000
00000000
,  // measure 3
00000000
00000000
00000000
00000000
,  // measure 4
00000000
00000000
00000000
00000000
,  // measure 5
00011000
00000000
00000000
00000000
00001000
01000000
00000000
00010000
,  // measure 6
00000000
00000000
00000000
00100000
01000000
10000000
01000000
00100000
,  // measure 7
00000000
00000000
00001000
00010000
00001000
00000100
00000000
00000010
,  // measure 8
00000000
00000010
00000000
00001000
00000000
00000001
00000010
00000000
,  // measure 9
00000110
00000000
00000000
00000000
00000000
00000000
00000100
00010000
,  // measure 10
00000000
00000000
00000000
00000000
00001000
01000000
00001000
00100000
,  // measure 11
00000000
00000000
00010000
00000000
00100000
01000000
10000000
01000000
,  // measure 12
00000000
00000000
00000000
00100000
00000000
00001000
00010000
00000100
,  // measure 13
00001000
00000000
00000000
00000000
00000010
00000100
00000000
00000001
,  // measure 14
00000000
00000000
00000000
00000010
00000100
00010000
00000100
00001000
,  // measure 15
00000000
00000000
00000100
00010000
00001000
01000000
00000000
00100000
,  // measure 16
00000000
10000000
00000000
00010000
00000000
01000000
00100000
00000000
,  // measure 17
10000000
10000000
01000000
01000000
,  // measure 18
00010000
00010000
00001000
00001000
,  // measure 19
00000010
00000010
00000001
00000001
,  // measure 20
00000100
00000100
00001000
00001000
,  // measure 21
00010000
00100000
10000000
01000000
,  // measure 22
00010000
00001000
00000010
00000001
,  // measure 23
00000100
00001000
00010000
00100000
,  // measure 24
00010000
00001000
00010000
00001000
00010000
00001000
01000000
00000000
,  // measure 25
00010000
00000000
10000000
01000000
10000000
01000000
00000000
01000000
,  // measure 26
00100000
01000000
00000000
01000000
00100000
00000000
00001000
00000000
,  // measure 27
00010000
00000000
00000100
00001000
00000100
00001000
00000000
00001000
,  // measure 28
00000010
00001000
00000000
00001000
00000001
00000000
00000100
00000000
,  // measure 29
00000010
00000000
00001000
00000100
00001000
00000100
00000000
00000100
,  // measure 30
00010000
00000100
00000000
00000100
00010000
00000000
00011000
00000000
,  // measure 31
00001000
00000000
01000000
00000000
00100000
01000000
10000000
01000000
,  // measure 32
00010000
00000000
00001000
00000010
00000001
00000010
00001000
00000001
,  // measure 33
00000100
00000000
00000010
00010000
00000010
00010000
00000000
00010000
,  // measure 34
00001000
00010000
00000000
00001000
01000000
00000000
00100000
00000000
,  // measure 35
10000000
00000000
01000000
00100000
01000000
00100000
00000000
00100000
,  // measure 36
01000000
00100000
00000000
00001000
00010000
00000000
00000100
00000000
,  // measure 37
00000020
00000000
00000031
00000100
00000001
00000100
00000000
00000100
,  // measure 38
00000010
00000100
00000000
00001000
00010000
00000000
00001000
00000000
,  // measure 39
00010000
01000000
10000000
00000000
10000000
00100000
00010000
00000000
,  // measure 40
00001000
00000100
00000001
00000000
00000001
00000010
00001000
00000000
,  // measure 41
00010000
00000000
00001000
01000000
01000000
00000000
01000000
00100000
,  // measure 42
00000000
00100000
10000000
00000000
10000000
01000000
00010000
00001000
,  // measure 43
00020000
00001000
00031000
00000000
00010000
00000000
00010000
00000100
,  // measure 44
00000000
00000100
00000010
00000001
00000100
00000001
00001000
00000000
,  // measure 45
00010000
00000000
10000000
00010000
10000000
01000000
00000000
00100000
,  // measure 46
00001000
00001000
00001000
00000000
00010000
00000000
00000100
00000000
,  // measure 47
00000010
00000001
00000100
00000000
00000010
00000000
00001000
00000001
,  // measure 48
00000000
00001000
00000000
00010000
00000000
10000000
00010000
01000000
,  // measure 49
00100000
00000000
00000000
00000000
10000000
00100000
00000000
00000000
10000000
00000000
00000000
00000000
01000000
00000000
00100000
00000000
,  // measure 50
00001000
00010000
00000100
00000010
00000100
00010000
00001000
00000100
,  // measure 51
00000001
00001000
00001000
00000000
00000100
00010000
00001000
02000000
,  // measure 52
00000000
00000000
03100000
10000000
00100000
01000000
00001000
00000000
,  // measure 53
00020000
00000000
00030100
00000000
00000010
00000001
00000100
00000000
,  // measure 54
00000001
00000100
00001000
00000000
00010000
00100000
00010000
00000000
,  // measure 55
00001000
00000000
01000000
00010000
00100000
01000000
00000000
10000000
,  // measure 56
00000000
01000000
00010000
00001000
00000010
00000001
00000100
00001000
,  // measure 57
00000020
00000000
00000000
00000000
,  // measure 58
00000032
00000000
00000000
00000000
,  // measure 59
00000203
00000000
00000000
00000000
,  // measure 60
00002300
00000000
00000000
00000000
,  // measure 61
00013000
00000000
01000000
00000000
10000000
00010000
00000000
10010000
,  // measure 62
00000000
00000000
10000000
00000000
00010000
00001000
00000000
00000001
,  // measure 63
00000000
00000000
00000100
00000000
00000010
00010000
00000000
00011000
,  // measure 64
00000000
00000100
00000000
00000100
00000000
00000100
00000010
00000100
,  // measure 65
00000010
00000000
00000011
00000000
00000001
00000100
00000001
00000100
,  // measure 66
00001000
00000000
00001100
00000000
00001000
00010000
00001000
00010000
,  // measure 67
01000000
00000000
01010000
00000000
01000000
10000000
01000000
10000000
,  // measure 68
00100000
00000000
10100000
00000000
00100000
00010000
00100000
00010000
,  // measure 69
00001000
00000000
00010000
00000000
00000100
00001000
00000010
00000000
,  // measure 70
00000100
00000000
00000001
00000010
00000100
00010000
00001000
00000000
,  // measure 71
01000000
00001000
01000000
00001000
00010000
00000100
00010000
00000100
,  // measure 72
00000020
00000030
00000000
00000000
00000000
00000000
00000000
00000000
00000001
00000000
00000000
00000000
00000100
00000000
00000000
00000000
00000001
00000000
00000000
00000000
00000100
00000000
00000000
00000000
00000000
00000000
00000000
00000000
00000010
00000000
00000000
00000000
,  // measure 73
00001000
00000100
00000000
00010000
00001000
01000000
00010000
00100000
,  // measure 74
01000000
10000000
00000000
10000000
01000000
10000000
00000000
10000000
,  // measure 75
01000000
00010000
00000000
01000000
00000000
00001000
00000100
00000010
,  // measure 76
00000100
00001000
00000001
00000000
00000100
00000010
00000000
00000010
,  // measure 77
00001000
00000100
00000000
00000100
00010000
00001000
01000000
00001000
,  // measure 78
00100000
00010000
00000000
01000000
00000000
00100000
00000000
10000000
,  // measure 79
01000000
00010000
00000000
00001000
00000000
00010000
00000100
00000000
,  // measure 80
00001000
00000010
00000200
00000000
00000301
00000000
00001000
00000100
,  // measure 81
00010000
00000000
00001000
00000000
01000000
00001000
00010000
00001000
,  // measure 82
01000000
00100000
10000000
00000000
01000000
00000000
00100000
00001000
,  // measure 83
00010000
00000100
00000000
00001000
00000010
00000100
00000000
00000001
,  // measure 84
00000100
00001000
00000100
00000000
00010000
00000000
10000000
01000000
,  // measure 85
00000000
00100000
00000000
00010000
00100000
00000000
00001000
00010000
,  // measure 86
00000100
00001000
00000000
00000010
00001000
00000010
00000100
00000001
,  // measure 87
00000000
00001000
00000000
00010000
00000000
10000000
00000000
00100000
,  // measure 88
00010000
00001000
00022000
00000000
00000000
00000000
00000000
00000000
,  // measure 89
00000000
00000000
00000000
00000000
,  // measure 90
00000000
00033000
00000000
00000000
;

//---------------dance-double - ----------------
#NOTES:
     dance-double:
     :
     Easy:
     5:
     0.404,0.495,0.024,0.071,0.000: // measure 1
00000000
00000000
00000000
00000000
,  // measure 2
00000000
00000000
00000000
00000000
,  // measure 3
00000000
00000000
00000000
00000000
,  // measure 4
00000000
00000000
00000000
00000000
,  // measure 5
10000000
00000000
00000000
00000000
00010000
00000000
00000000
01000000
,  // measure 6
00000000
00000000
00001000
00000000
,  // measure 7
00000000
00000000
00010000
00000000
00000000
00000000
00000000
00000100
,  // measure 8
00000000
00001000
00000000
00000001
00000000
00000100
00000100
00000000
,  // measure 9
00000010
00000000
00000000
00000000
00000000
00000000
00001000
00001000
,  // measure 10
00000000
00000000
00000100
00010000
,  // measure 11
00000000
00000000
00001000
00000000
01000000
00000000
00010000
00010000
,  // measure 12
00000000
00000000
00000000
10000000
00000000
00010000
00000000
10000000
,  // measure 13
10000000
00000000
00000000
00000000
00010000
00010000
00000000
01000000
,  // measure 14
00000000
00000000
00000000
00000000
00001000
00000000
00010000
00010000
,  // measure 15
00000000
00000000
00000100
00000000
00000000
00000000
00000000
00000010
,  // measure 16
00000000
00000001
00000000
00001000
00000000
00000010
00000010
00000000
,  // measure 17
00000100
00000001
00000100
00000001
,  // measure 18
00001000
00000100
00001000
00000100
,  // measure 19
00010000
00001000
00010000
00001000
,  // measure 20
00100000
00010000
00100000
00010000
,  // measure 21
01000000
01000000
00010000
00010000
,  // measure 22
10000000
10000000
01000000
00010000
,  // measure 23
00001000
00001000
00000100
00000100
,  // measure 24
00000001
00000001
00001000
00000100
,  // measure 25
00000100
00010000
00000100
00010000
,  // measure 26
00001000
00010000
00001000
00010000
00001000
00000000
01000000
00000000
,  // measure 27
00010000
00100000
01000000
10000000
,  // measure 28
00010000
10000000
00010000
10000000
00010000
00000000
10000000
00000000
,  // measure 29
01000000
00010000
00001000
00000100
,  // measure 30
00000010
00001000
00000010
00001000
00000010
00000000
00000100
00000000
,  // measure 31
00000001
00000000
00001000
00000000
,  // measure 32
00010000
00000000
10000000
00000000
,  // measure 33
00010000
10000000
01000000
00100000
,  // measure 34
00010000
01000000
00010000
01000000
00010000
00000000
01000000
00000000
,  // measure 35
00001000
00010000
00000100
00001000
,  // measure 36
00000010
00000100
00000010
00000100
00000010
00000000
00000100
00000000
,  // measure 37
00000002
00001003
00000100
00010000
,  // measure 38
00001000
01000000
00001000
01000000
00001000
00000000
01000000
00000000
,  // measure 39
00010000
00100000
01000000
10000000
,  // measure 40
01000000
00100000
00001000
00010000
,  // measure 41
00000100
00000000
00001000
00000100
00000100
00000000
00000010
00000000
,  // measure 42
00000001
00000100
00000010
00001000
,  // measure 43
00000200
00000000
00010300
00000000
00001000
00000000
01000000
00010000
,  // measure 44
00000000
00010000
00000000
00010000
01000000
00000000
00100000
00000000
,  // measure 45
10000000
00000000
10000000
00000000
01000000
00100000
00000000
00100000
,  // measure 46
01000000
00000000
10000000
00000000
00100000
01000000
00100000
00000000
,  // measure 47
01000000
00000000
00010000
00000000
00100000
00000000
00001000
00010000
,  // measure 48
00000000
00000100
00000000
00001000
00000000
00000100
00000000
00000010
,  // measure 49
00000001
00000100
00000010
00001000
,  // measure 50
00000100
00010000
00000100
00000000
00010000
00001000
00010000
00001000
,  // measure 51
00010000
00000000
00001000
00000000
01000000
00000000
00010000
00200000
,  // measure 52
00000000
00300000
01000000
00100000
00010000
00000000
00100000
00000000
,  // measure 53
02000000
13000000
01000000
00010000
,  // measure 54
00001000
00000010
00000001
00000100
,  // measure 55
00000010
00001000
00000010
00000000
00001000
00000000
00000100
00010000
,  // measure 56
00000000
00001000
00000000
01000000
00010000
00000000
00100000
00000000
,  // measure 57
01000000
00000000
00000000
00000000
,  // measure 58
00000000
00000000
00000000
00000000
,  // measure 59
00000000
00000000
00000000
00000000
,  // measure 60
00000000
00000000
00000000
00000000
,  // measure 61
00000001
00000000
00000100
00000000
,  // measure 62
00000010
00000000
00010000
00000000
,  // measure 63
00001000
00000000
00000000
00000000
01000000
00000000
00000000
00100000
,  // measure 64
00000000
10000000
00000000
10000000
00000000
10000000
00000000
10000000
,  // measure 65
01000000
00000000
00100000
00000000
00010000
00000000
01000000
00010000
,  // measure 66
01000000
00010000
00100000
00001000
,  // measure 67
00010000
00000000
00000100
00000000
00001000
00000000
00000010
00000100
,  // measure 68
00000010
00000100
00000001
00001000
,  // measure 69
00000100
00000000
00010000
00000000
00001000
00000000
01000000
00100000
,  // measure 70
01000000
00010000
10000000
01000000
,  // measure 71
00010000
00000000
00001000
00000000
00010000
00000000
00000100
00001000
,  // measure 72
00000200
00000300
00000000
00000000
00000000
00000000
00000000
00000000
00000010
00000000
00000000
00000000
00000000
00000000
00000000
00000000
00000010
00000000
00000000
00000000
00000000
00000000
00000000
00000000
00000010
00000000
00000000
00000000
00000001
00000000
00000000
00000000
,  // measure 73
00000010
00000001
00000100
00000000
00000100
00000000
00000100
00000010
,  // measure 74
00001000
00000000
00000100
00000000
00000100
00000000
00000100
00010000
,  // measure 75
00000100
00010000
00001000
00000000
00001000
00000000
00001000
01000000
,  // measure 76
00010000
00000000
00100000
00000000
00100000
00000000
00100000
01000000
,  // measure 77
00100000
01000000
10000000
00000000
10000000
00000000
10000000
00010000
,  // measure 78
01000000
00000000
00010000
00000000
00010000
00000000
00010000
00100000
,  // measure 79
00010000
00100000
00001000
00000000
00010000
00000000
00011000
00000000
,  // measure 80
00011000
00000000
00000200
00000000
00001300
00000000
00000010
00000100
,  // measure 81
00000010
00000000
00001000
00000000
00000001
00000000
00000100
00000010
,  // measure 82
00000100
00000010
00010000
00000000
00001000
00000000
01000000
00001000
,  // measure 83
01000000
00000000
00001000
00000000
00100000
00000000
00010000
01000000
,  // measure 84
00010000
01000000
00200000
00000000
10300000
00000000
01000000
00100000
,  // measure 85
01000000
00000000
00100000
00000000
01000000
00000000
10000000
00010000
,  // measure 86
10000000
00010000
01000000
00000000
00001000
00000000
00010000
00000000
,  // measure 87
00000100
00000010
00000000
00000001
00000000
00000100
00000000
00001000
,  // measure 88
00010000
00022000
00000000
00000000
,  // measure 89
00000000
00000000
00000000
00000000
,  // measure 90
00000000
00033000
00000000
00000000
;
