#TITLE:Mermaid girl;
#SUBTITLE:Ryu☆Remix;
#ARTIST:Cream puff;
#TITLETRANSLIT:;
#SUBTITLETRANSLIT:;
#ARTISTTRANSLIT:;
#CREDIT:Lisek;
#BANNER:[Round 3] - Mermaid girl.png;
#BACKGROUND:[Round 3] - Mermaid girl-bg.png;
#LYRICSPATH:;
#CDTITLE:cdtitle.png;
#MUSIC:[Round 3] - Mermaid girl.ogg;
#OFFSET:-2.676;
#SAMPLESTART:14.650;
#SAMPLELENGTH:10.700;
#SELECTABLE:YES;
#BPMS:0.000=180.000;
#STOPS:;
#BGCHANGES:;

//---------------dance-single - ----------------
#NOTES:
     dance-single:
     Lisek:
     Hard:
     9:
     0.632,0.613,0.125,0.058,0.192: // measure 1
0000
0000
0000
0000
,  // measure 2
0000
0000
0000
0000
,  // measure 3
0000
0000
0000
0000
,  // measure 4
0000
0000
0000
0000
,  // measure 5
0001
0000
0100
0010
0000
0000
0100
0000
0001
0000
0010
0000
0100
0000
0000
0000
,  // measure 6
1000
0010
0100
0010
1000
0010
0100
0000
,  // measure 7
0001
0000
0100
0001
0000
0010
0001
0000
0100
0000
0001
0000
0010
0000
0000
0000
,  // measure 8
0100
0000
1000
0100
0000
1000
0010
0000
0100
0000
0010
0000
1000
0000
0000
0000
,  // measure 9
0001
0001
1000
1000
,  // measure 10
0001
0000
0010
0100
0000
0000
0010
0000
0001
0000
1000
0000
0010
0000
0000
0000
,  // measure 11
1000
0100
0001
0100
1000
0010
0100
0000
,  // measure 12
0001
0000
0100
0001
0000
0100
0010
0000
0100
0000
0010
0000
1000
0000
0000
0000
,  // measure 13
0001
0010
0100
1000
0001
0000
1000
0001
,  // measure 14
1000
0010
0100
0010
1000
0010
0001
0000
,  // measure 15
0010
1000
0100
0001
0100
1000
0001
0000
,  // measure 16
0100
0000
0001
0100
0000
0010
1000
0000
0100
0000
0010
0000
0001
0000
0000
0000
,  // measure 17
0010
0000
0100
1000
0000
0001
0010
0000
0100
0000
1000
0000
0001
0000
0000
0000
,  // measure 18
0100
0100
0000
0000
,  // measure 19
0001
0100
0010
0100
,  // measure 20
0001
0010
0100
1000
0010
0000
1000
0100
,  // measure 21
0010
0001
0100
0010
,  // measure 22
1000
0001
0100
0010
0100
0000
0001
0010
,  // measure 23
0100
0010
0001
0100
,  // measure 24
0101
0000
0110
0000
1010
0000
1000
0100
,  // measure 25
0010
0001
1000
0001
,  // measure 26
0010
0000
0100
0000
1000
0000
0001
0000
0100
0000
0010
0000
0000
1000
0000
0000
,  // measure 27
0001
0010
0001
0100
0010
0100
0001
0000
,  // measure 28
1000
0010
0100
0010
1000
0000
0001
0000
,  // measure 29
2000
3020
0032
0203
,  // measure 30
2300
0001
0010
3001
,  // measure 31
1000
0100
0010
0100
1000
0001
0100
0000
,  // measure 32
1010
0110
1001
0000
,  // measure 33
0001
0010
0100
1000
,  // measure 34
0011
1100
0101
1010
,  // measure 35
1000
0000
0010
0100
0000
0000
0010
0000
1000
0000
0100
0000
0010
0000
0000
0000
,  // measure 36
0100
1000
0001
0100
0010
0100
0001
0000
,  // measure 37
0100
0000
0010
1000
0000
0010
0100
0000
0001
0000
0010
0000
0100
0000
0000
0000
,  // measure 38
1000
0010
0100
0010
1000
0000
0001
0010
,  // measure 39
0001
0000
0100
0010
0000
0000
0100
0000
0001
0000
0010
0000
0001
0000
0000
0000
,  // measure 40
1000
0100
0010
1000
0001
0100
0010
0000
,  // measure 41
0001
0000
0100
0010
0000
0100
0001
0000
0100
0000
0010
0000
0100
0000
0000
0000
,  // measure 42
0010
0000
1000
0100
0000
1000
0010
0000
0100
0000
0010
0000
1000
0000
0000
0000
,  // measure 43
0001
0000
0010
0000
0001
0000
0100
0010
,  // measure 44
0000
1000
0100
0010
0001
1000
0001
0000
,  // measure 45
1000
0000
0100
0000
1000
0000
0010
0100
,  // measure 46
0000
0001
0010
0001
0100
0001
1000
0000
,  // measure 47
0001
0000
0010
0000
0100
0000
0010
0001
,  // measure 48
0000
1000
0100
0010
0100
0000
0100
0000
,  // measure 49
1000
0000
0001
0100
0000
0100
0000
0010
,  // measure 50
1000
0100
0010
0001
2000
0000
0000
0000
,  // measure 51
3001
0000
0000
0000
0100
0000
0000
0000
0001
0000
0000
0000
1000
0000
0000
1000
,  // measure 52
0010
0000
0000
0000
0100
0000
0000
0000
0010
0000
0000
0000
1000
0000
0000
1000
,  // measure 53
0001
0000
0000
0000
0100
0000
0000
0000
0001
0000
0000
0000
1000
0000
0000
1000
,  // measure 54
0010
0000
0000
0000
0100
0000
0000
0000
0010
0000
0000
0000
1000
0000
0000
1000
,  // measure 55
0001
0010
0100
1000
0000
0010
0100
0001
,  // measure 56
0000
0010
0100
1000
0000
0001
0100
0010
,  // measure 57
0000
1000
0100
0010
0000
0001
0100
0000
,  // measure 58
0011
1100
1000
0001
,  // measure 59
0000
0000
0000
0000
0000
0000
1000
0001
,  // measure 60
0100
0000
0010
0100
0000
0000
0010
0000
0100
0000
0001
0000
1000
0000
0000
0000
,  // measure 61
0100
0100
0100
0100
0100
0100
0100
0000
,  // measure 62
1000
0000
0001
0100
0000
0010
0100
0000
0010
0000
1000
0000
0100
0000
0000
0000
,  // measure 63
1000
0100
0010
0001
0100
0000
0001
0100
,  // measure 64
0010
0000
0100
0001
0000
0010
0001
0000
0100
0000
0001
0000
0010
0000
0000
0000
,  // measure 65
0001
1000
0100
1000
0001
0100
0001
0000
,  // measure 66
1000
0000
0100
0010
0000
0100
1000
0000
0001
0000
0100
0000
0010
0000
0000
0000
,  // measure 67
0001
0000
0010
0100
0000
0010
0001
0000
0100
0000
0010
0000
1000
0000
0000
0000
,  // measure 68
0001
0100
1000
0100
0010
1000
0100
0000
,  // measure 69
0010
0001
0010
0100
0010
0001
1000
0000
,  // measure 70
0001
0000
0100
1000
0000
0100
0001
0000
0100
0000
0010
0000
1000
0000
0000
0000
,  // measure 71
0100
0001
0100
1000
0010
0000
1000
0001
,  // measure 72
1000
0010
0100
0001
0010
0001
0100
0000
,  // measure 73
0001
0100
1000
0100
0010
0100
0001
0000
,  // measure 74
1000
0000
0010
0100
0000
0010
1000
0000
0001
0000
0010
0000
0100
0000
0000
0000
,  // measure 75
0010
0000
0001
0100
0000
0001
0010
0000
0100
0000
1000
0000
0001
0000
0000
0000
,  // measure 76
1001
0000
0000
0000
;

//---------------dance-single - ----------------
#NOTES:
     dance-single:
     Lisek:
     Medium:
     7:
     0.495,0.469,0.077,0.077,0.000: // measure 1
0000
0000
0000
0000
,  // measure 2
0000
0000
0000
0000
,  // measure 3
0000
0000
0000
0000
,  // measure 4
0000
0000
0000
0000
,  // measure 5
0001
0000
0100
0000
0010
0100
0001
0000
,  // measure 6
1000
0000
0010
0000
0100
0010
1000
0000
,  // measure 7
0001
0000
0010
0000
0100
1000
0100
0000
,  // measure 8
1000
0000
0100
0000
0010
0001
0010
0000
,  // measure 9
0001
0100
0010
1000
,  // measure 10
0001
0000
0100
0000
0010
0100
0001
0000
,  // measure 11
1000
0100
0010
0100
1000
0001
1000
0000
,  // measure 12
0001
0000
0100
0000
0010
0100
0001
0000
,  // measure 13
1000
0100
0010
0001
1000
0000
0001
0000
,  // measure 14
1000
0000
0100
0000
1000
0010
0100
0000
,  // measure 15
0001
0010
0100
0010
0001
1000
0001
0000
,  // measure 16
1000
0000
0010
0000
0100
0010
1000
0000
,  // measure 17
0001
0000
0100
0000
0010
0100
0001
0000
,  // measure 18
1000
0001
0000
0000
,  // measure 19
1000
0010
0100
0010
,  // measure 20
1000
0100
1000
0010
0000
0000
1000
0000
,  // measure 21
0001
0100
0010
0100
,  // measure 22
0001
0010
0100
0010
0000
0000
0001
0000
,  // measure 23
1000
0010
0100
0010
,  // measure 24
1010
1001
0101
0001
,  // measure 25
1000
0010
0100
0010
,  // measure 26
1000
0100
0010
0200
0000
0000
0000
0000
,  // measure 27
1300
0000
0010
0000
0100
0010
1000
0000
,  // measure 28
0100
0010
0001
1000
,  // measure 29
0002
0023
0230
2300
,  // measure 30
3002
0000
0000
0003
,  // measure 31
1000
0010
0100
0001
,  // measure 32
0101
0110
1010
0000
,  // measure 33
1000
0001
0100
0010
,  // measure 34
2010
0001
0010
3001
,  // measure 35
1000
0000
0001
0000
0100
0010
1000
0000
,  // measure 36
0001
0010
0100
1000
0010
1000
0001
0000
,  // measure 37
1000
0000
0010
0000
0100
0010
1000
0000
,  // measure 38
0001
0010
0100
0010
0001
0000
1000
0000
,  // measure 39
0001
0000
0100
0000
0010
1000
0100
0000
,  // measure 40
1000
0100
0010
0100
1000
0001
0100
0000
,  // measure 41
0010
0000
0100
0000
0001
0010
0100
0000
,  // measure 42
1000
0000
0010
0000
1000
0100
0010
0000
,  // measure 43
0100
0000
1000
0000
0010
0000
0100
0001
,  // measure 44
0000
1000
0100
1000
,  // measure 45
0001
0000
1000
0000
0100
0000
0010
0001
,  // measure 46
0000
0010
0001
0100
0010
1000
0001
0000
,  // measure 47
1000
0000
0100
0000
1000
0000
0010
1000
,  // measure 48
0000
0010
0100
0000
0001
0000
0100
0000
,  // measure 49
0010
0000
1000
0001
0000
0100
0000
0001
,  // measure 50
0100
0010
1000
0001
2000
0000
0000
0000
,  // measure 51
3001
0100
0010
1000
,  // measure 52
0100
0010
0001
0010
,  // measure 53
0100
1000
0001
0100
,  // measure 54
0010
0100
0001
1000
,  // measure 55
0001
0010
0100
0010
,  // measure 56
0001
0100
0010
1000
,  // measure 57
0001
1000
0010
0100
,  // measure 58
0001
0001
1000
1000
,  // measure 59
0010
0100
0001
1000
,  // measure 60
0001
0000
0010
0000
0001
0100
0001
0000
,  // measure 61
0100
0010
0100
0010
0100
0010
0100
0000
,  // measure 62
0001
0000
0010
0000
0001
0100
0010
0000
,  // measure 63
1000
0010
0100
0010
1000
0000
0001
0000
,  // measure 64
1000
0000
0010
0000
0100
0010
1000
0000
,  // measure 65
0001
0010
0001
0100
0010
0100
0001
0000
,  // measure 66
1000
0000
0010
0000
0100
0010
1000
0000
,  // measure 67
0001
0000
0100
0000
0010
0100
0001
0000
,  // measure 68
1000
0000
0100
0000
1000
0010
0100
0000
,  // measure 69
0010
1000
0100
0010
0001
0010
0100
0000
,  // measure 70
1000
0000
0001
0000
0100
0010
1000
0000
,  // measure 71
0001
0010
0100
0010
0001
0000
1000
0000
,  // measure 72
0001
0000
0100
0000
0010
0100
0001
0000
,  // measure 73
1000
0100
0010
0001
0100
0010
1000
0000
,  // measure 74
0001
0000
0010
0000
0001
0100
0010
0000
,  // measure 75
1000
0000
0100
0000
1000
0010
0100
0000
,  // measure 76
1001
0000
0000
0000
;

//---------------dance-single - ----------------
#NOTES:
     dance-single:
     Lisek:
     Beginner:
     1:
     0.080,0.107,0.000,0.000,0.000: // measure 1
0000
0000
0000
0000
,  // measure 2
0000
0000
0000
0000
,  // measure 3
0000
0000
0000
0000
,  // measure 4
0000
0000
0000
0000
,  // measure 5
0000
0000
0000
0000
,  // measure 6
0000
0000
0000
0000
,  // measure 7
0000
0000
0000
0000
,  // measure 8
0000
0000
0000
0000
,  // measure 9
0000
0000
0000
0000
,  // measure 10
0001
0000
0000
0000
,  // measure 11
1000
0000
0000
0000
,  // measure 12
0010
0000
0000
0000
,  // measure 13
1000
0000
0000
0000
,  // measure 14
0001
0000
0000
0000
,  // measure 15
0100
0000
0000
0000
,  // measure 16
0001
0000
0000
0000
,  // measure 17
1000
0000
0000
0000
,  // measure 18
0000
0000
0000
0000
,  // measure 19
0001
0000
0000
0000
,  // measure 20
0010
0000
0000
0000
,  // measure 21
0100
0000
0000
0000
,  // measure 22
1000
0000
0000
0000
,  // measure 23
0001
0000
0000
0000
,  // measure 24
0100
0000
0000
0000
,  // measure 25
0010
0000
0000
0000
,  // measure 26
1000
0000
0000
0000
,  // measure 27
0001
0000
0000
0000
,  // measure 28
0010
0000
0000
0000
,  // measure 29
0001
0000
0000
0000
,  // measure 30
0100
0000
0000
0000
,  // measure 31
0001
0000
0000
0000
,  // measure 32
1000
0000
0000
0000
,  // measure 33
0001
0000
0000
0000
,  // measure 34
1000
0000
0000
0000
,  // measure 35
0001
0000
0000
0000
,  // measure 36
1000
0000
0000
0000
,  // measure 37
0100
0000
0000
0000
,  // measure 38
1000
0000
0000
0000
,  // measure 39
0001
0000
0000
0000
,  // measure 40
1000
0000
0000
0000
,  // measure 41
0100
0000
0000
0000
,  // measure 42
1000
0000
0000
0000
,  // measure 43
0001
0000
0000
0000
,  // measure 44
0100
0000
0000
0000
,  // measure 45
0001
0000
0000
0000
,  // measure 46
0100
0000
0000
0000
,  // measure 47
0010
0000
0000
0000
,  // measure 48
1000
0000
0000
0000
,  // measure 49
0010
0000
0000
0000
,  // measure 50
1000
0000
0000
0000
,  // measure 51
0001
0000
0000
0000
,  // measure 52
0000
0000
0000
0000
,  // measure 53
1000
0000
0000
0000
,  // measure 54
0000
0000
0000
0000
,  // measure 55
0010
0000
0000
0000
,  // measure 56
0000
0000
0000
0000
,  // measure 57
0100
0000
0000
0000
,  // measure 58
0000
0000
0000
0000
,  // measure 59
0000
0000
0000
0000
,  // measure 60
0000
0000
0000
0000
,  // measure 61
0000
0000
0000
0000
,  // measure 62
0001
0000
0000
0000
,  // measure 63
1000
0000
0000
0000
,  // measure 64
0010
0000
0000
0000
,  // measure 65
1000
0000
0000
0000
,  // measure 66
0001
0000
0000
0000
,  // measure 67
0100
0000
0000
0000
,  // measure 68
0010
0000
0000
0000
,  // measure 69
1000
0000
0000
0000
,  // measure 70
0001
0000
0000
0000
,  // measure 71
0100
0000
0000
0000
,  // measure 72
0001
0000
0000
0000
,  // measure 73
1000
0000
0000
0000
,  // measure 74
0010
0000
0000
0000
,  // measure 75
1000
0000
0000
0000
;

//---------------dance-single - ----------------
#NOTES:
     dance-single:
     Lisek:
     Easy:
     4:
     0.315,0.467,0.000,0.337,0.000: // measure 1
0000
0000
0000
0000
,  // measure 2
0000
0000
0000
0000
,  // measure 3
0000
0000
0000
0000
,  // measure 4
0000
0000
0000
0000
,  // measure 5
0001
0000
1000
0000
,  // measure 6
0010
0000
1000
0000
,  // measure 7
0001
0000
0100
0000
,  // measure 8
0001
1000
0001
0000
,  // measure 9
0000
0000
0000
0000
,  // measure 10
1000
0000
0010
0000
,  // measure 11
0100
0010
1000
0100
,  // measure 12
1000
0000
0001
0000
,  // measure 13
0100
0001
0010
0000
,  // measure 14
0001
0000
0100
0000
,  // measure 15
0001
1000
0010
0100
,  // measure 16
0020
1000
1030
0000
,  // measure 17
0200
0001
0301
0000
,  // measure 18
0000
0000
0000
0000
,  // measure 19
0001
0000
0010
0000
,  // measure 20
0001
1000
0010
0000
,  // measure 21
1000
0000
0010
0000
,  // measure 22
0100
0010
1000
0000
,  // measure 23
0001
0000
0010
0000
,  // measure 24
0001
1000
0010
0000
,  // measure 25
1000
0000
0010
0000
,  // measure 26
1000
0010
0100
0000
,  // measure 27
0001
0000
0100
0000
,  // measure 28
0001
1000
0010
0000
,  // measure 29
1000
0010
0100
0010
,  // measure 30
1000
0000
0001
0000
,  // measure 31
1000
0000
0010
0000
,  // measure 32
1000
0010
1000
0000
,  // measure 33
0001
0100
0010
1000
,  // measure 34
0002
0000
0000
0003
,  // measure 35
1000
0100
1000
1000
,  // measure 36
0010
0100
0020
0030
,  // measure 37
0100
0001
0100
0100
,  // measure 38
0001
1000
0001
0000
,  // measure 39
1000
0100
1000
1000
,  // measure 40
0001
0100
0002
0003
,  // measure 41
0100
0010
0100
0100
,  // measure 42
0010
0100
0010
0010
,  // measure 43
1000
0100
1000
0100
,  // measure 44
1000
0000
0000
0000
,  // measure 45
0001
0010
0001
0010
,  // measure 46
0001
0000
0000
0000
,  // measure 47
1000
0010
1000
0010
,  // measure 48
1000
0000
0010
0000
,  // measure 49
0100
0001
0100
0001
,  // measure 50
0100
0000
0001
0000
,  // measure 51
2000
0000
3200
0000
,  // measure 52
0320
0000
0032
0000
,  // measure 53
0023
0000
0230
0000
,  // measure 54
2300
0000
3002
0000
,  // measure 55
2003
0000
3020
0000
,  // measure 56
0230
0000
0302
0000
,  // measure 57
0203
0000
0320
0000
,  // measure 58
1030
0001
0000
0000
,  // measure 59
0000
0000
0000
0000
,  // measure 60
0100
0010
0100
0000
,  // measure 61
0020
0000
0000
0030
,  // measure 62
1000
0100
1000
0001
,  // measure 63
0100
0001
0010
0000
,  // measure 64
0001
0100
0010
1000
,  // measure 65
0100
1000
0010
0100
,  // measure 66
0001
1000
0002
0003
,  // measure 67
1000
0010
2000
3000
,  // measure 68
0001
1000
0010
0100
,  // measure 69
0020
0230
0320
0230
,  // measure 70
0301
0100
0010
1000
,  // measure 71
0002
2003
3002
0003
,  // measure 72
1000
0010
0100
0001
,  // measure 73
0200
0320
0230
0320
,  // measure 74
1030
0100
2000
3000
,  // measure 75
0001
0100
0002
0003
;
