#TITLE:幻想雷神記;
#SUBTITLE:;
#ARTIST:98;
#TITLETRANSLIT:Gensou Raijinki;
#SUBTITLETRANSLIT:;
#ARTISTTRANSLIT:;
#GENRE:;
#CREDIT:;
#BANNER:[Round 3] - Gensou Raijinki.png;
#BACKGROUND:[Round 3] - Gensou Raijinki-bg.png;
#LYRICSPATH:;
#CDTITLE:cdtitle.png;
#MUSIC:[Round 3] - Gensou Raijinki.mp3;
#OFFSET:-0.744;
#SAMPLESTART:16.569;
#SAMPLELENGTH:13.220;
#SELECTABLE:YES;
#BPMS:0.000=200.000
,32.000=185.000
,36.000=170.000
,40.000=268.000
;
#STOPS:
;
#BGCHANGES:;
#KEYSOUNDS:;
#ATTACKS:;

//---------------dance-single - ----------------
#NOTES:
     dance-single:
     :
     Challenge:
     10:
     0.722,0.824,0.406,0.174,0.029,463.000,42.000,18.000,0.000,0.000,0.000,0.722,0.824,0.406,0.174,0.029,463.000,42.000,18.000,0.000,0.000,0.000:
0000
0000
0000
0000
,
0000
0000
0000
0000
,
0000
0000
0000
0000
,
0000
0000
0000
0000
,
0000
0000
0000
0000
,
0000
0000
0000
0000
,
0000
0000
0000
0000
,
0000
0000
0000
0000
,
0002
0000
0000
0000
,
2000
0000
0000
3003
,
1000
0000
0000
0100
0000
0000
0010
0000
,
0100
0000
0000
0010
0000
0000
0001
0000
,
1000
0000
0000
0100
0000
0000
0010
0000
,
0001
0000
0000
0010
0000
0000
0100
0000
,
1100
0000
0000
1001
0000
0000
0101
0000
,
0000
0000
0000
0001
0000
0100
0000
0001
,
1000
0000
0000
1010
0000
0000
0101
0000
,
0000
0000
0000
0001
0100
0000
0110
0000
,
1010
0000
0000
1001
0000
0000
0110
0000
,
0000
0000
0000
0001
0010
0100
1000
0010
,
0100
0000
0100
0010
1000
0000
1000
0100
,
0010
0022
0000
0033
,
0101
0000
0001
1000
0100
1000
0001
0000
,
1000
0000
0000
1100
0000
0011
0000
0101
,
0000
0000
0100
0010
1000
0010
0100
0000
,
0000
0000
0000
0001
0010
0000
0100
0000
,
1100
0000
0000
1001
0000
0000
0110
0000
,
0000
0000
0000
0001
0010
0100
1000
0010
,
0100
0000
0000
0110
0000
0000
0000
0000
,
0000
0000
0000
0000
0000
1000
0100
0010
,
0001
1000
0100
0001
0000
1000
0010
0001
,
0000
1000
0001
0000
0110
0000
1000
0010
,
0100
0000
0100
0001
0000
0010
0000
0100
,
0000
1000
0100
0000
0001
0000
0100
0000
,
1000
0000
0000
0001
0000
0100
0000
2000
,
0000
0000
3100
0001
,
1000
0000
0001
0010
0000
1000
0000
0110
,
0000
0001
0010
0001
0100
1000
0100
0010
,
1000
0100
0010
0001
0000
1000
0010
0001
,
0000
1000
0100
0010
1000
0000
0100
0010
,
0001
0000
1000
0001
0000
0010
0000
2200
,
0000
3300
0001
0010
,
1000
0000
0000
0001
0000
0100
0000
0020
,
0000
0000
0031
0000
,
1001
0000
0001
0100
0000
0100
0010
0000
,
0010
1000
0000
1000
0001
0010
0100
1000
,
0100
0000
1000
0001
1000
0000
0010
0000
,
0100
0001
0100
0000
0010
0000
1000
0100
,
1000
0000
0001
0100
0001
0000
1000
0000
,
0010
0100
0010
0000
1000
0100
1000
0100
,
0010
0000
0001
0010
0001
0000
1000
0000
,
0100
0010
0100
0000
0010
0000
0001
1000
,
0001
0000
0100
0001
0000
0000
1010
0000
,
0000
0000
0000
0000
0000
1000
0100
0010
,
0001
0100
0001
1000
0000
0010
1000
0001
,
0000
0100
0001
0100
0010
0000
1000
0100
,
0010
0000
0100
0010
0000
0100
0000
1000
,
0000
0001
0100
0010
0001
0000
0010
0000
,
1000
0000
0000
0001
0000
0010
0000
2000
,
0000
0000
3010
0001
,
0101
0000
0001
1001
0000
1000
1010
0000
,
0000
0010
1000
0010
0100
0001
0100
0010
,
1000
0100
0010
0001
0000
1000
0100
0010
,
0000
0001
0100
0010
1000
0000
0100
0010
,
0001
0000
1000
0010
0000
0100
0000
0002
,
0000
0000
0000
0000
0013
0000
0000
1001
,
0000
0000
1000
0100
1000
0001
0100
0001
,
1000
0000
0000
0000
0101
0000
0000
1001
,
0000
0001
0100
0010
0000
0010
0000
1000
,
0000
0100
0010
0001
1000
0000
0000
0101
,
0000
0000
0001
0000
1000
0010
1000
0100
,
0000
0010
0001
0010
0100
1000
0001
0100
,
0010
0000
0000
0000
1000
0100
1000
0000
0000
0000
0100
0010
,
0100
0000
0010
0001
0100
0010
1000
0001
,
0010
0001
0100
0001
0010
0001
1000
0020
,
0000
0000
0100
0000
0000
0130
0000
0000
,
0001
0010
0001
0100
0010
0100
0010
1000
,
0100
0010
0001
0100
0001
0010
0100
1000
,
0100
0000
1000
0100
0010
0000
0100
0010
,
0001
0000
0000
0000
0000
0000
1000
0000
0000
0010
0000
0000
0100
0000
0000
0000
1000
0000
0000
0000
0100
0000
0000
0000
,
0001
0010
0100
1000
0000
0001
0010
0100
,
1000
0000
0001
1000
0100
0010
0100
0010
,
0001
1000
0100
0010
0001
0100
0001
2000
,
0000
0000
0010
0000
0000
3010
0000
0000
,
1000
0001
0010
0100
1000
0001
0100
0010
,
1000
0010
0100
1000
0001
0010
0100
0010
,
1000
0000
1000
0100
0000
0100
0001
0000
,
0001
0010
0000
0010
1000
0010
0100
0001
,
0020
0100
0000
0130
0000
0000
0020
0100
,
0000
0130
0000
0000
0000
0000
0000
0000
,
0002
1000
0000
1003
0000
0000
0002
1000
,
0000
1003
0000
0001
0100
0010
0100
0010
,
0110
0000
0000
0101
0000
0000
1001
0000
,
0000
0000
0000
1000
0000
0001
0000
0110
,
0000
0000
1000
0001
1000
0010
1010
0000
,
0000
0000
0000
1000
0100
0000
0110
0000
,
0011
0000
0000
1001
0000
0000
1100
0000
,
0000
0000
0000
0001
0010
0100
1000
0010
,
0100
0000
0000
0110
0000
0000
0000
0000
,
0000
0000
0000
0000
,
1001
0000
0001
0100
0000
0100
0010
0000
,
0010
1000
0000
1000
0100
0010
0001
0100
,
1000
0000
1000
0100
0000
0100
0001
0000
,
0001
0010
0000
0010
0100
1000
0001
0100
,
0010
0000
0010
1000
0000
1000
0100
0000
,
0100
0010
0000
0010
0001
0010
0100
1000
,
2002
0000
3003
0000
;

//---------------dance-single - ----------------
#NOTES:
     dance-single:
     :
     Hard:
     10:
     0.664,0.721,0.464,0.251,0.010,407.000,48.000,26.000,0.000,0.000,0.000,0.664,0.721,0.464,0.251,0.010,407.000,48.000,26.000,0.000,0.000,0.000:
0000
0000
0000
0000
,
0000
0000
0000
0000
,
0000
0000
0000
0000
,
0000
0000
0000
0000
,
0000
0000
0000
0000
,
0000
0000
0000
0000
,
0000
0000
0000
0000
,
0000
0000
0000
0000
,
2002
0000
0000
3003
,
0220
0000
0000
0330
,
1000
0000
0000
0100
0000
0000
0010
0000
,
0100
0000
0000
0010
0000
0000
0001
0000
,
1000
0000
0000
0010
0000
0000
0100
0000
,
0001
0000
0000
0100
0000
0000
0010
0000
,
1010
0000
0000
0101
0000
0000
0110
0000
,
0000
0000
0000
0001
0000
1000
0000
0001
,
0100
0000
0000
1010
0000
0000
1001
0000
,
0000
0000
0000
0001
0010
0000
0100
0000
,
1100
0000
0000
0011
0000
0000
0101
0000
,
0000
0000
0000
0001
0100
0010
1000
0100
,
1000
0000
0000
1000
0100
0000
0000
0100
,
0010
0022
0000
0033
,
0101
0000
0000
1010
0000
0000
0110
0000
,
0000
0000
0000
0100
0000
0001
0000
1100
,
0000
0000
0000
0011
0000
0000
1001
0000
,
0000
0000
0000
0001
0100
0000
0010
0000
,
1010
0000
0000
0101
0000
0000
0011
0000
,
0000
0000
0000
0010
0001
0100
0010
1000
,
0100
0000
0000
1001
0000
0000
0000
0000
,
0000
0000
0000
0000
0000
1000
0100
0010
,
0001
0000
0001
0100
0000
0100
0010
0100
,
0000
0001
1000
0000
0001
0000
0010
0001
,
0010
0000
0100
1000
0000
0001
0000
0200
,
0000
0300
0000
0100
0010
0000
1000
0000
,
0002
0000
0000
0013
0000
0001
0000
2000
,
0000
0000
3100
0010
,
0001
0000
0200
0010
0000
0310
0000
0110
,
0000
0001
1000
0001
1000
0100
0010
0001
,
1000
0000
1000
0100
0000
0100
0010
0100
,
0000
0010
0001
0100
0010
0000
0100
0001
,
1000
0000
0100
0010
0000
0100
0000
2000
,
0000
3000
0000
1000
0001
0000
0010
0000
,
0200
0000
0000
0310
0000
0001
0000
0200
,
0000
0000
0310
0000
,
1001
0000
0001
0010
0000
0010
0100
0000
,
0100
1000
0000
1000
0001
0010
0100
1000
,
0100
0000
0000
1000
0010
0000
0000
0001
,
0010
0000
0000
1000
0100
0000
0001
0000
,
0100
0000
0000
1000
0001
0000
0000
0010
,
0100
0000
0000
1000
0010
0100
0010
0100
,
0001
0000
0000
0001
0100
0000
0000
1000
,
0100
0000
0000
0001
0010
0000
1000
0000
,
0010
0000
0000
0001
0000
0000
2002
0000
,
0000
0000
0000
3003
0000
1000
0100
0010
,
0001
0000
0100
0010
0000
0100
0010
1000
,
0000
0001
0100
0001
0100
0000
0010
1000
,
0001
0000
0000
1000
0000
1000
0000
1001
,
0000
0000
0000
0001
0010
0000
0001
0000
,
0200
0000
0000
0310
0000
1000
0000
0200
,
0000
0000
0310
0001
,
1001
0000
0001
0100
0000
0010
1000
0000
,
0000
0001
0010
0001
0010
0100
0010
0100
,
1000
0000
1000
0010
0000
0100
0001
0100
,
0000
0001
0010
0100
1000
0000
0010
0100
,
0001
0000
0000
0001
0000
0001
0000
2001
,
0000
0000
0000
0000
3020
0000
0000
0130
,
0000
0000
0100
0001
0100
0000
0100
0010
,
0100
0000
0000
0000
1001
0000
0000
1010
,
0000
0010
0100
0010
0000
0010
0000
1000
,
0000
0000
0000
0000
1001
0000
0000
0101
,
0000
0000
0100
0000
0010
1000
0010
0100
,
0000
0100
0010
1000
0100
0010
0001
0000
,
1000
0000
0000
0001
0100
0000
0000
0010
,
1000
0100
0010
0001
,
0100
0010
0100
0010
1000
0100
1000
0200
,
0000
0000
0010
0000
0000
0310
0000
0000
,
0001
0100
0010
0000
0010
1000
0100
0000
,
0100
0010
0001
0000
1000
0010
0100
0000
,
0001
0000
0001
1000
0001
0000
0010
0100
,
0010
0000
0000
0000
0000
0000
0100
0000
0000
1000
0000
0000
0001
0000
0000
0000
1000
0000
0000
0000
0100
0000
0000
0000
,
0010
0001
1000
0001
0000
0001
0100
0001
,
1000
0000
0001
0100
0010
1000
0100
0000
,
1000
0100
1000
0100
0010
0001
0010
0002
,
0000
0000
0100
0000
0000
0103
0000
0000
,
0010
1000
0100
0000
0100
0010
0001
0000
,
0001
0100
0010
0000
1000
0010
0100
0000
,
0110
0000
0000
0101
0000
0000
1001
0000
,
0000
1010
0000
1000
0100
1000
0100
0010
,
0002
0010
0000
0013
0000
0000
2000
0100
,
0000
3100
0000
0000
0000
0000
0000
0000
,
0002
0100
0000
0103
0000
0000
2000
0010
,
0000
3010
0000
1000
0001
1000
0001
0000
,
0101
0000
0000
1001
0000
0000
1100
0000
,
0000
0000
0000
1000
0000
0001
0000
0011
,
0000
0000
0000
1001
0000
0000
1100
0000
,
0000
0000
0000
0100
1000
0000
0010
0000
,
0110
0000
0000
0101
0000
0000
1001
0000
,
0000
0000
0000
0001
0010
0100
1000
0010
,
0100
0000
0000
0110
0000
0000
0000
0000
,
0000
0000
0000
0000
,
1001
0000
0001
0100
0000
0100
1000
0000
,
1000
0100
0000
0100
0001
0000
1000
0000
,
1001
0000
0001
0010
0000
0010
1000
0000
,
1000
0010
0000
0010
0001
0000
0100
0000
,
0110
0000
0100
0001
0000
0001
1000
0000
,
1000
0100
0000
0100
0010
0001
0100
0010
,
2000
0000
3000
0000
;

//---------------dance-single - ----------------
#NOTES:
     dance-single:
     :
     Medium:
     8:
     0.496,0.566,0.677,0.222,0.000,266.000,70.000,23.000,0.000,0.000,0.000,0.496,0.566,0.677,0.222,0.000,266.000,70.000,23.000,0.000,0.000,0.000:
0000
0000
0000
0000
,
0000
0000
0000
0000
,
0000
0000
0000
0000
,
0000
0000
0000
0000
,
0000
0000
0000
0000
,
0000
0000
0000
0000
,
0000
0000
0000
0000
,
0000
0000
0000
0000
,
2002
0000
0000
3003
,
0220
0000
0000
0330
,
0000
0000
0000
1000
,
0000
1000
0000
1000
,
0001
0000
0000
0010
0000
0000
0100
0000
,
1000
0000
0000
0010
0000
0000
0100
0000
,
0001
0000
0000
1000
0000
0000
1001
0000
,
0000
0000
0000
1000
0000
0001
0000
0100
,
0010
0000
0000
0100
0000
0000
0110
0000
,
0000
0000
0000
0010
1000
0000
0100
0000
,
0010
0000
0000
0001
0000
0000
1100
0000
,
0000
0000
1000
1000
,
0001
0000
0101
0000
,
1001
2000
0000
3000
,
0001
0000
0000
0100
0000
0000
0101
0000
,
0000
0000
0000
0010
0000
1000
0000
1010
,
0000
0000
0000
0001
0000
0000
0011
0000
,
0000
0000
0001
1000
,
0010
0000
0000
1000
0000
0000
0101
0000
,
0000
0000
0000
0001
0100
0000
0010
0000
,
1001
0000
0000
1001
0000
0000
0000
0000
,
0000
0000
0000
0000
,
1001
0000
0000
0110
0000
0000
0000
1001
,
0000
1000
0001
0100
,
0020
0000
0000
1000
0000
1000
0000
1030
,
0000
0000
0110
0000
,
0001
0100
0001
1000
,
0010
1000
0010
0100
,
0210
0000
0000
0001
0000
0001
0000
0301
,
0000
1000
0001
1000
,
0110
0000
0000
1001
0000
0000
0000
0110
,
0000
0001
1000
0001
,
0020
0000
0000
0100
0000
0100
0000
0130
,
0000
0000
1001
0000
,
1000
0100
1000
0001
,
0010
0100
0020
0030
,
1001
0000
0000
0101
0000
0000
1001
0000
,
0000
1010
0000
0000
0001
0000
0001
0000
,
0100
0000
0000
0001
0000
0000
0010
0000
,
0000
1000
0000
0000
0100
0000
0100
0000
,
0010
0000
0000
1000
0000
0000
0100
0000
,
0000
0001
0000
0000
0010
0000
0010
0000
,
1000
0000
0000
0001
0000
0000
0100
0000
,
0000
1000
0000
0000
0010
0000
0010
0000
,
0001
0000
0000
1000
0000
0000
1001
0000
,
0000
0000
0000
1000
,
1100
0000
0000
0110
0000
0000
0000
0011
,
0000
0001
0100
0010
,
2000
0000
0000
0100
0000
0100
0000
3100
,
0000
0000
1001
0000
,
0001
0100
0010
0100
,
1000
0100
0010
1000
,
1001
0000
0000
1010
0000
0000
1100
0000
,
0000
1000
0100
0010
,
0011
0000
0000
0110
0000
0000
0000
1100
,
0000
1000
0010
0100
,
0002
0000
0000
0100
0000
0100
0000
0103
,
0000
0000
0000
0000
1001
0000
0000
0120
,
0000
0000
0100
0000
,
0130
0000
0000
0000
1001
0000
0000
0210
,
0000
0000
0000
0010
0000
0010
0000
0310
,
0000
0000
0000
0000
1001
0000
0000
2002
,
0000
0000
0000
0000
3003
0000
0000
0110
,
0000
0000
0110
0000
,
0001
0000
0000
0001
0100
0000
0000
0100
,
0010
0010
1000
0000
,
1000
0100
0001
0100
,
2000
0000
0000
3000
,
0001
0100
0001
0100
,
1000
0100
0010
0100
,
0001
0100
0010
1000
,
0200
0000
1300
0001
,
0010
0010
0000
0100
,
0100
1000
0001
1000
,
0001
0010
1000
0010
,
0002
0000
0000
0003
,
1000
0100
1000
0100
,
0010
0001
0010
0100
,
1000
0000
0000
0101
0000
0000
0010
0000
,
0000
1100
0000
0000
1000
0000
0001
0000
,
2002
0000
0000
0000
,
0000
0000
3003
0000
,
0220
0000
0000
0000
,
0000
0330
0100
0010
,
1001
0000
0000
0101
0000
0000
1010
0000
,
0000
0000
0000
1000
0000
0100
0000
0110
,
0000
0000
0000
0011
0000
0000
1100
0000
,
0000
0000
0000
1000
0100
0000
1000
0000
,
0010
0000
0000
0100
0000
0000
1001
0000
,
0000
0000
0000
0001
0100
0000
0010
0000
,
0110
0000
0000
0110
0000
0000
0000
0000
,
0000
0000
0000
0000
,
1001
0000
0000
0101
0000
0000
1001
0000
,
0000
1010
0000
0000
1000
0000
0001
0000
,
1001
0000
0000
1100
0000
0000
1001
0000
,
0000
0011
0000
0000
0001
0000
1000
0000
,
0110
0000
0000
1001
0000
0000
0110
0000
,
0000
1001
0000
0001
0010
0000
0100
0000
,
2000
0000
3000
0000
;

//---------------dance-single - ----------------
#NOTES:
     dance-single:
     :
     Easy:
     6:
     0.456,0.515,0.493,0.541,0.000,223.000,51.000,56.000,0.000,0.000,0.000,0.456,0.515,0.493,0.541,0.000,223.000,51.000,56.000,0.000,0.000,0.000:
0000
0000
0000
0000
,
0000
0000
0000
0000
,
0000
0000
0000
0000
,
0000
0000
0000
0000
,
0000
0000
0000
0000
,
0000
0000
0000
0000
,
0000
0000
0000
0000
,
0000
0000
0000
0000
,
0002
0000
0000
0000
,
2000
0000
0000
3003
,
0000
0000
0000
1000
,
0000
1000
0000
1000
,
0000
0001
0000
0001
,
0000
0001
0000
0001
,
1001
0000
0000
0110
,
0000
0000
0001
1000
,
1001
0000
0000
0110
,
0000
0000
1000
0001
,
1001
0000
0000
0110
,
0000
0000
0001
1000
,
0001
0000
0101
0000
,
1000
2200
3300
0000
,
1100
0000
0000
1001
,
0000
0000
0000
0001
0000
0100
0000
0101
,
0000
0000
0000
1001
,
0000
0000
1000
0001
,
0110
0000
0000
1001
,
0000
0000
0001
1000
,
0110
0000
0000
0110
0000
0000
0000
0000
,
0000
0000
0000
1000
,
0200
0000
0000
0320
0000
0000
0000
0032
,
0000
0000
2003
0000
,
3002
0000
0000
0023
0000
0000
0000
0130
,
0000
0000
1001
0000
,
0001
0100
0001
0100
,
0010
1000
0010
1000
,
0001
0000
0000
0110
0000
0000
0000
1001
,
0000
0001
1000
0001
,
0020
0000
0000
0230
0000
0000
0000
2300
,
0000
0000
3002
0000
,
2003
0000
0000
3200
0000
0000
0000
0310
,
0000
0000
1001
0000
,
1000
0100
1000
0100
,
0010
0001
0200
0300
,
1001
0000
0000
1001
0000
0000
0110
0000
,
0000
0110
0000
0000
1001
0000
0000
0000
,
0002
0000
0000
0100
0000
0000
0100
0000
,
0000
1000
0000
0000
1003
0000
0000
0000
,
2000
0000
0000
0100
0000
0000
0100
0000
,
0000
0001
0000
0000
3001
0000
0000
0000
,
0002
0000
0000
1000
0000
0000
2003
0000
,
0000
0001
0000
0000
3001
0000
0000
0000
,
1000
0000
0000
0001
0000
0000
1001
0000
,
0000
0000
0000
1000
,
0002
0000
0000
0203
0000
0000
0000
0320
,
0000
0000
2030
0000
,
3002
0000
0000
2003
0000
0000
0000
3020
,
0000
0000
0130
0000
,
0001
0010
0001
0010
,
0100
1000
0100
1000
,
0001
0000
0000
1000
0000
0000
0110
0000
,
0000
0001
1000
0001
,
2000
0000
0000
3020
0000
0000
0000
0230
,
0000
0000
0302
0000
,
2003
0000
0000
3020
0000
0000
0000
0230
,
0000
0000
0000
0000
0301
0000
0000
2001
,
0000
0000
0100
0000
,
0000
0000
0000
0000
3100
0000
0000
2002
,
0000
0000
0000
0000
,
3003
0000
0000
0000
0010
0000
0000
2200
,
0000
0000
0000
0000
3300
0000
0000
0202
,
0000
0303
0000
0000
2002
0000
3003
0000
,
0002
0003
0200
0300
,
0010
1000
1000
0000
,
1000
0100
0010
0002
,
0000
0100
0000
0103
,
0010
0100
0010
0100
,
0001
1000
0001
1000
,
0100
0000
0110
0000
,
2002
0000
3003
1000
,
0010
0100
0001
0100
,
0010
1000
0010
0100
,
0001
0010
0100
2000
,
0000
0001
0000
3001
,
1000
0010
1000
0001
,
0010
0001
0100
0010
,
1000
0000
0000
0001
0000
0000
1000
0000
,
0000
0001
0000
0000
0100
0000
0100
0000
,
0220
0000
0000
0000
,
0000
0330
0000
0000
,
2002
0000
0000
0000
,
0000
3003
0000
0000
,
1100
0000
0000
0101
,
0000
0000
0000
0001
0000
1000
0000
1001
,
0000
0000
0000
0101
,
0000
0000
0001
1000
,
0110
0000
0000
1001
,
0000
0000
1000
0001
,
0110
0000
0000
0110
0000
0000
0000
0000
,
0000
0000
0000
0000
,
0001
0000
0000
0100
0000
0000
0001
0000
,
0000
0100
0000
0000
0101
0000
0000
0000
,
1000
0000
0000
0100
0000
0000
1000
0000
,
0000
0100
0000
0000
1100
0000
0000
0000
,
1001
0000
0000
1001
0000
0000
0110
0000
,
0000
0110
0000
0000
0001
0000
1000
0000
,
2002
0000
3003
0000
;

//---------------dance-single - ----------------
#NOTES:
     dance-single:
     :
     Beginner:
     4:
     0.191,0.360,0.155,0.155,0.000,106.000,16.000,16.000,0.000,0.000,0.000,0.191,0.360,0.155,0.155,0.000,106.000,16.000,16.000,0.000,0.000,0.000:
0000
0000
0000
0000
,
0000
0000
0000
0000
,
0000
0000
0000
0000
,
0000
0000
0000
0000
,
0000
0000
0000
0000
,
0000
0000
0000
0000
,
0000
0000
0000
0000
,
0000
0000
0000
0000
,
1000
0000
0000
0000
,
0001
0000
0000
0000
,
1000
0000
0000
0000
,
0000
0000
0000
0000
,
0001
0000
0000
0000
,
0000
0000
0000
0000
,
1001
0000
0000
0000
,
0000
0000
0000
0000
,
0110
0000
0000
0000
,
0000
0000
0000
0000
,
1001
0000
0000
0000
,
0000
0000
0000
0000
,
0100
0000
0100
0000
,
0100
0000
0000
0000
,
1001
0000
0000
0000
,
0000
0000
0000
0000
0000
0000
0000
0110
,
0000
0000
0000
0000
,
0000
0000
0000
0000
,
1001
0000
0000
0000
,
0000
0000
0000
0000
,
0010
0000
0000
0010
0000
0000
0000
0000
,
0000
0000
0000
0000
,
1000
0000
1000
0000
,
1000
0000
0000
0000
,
0001
0000
0001
0000
,
0001
0000
0000
0000
,
1000
0000
0000
0000
,
0001
0000
0000
0000
,
0100
0000
0100
0000
,
0100
0000
0000
0000
,
0001
0000
0001
0000
,
0001
0000
0000
0000
,
1000
0000
1000
0000
,
1000
0000
0000
0000
,
0010
0000
0000
0000
,
0100
0000
0000
0000
,
0001
0000
0000
0000
,
1000
0000
0000
0000
,
0001
0000
0000
0001
,
0000
0000
0000
0000
,
0010
0000
0000
0010
,
0000
0000
0000
0000
,
0100
0000
0000
0100
,
0000
0000
0000
0000
,
1000
0000
0000
1000
,
0000
0000
0000
0000
,
0001
0000
0100
0000
,
0001
0000
0000
0000
,
1000
0000
0100
0000
,
1000
0000
0000
0000
,
0001
0000
0000
0000
,
1000
0000
0000
0000
,
0010
0000
0000
0110
,
0000
0000
0000
0000
,
1000
0000
0010
0000
,
1000
0000
0000
0000
,
0001
0000
0010
0000
,
0001
0000
0000
0000
,
0100
0000
0100
0000
,
0100
0000
0000
0000
0000
0000
0000
2002
,
0000
3003
0000
0000
,
0000
0000
0000
0000
0000
0000
0000
2002
,
0000
0000
3003
0000
0000
0000
0000
0220
,
0000
0330
0000
0000
,
0001
0000
1000
0000
,
0001
0000
0000
0000
,
1000
0000
0001
0000
,
2000
0000
3000
0000
,
0010
0000
0100
0000
,
0010
0000
0000
0000
,
0100
0000
0010
0000
,
0200
0000
0300
0000
,
0001
0000
0100
0000
,
0001
0000
0000
0000
,
1000
0000
0010
0000
,
2000
0000
3000
0000
,
0001
0000
1000
0000
,
0001
0000
0000
0000
,
0110
0000
0000
1001
,
0000
0000
0000
0000
,
2000
0000
0000
0000
,
3000
0000
0000
0000
,
0002
0000
0000
0000
,
0003
0000
0000
0000
,
1001
0000
0000
0000
,
0000
0000
0000
0000
0000
0000
0000
0110
,
0000
0000
0000
0000
,
0000
0000
0000
0000
,
1001
0000
0000
0000
,
0000
0000
0000
0000
,
0100
0000
0000
0100
0000
0000
0000
0000
,
0000
0000
0000
0000
,
0002
0000
0003
0000
,
0001
0000
0001
0000
,
2000
0000
3000
0000
,
1000
0000
1000
0000
,
0020
0000
0030
0000
,
0010
0000
0010
0000
,
2002
0000
3003
0000
;
