#TITLE:Windy Fairy;
#SUBTITLE:;
#ARTIST:DJ TOTTO;
#TITLETRANSLIT:;
#SUBTITLETRANSLIT:;
#ARTISTTRANSLIT:;
#GENRE:;
#CREDIT:;
#MENUCOLOR:;
#METERTYPE:DDR;
#BANNER:[Round 2] - Windy Fairy.png;
#BACKGROUND:[Round 2] - Windy Fairy-bg.png;
#LYRICSPATH:;
#CDTITLE:cdtitle.png;
#MUSIC:[Round 2] - Windy Fairy.mp3;
#OFFSET:-0.028;
#SAMPLESTART:75.998;
#SAMPLELENGTH:15.000;
#SELECTABLE:YES;
#LISTSORT:;
#BPMS:0.000=90.000,12.000=180.000,306.000=90.000,309.000=180.000;
#STOPS:;
#BGCHANGES:;
#ATTACKS:;

//---------------dance-single - ----------------
#NOTES:
     dance-single:
     :
     Hard:
     9:
     0.709,0.740,0.339,0.500,0.275:
0000
0000
0000
0000
,
0000
0000
0000
0000
,
0000
0000
0000
0000
,
1000
0000
0001
0100
0001
0000
0010
0000
0100
0000
1000
0000
0020
0000
0000
0000
,
0000
0000
0130
0001
2000
0000
3100
0010
,
0001
0000
0100
0000
0010
0000
1000
0001
2000
0000
0000
0000
3020
0000
0000
0000
,
0130
0000
0001
1000
0001
0000
0010
0000
0100
0000
1000
0000
0020
0000
0000
0000
,
0000
0000
0000
0000
0130
0000
0001
0000
0010
0000
0000
0100
0000
0000
1000
0000
,
0010
0100
0002
0000
1000
0000
1003
0000
,
0001
0000
0010
0100
0010
0000
0001
0000
0100
0000
0010
0000
2000
0000
0000
0000
,
3100
0000
0010
0100
2000
0000
3001
0100
,
1000
0000
0100
0000
0001
0000
0010
0100
0020
0000
0000
0000
0032
0000
0000
0000
,
1003
0000
0100
0010
0100
0000
1000
0000
0010
0000
0100
0000
0001
0000
0000
0010
,
0000
0100
1000
0010
0020
0000
0100
0000
,
0130
0000
0001
1000
0002
0000
0000
0000
0100
0000
0000
0000
0100
0000
0000
0000
,
0103
0000
0000
0000
0000
0000
0001
1000
0001
0000
0010
0000
0100
0000
0000
0000
,
1100
0110
0011
2000
,
3200
0000
0000
0000
0310
0000
0001
1000
0001
0000
0100
0000
0010
0000
1000
0000
,
0100
0000
0000
0010
0001
1000
0010
0000
,
0110
0000
0101
0000
1000
0100
0010
0001
,
0100
0000
0001
0010
0100
1000
0010
0000
,
1000
0000
0000
0000
0000
0000
0001
0100
0001
0000
0010
0000
0100
0000
0000
0000
,
0011
0110
1100
0002
,
0023
0000
0000
0000
0130
0000
1000
0001
1000
0000
0010
0000
0100
0000
0001
0000
,
1000
0000
0000
0100
0010
0001
1000
0000
,
1010
0000
0110
0000
0100
0001
0010
0100
,
1000
0000
0010
1000
0100
0010
0001
0000
,
2000
0000
0000
0000
0000
0000
3100
0010
0100
0000
1000
0000
0010
0000
0000
0000
,
0110
0101
1001
0200
,
0302
0000
0000
0000
1003
0000
0100
0010
0100
0000
1000
0000
0010
0000
0100
0000
,
0002
0000
0000
0013
0100
1000
0010
0000
,
1100
0000
1001
0000
0001
0100
1000
0100
,
0002
0000
1003
0100
0001
0100
2000
0000
,
3002
0000
0000
0000
0000
0000
0103
0010
0100
0000
0001
0000
0010
0000
0000
0000
,
0110
1100
1001
0200
,
2300
0000
0000
0000
3001
0000
0100
0010
0100
0000
0001
0000
0010
0000
0100
0000
,
2000
0000
0000
3010
0100
0001
0010
0000
,
0101
0000
1001
0000
1000
0100
0001
0100
,
2000
0000
3001
0100
1000
0100
0002
0000
,
2003
0000
3100
0020
,
0000
0000
0130
0000
1000
0100
0010
0100
,
0001
0000
0000
0100
0000
0000
0010
0000
0000
0100
0000
0000
1000
0000
0001
0000
1000
0000
0001
0000
0000
0000
0000
0000
,
1002
0000
0103
0020
,
0000
0000
1030
0000
0001
0100
0010
0100
,
1000
0000
0000
0100
0000
0000
0010
0000
0000
0100
0000
0000
0001
0000
1000
0000
0001
0000
1000
0000
0000
0000
0000
0000
,
1200
0000
0310
0002
,
0000
0000
0103
0000
0001
0100
1000
0100
,
0010
0000
0000
0100
0000
0000
1000
0000
0000
0100
0000
0000
0001
0000
0010
0000
0100
0000
1000
0000
0000
0000
0000
0000
,
0001
0000
0000
0000
0001
0000
0100
0000
0000
0000
0100
0000
0010
0000
0000
0000
0010
0000
1000
0000
0000
0001
0000
0000
,
0001
0000
0000
0010
0000
0000
0010
0000
0000
0010
0000
0000
0100
0000
0000
0000
0100
0000
1000
0000
0000
0000
1000
0000
,
0010
0000
0000
0000
0010
0000
0100
0000
0000
0001
0000
0000
0001
0000
0000
1000
0000
0000
1000
0000
0000
1000
0000
0000
,
0100
0000
0100
0010
0000
0010
0001
0000
0001
0100
0000
0100
,
1000
0000
1000
0100
0000
0100
0002
0000
0000
0000
0000
0000
,
0000
0000
0000
0000
0000
0000
0000
0000
0003
0000
0000
0000
1000
0001
1000
0001
,
2000
0000
0000
0000
3001
0000
0010
0100
0010
0000
0001
0000
0200
0000
0000
0000
,
0310
0000
1000
0000
0001
0000
1000
0000
0200
0000
0000
0000
0310
0000
0001
1000
,
0001
0010
0200
0000
1300
0010
0100
0010
,
1000
0100
1000
0100
1000
0000
0010
0000
0100
0000
0001
0000
0010
0001
0010
0001
,
0010
0001
0100
0010
1010
0000
0000
1100
,
0000
0101
0002
1003
,
0210
0000
0000
0000
1300
0000
0001
0100
0001
0000
0010
0000
0200
0000
0000
0000
,
1300
0000
0000
0000
0010
0000
0100
0000
0002
0000
0000
0000
0013
0000
0100
1000
,
0100
0010
0002
0000
0203
0000
0320
0000
,
2030
0000
0000
0000
3001
0000
0100
0010
0100
0000
0001
0000
0020
0000
0000
0000
,
0130
1000
0010
0100
0101
0000
0000
0011
,
0000
0000
0000
0000
2020
0000
0000
0000
3030
0000
0000
0000
0001
1000
0001
1000
,
0002
0000
0000
0000
0000
0000
0013
0100
0010
0000
0001
0000
2000
0000
0000
0000
,
0000
0000
0000
0000
3010
0000
0000
0000
0200
0000
0000
0000
0000
0000
0301
1000
,
0001
0010
0200
0000
0000
1300
0010
0100
,
0001
0100
0001
0100
0001
0000
1000
0000
0100
0000
1000
0000
0010
0100
0010
0100
,
0010
1000
0100
0010
0011
0000
0000
0101
,
0000
0000
1100
0000
0000
1010
0000
0000
,
0011
0000
1000
0100
1000
0000
0001
0100
0001
0000
1000
0000
0020
0000
0000
0000
,
0100
0000
0000
0000
1030
0000
0001
0000
0100
0000
0001
0010
0001
0000
1000
0010
,
1000
0100
2000
0000
0010
0000
3001
0000
,
0010
0000
0001
0100
0001
0000
1000
0100
1000
0000
0001
0000
0020
0000
0000
0000
,
0000
0000
0130
0000
1000
0000
0001
0000
0100
1000
0100
0001
0100
0010
0100
0000
,
0000
0001
1000
0001
0010
0000
0100
0000
1000
0000
0010
0000
0100
0000
0001
0000
,
1000
0100
0001
1000
0010
0001
0011
0000
,
0000
1010
0000
0000
1100
0000
0101
0000
,
1001
0220
0000
0000
,
0000
0000
0000
0000
,
0000
0000
0000
0000
,
0000
0330
0000
0000
;

//---------------dance-double - ----------------
#NOTES:
     dance-double:
     :
     Hard:
     10:
     0.741,0.882,0.127,0.568,0.428: // measure 1
00000000
00000000
00000000
00000000
,  // measure 2
00000000
00000000
00000000
00000000
,  // measure 3
00000000
00000000
00000000
00000000
,  // measure 4
00010000
00000000
00001000
01000000
00001000
00000000
00010000
00000000
01000000
00000000
10000000
00000000
00200000
00000000
00000000
00000000
,  // measure 5
00000000
00000000
01300000
00010000
02000000
00000000
03010000
00100000
,  // measure 6
01000000
00000000
00100000
00000000
00010000
00000000
10000000
00010000
20000000
00000000
00000000
00000000
31000000
00000000
00010000
00000000
,  // measure 7
00001000
00000000
00010000
00000100
00010000
00000000
00001000
00000000
00000100
00000000
00000001
00000000
00000020
00000000
00000000
00000000
,  // measure 8
00000000
00000000
00000000
00000000
00000130
00000000
00001000
00000000
00000010
00000000
00000000
00010000
00000000
00000000
00001000
00000000
,  // measure 9
01000000
00000000
00100000
00000000
10000000
00000000
00010000
00000000
00100000
01000000
00100000
00000000
01000000
00000000
00010000
00000000
,  // measure 10
00001000
00000000
00010000
00000010
00010000
00000000
00001000
00000000
00000010
00000000
00000001
00000000
00000200
00000000
00000000
00000000
,  // measure 11
00000000
00000000
00000310
00001000
00000020
00000000
00001030
00000100
,  // measure 12
00000010
00000000
00000100
00000000
00001000
00000000
00000001
00001000
00000002
00000000
00000000
00000000
00000013
00000000
00001000
00000000
,  // measure 13
00010000
00000000
00001000
00100000
00001000
00000000
00010000
00000000
00100000
00000000
10000000
00000000
01000000
00000000
00000000
00100000
,  // measure 14
00000000
00010000
01000000
00100000
00200000
00000000
00000000
00000000
,  // measure 15
00000000
00000000
10300000
00010000
20000000
00000000
00000000
00000000
00000000
00000000
00000000
00000000
30000000
00000000
00000000
00000000
,  // measure 16
11000000
00000000
00000000
00000000
00000000
00000000
10000000
01000000
10000000
00000000
00010000
00000000
00100000
00000000
00000000
00000000
,  // measure 17
00101000
00000000
00011000
00000000
00010100
00000000
00000100
00000100
,  // measure 18
00010000
00000000
00010000
00000000
00001000
00000000
00100000
00010000
00100000
00000000
00001000
00000000
00010000
00000000
00000100
00000000
,  // measure 19
00000010
00000000
00000000
00000001
00000100
00001000
00010000
00000000
,  // measure 20
00200000
00000000
02300000
00000000
03001000
00000100
00000001
00000100
,  // measure 21
00001000
00000000
00010000
01000000
10000000
01000000
00010000
00000000
,  // measure 22
00011000
00000000
00000000
00000000
00000000
00000000
00010000
00000100
00010000
00000000
00000100
00000000
00000010
00000000
00000000
00000000
,  // measure 23
00000101
00000000
00001100
00000000
00011000
00000000
00010000
00010000
,  // measure 24
00001000
00000000
00001000
00000000
00000100
00000000
00000010
00001000
00000010
00000000
00001000
00000000
00000100
00000000
00010000
00000000
,  // measure 25
00001000
00000000
00000000
01000000
00001000
00100000
01000000
00000000
,  // measure 26
20000000
00000000
30020000
00000000
01030000
00001000
00010000
00000100
,  // measure 27
00001000
00000000
00000010
00010000
00001000
00100000
00010000
00000000
,  // measure 28
02010000
00000000
00000000
00000000
00000000
00000000
03100000
01000000
00100000
00000000
10000000
00000000
01000000
00000000
00000000
00000000
,  // measure 29
20000000
30020000
00032000
00003002
,  // measure 30
00002003
00000000
00000000
00000000
00013000
00000000
01000000
00100000
01000000
00000000
00010000
00000000
00100000
00000000
00001000
00000000
,  // measure 31
00020000
00000000
00000000
00030100
00001000
00000010
00000200
00000000
,  // measure 32
00000320
00000000
00002030
00000000
00003001
00000100
00001000
00010000
,  // measure 33
02000000
00000000
13000000
01000000
00010000
00001000
00000200
00000000
,  // measure 34
00000302
00000000
00000000
00000000
00000000
00000000
00000013
00000100
00000010
00000000
00000001
00000000
00000100
00000000
00000000
00000000
,  // measure 35
00000002
00002003
00023000
20030000
,  // measure 36
30020000
00000000
00000000
00000000
00031000
00000000
00000100
00000010
00000100
00000000
00001000
00000000
00000001
00000000
00000010
00000000
,  // measure 37
00000200
00000000
00000000
00010300
00001000
00100000
00020000
00000000
,  // measure 38
02030000
00000000
03020000
00000000
10030000
01000000
00010000
00001000
,  // measure 39
00000200
00000000
00000301
00000100
00001000
00010000
02000000
00000000
,  // measure 40
23000000
00000000
00000000
01000000
00000000
00000000
31000000
00000000
00010000
00000000
00000000
00000000
00002000
00000000
00000000
00000100
,  // measure 41
00000000
00003100
00000001
00000000
00000001
00000100
00000010
00000100
,  // measure 42
00010000
00000000
00000000
00000100
00000000
00000000
00000010
00000000
00000000
00000100
00000000
00000000
00000001
00000000
00001000
00000000
00000001
00000000
00001000
00000000
00000000
00000000
00000000
00000000
,  // measure 43
00000002
00000000
00000000
00000100
00000000
00000000
00000103
00000000
00001000
00000000
00000000
00000000
00020000
00000000
00000000
01000000
,  // measure 44
00000000
01030000
10000000
00000000
10000000
01000000
00100000
01000000
,  // measure 45
00001000
00000000
00000000
01000000
00000000
00000000
00100000
00000000
00000000
01000000
00000000
00000000
10000000
00000000
00010000
00000000
10000000
00000000
00010000
00000000
00000000
00000000
00000000
00000000
,  // measure 46
20000000
00000000
00000000
00100000
00000000
00000000
30100000
00000000
00010000
00000000
00000000
00000000
00002000
00000000
00000000
00000010
,  // measure 47
00000000
00003010
00000001
00000000
00001000
00000010
00000100
00000010
,  // measure 48
00000001
00000000
00000000
00000010
00000000
00000000
00000100
00000000
00000000
00000010
00000000
00000000
00001000
00000000
00000001
00000000
00001000
00000000
00000100
00000000
00000000
00000010
00000000
00000000
,  // measure 49
00000001
00000000
00000100
00000000
00000001
00000000
00001000
00000000
00000100
00000000
00001000
00000000
00000010
00000000
00000100
00000000
00000010
00000000
00010000
00000000
00000000
00001000
00000000
00000000
,  // measure 50
00001000
00000000
00000000
01000000
00000000
00000000
01000000
00000000
00000000
00100000
00000000
00000000
10000000
00000000
01000000
00000000
10000000
00000000
00010000
00000000
01000000
00000000
00010000
00000000
,  // measure 51
00100000
00000000
01000000
00000000
00100000
00000000
00001000
00000000
00000000
00010000
00000000
00000000
00010000
00000000
00000000
00000100
00000000
00000000
00000100
00000000
00000000
00000010
00000000
00000000
,  // measure 52
00000001
00000010
00000001
00000100
00000010
00000100
00001000
00010000
00001000
00100000
00010000
00100000
,  // measure 53
01000000
10000000
01000000
00100000
00010000
10000000
00020000
00000000
00000000
00000000
00000000
00000000
,  // measure 54
00000000
00000000
10030000
01000000
10000000
00000000
00000000
00000000
00000000
00000000
00000000
00000000
00010000
10000000
00010000
10000000
,  // measure 55
00020000
00000000
00000000
00000000
00000000
00000000
00130000
01000000
00100000
00000000
00001000
00000000
00020000
00000000
00000000
00000000
,  // measure 56
00030100
00000000
00010000
00000000
00000010
00000000
00010000
00000000
00000200
00000000
00000000
00000000
00000000
00000000
00001300
00000001
,  // measure 57
00001000
00000001
00000200
00000000
00000000
00000310
00010000
00001000
,  // measure 58
01000000
00100000
01000000
00100000
01000000
00000000
00001000
00000000
00010000
00000000
00000100
00000000
00000010
00000100
00000010
00000100
,  // measure 59
00000010
00000100
00010000
00001000
02000000
00000000
00000000
00100000
,  // measure 60
00000000
00000000
13000000
01000000
00010000
00000000
01010000
00000000
,  // measure 61
21000000
00000000
00000000
00000000
00000000
00000000
30010000
01000000
00010000
00000000
00100000
00000000
00002000
00000000
00000000
00000000
,  // measure 62
00013000
00000000
00000100
00000000
00000010
00000000
00000100
00000000
00020000
00000000
00000000
00000000
00000000
00000000
00030010
00001000
,  // measure 63
00000010
00000100
00000002
00000000
00000023
00000000
00000230
00000000
,  // measure 64
00020300
00000000
00000000
00000000
00000000
00000000
00031000
00010000
00001000
00000000
01000000
00000000
00200000
00000000
00000000
00000000
,  // measure 65
00000000
01300000
00001000
00010000
00020000
00000000
00000000
00000000
,  // measure 66
00000000
00000000
00000000
00000000
00032000
00000000
00000000
00000000
00000000
00000000
00000000
00000000
00003100
00000010
00000100
00000010
,  // measure 67
00000100
00000000
00000000
00000000
00000000
00000000
00000001
00000010
00000001
00000000
00001000
00000000
00000100
00000000
00000000
00000000
,  // measure 68
00000000
00000000
00000000
00000000
00010000
00000000
00000000
00000000
00001000
00000000
00000000
00000000
00000000
00000000
01000000
00100000
,  // measure 69
01000000
00010000
10000000
00000000
00000000
01000000
00100000
00001000
,  // measure 70
00010000
00000100
00010000
00000100
00010000
00000000
00000010
00000000
00001000
00000000
00000100
00000000
00010000
00001000
00010000
00001000
,  // measure 71
00010000
00001000
01000000
00100000
10100000
00000000
00000000
00110000
,  // measure 72
00000000
00000000
00011000
00000000
00000000
00001100
00000000
00000000
,  // measure 73
00000100
00000000
00001000
00000100
00001000
00000000
00000001
00000100
00000001
00000000
00000010
00000000
00000200
00000000
00000000
00000000
,  // measure 74
00010300
00000000
00001000
00000000
01000000
00000000
00010000
00000000
00100000
00000000
00010000
01000000
00010000
00000000
10000000
01000000
,  // measure 75
10000000
00010000
00200000
00000000
00302000
00000000
00023000
00000000
,  // measure 76
00030100
00000000
00001000
00000010
00001000
00000000
00000001
00000010
00000001
00000000
00001000
00000000
00000200
00000000
00000000
00000000
,  // measure 77
00000000
00000000
00000000
00000000
00010300
00000000
00000000
00000000
00001000
00000000
00000000
00000000
00100000
00000000
00000000
00000000
01000000
00000000
10000000
00100000
10000000
00000000
00010000
00100000
00010000
00000000
01000000
00000000
00002000
00000000
00000000
00000000
,  // measure 78
00000000
00013000
00000100
00000010
00000100
00000000
00010000
00000100
00010000
00000000
00001000
01000000
00001000
00000000
00010000
00000000
,  // measure 79
02000000
00000000
00000000
00000000
00000000
00000000
00000000
00000000
00000000
13000000
00000000
00000000
00100000
00000000
00000000
01000000
00000000
00000000
00010000
00000000
00100000
00000000
01000000
00000000
,  // measure 80
10000000
01000000
00100000
00001000
00010000
00000100
00000010
00000001
00000010
00000100
00010000
00001000
,  // measure 81
00100000
01000000
10000000
00020000
00000000
00000000
00000000
00000000
00000000
00000000
00000000
00000000
,  // measure 82
00000000
00000000
00000000
00000000
,  // measure 83
00000000
00000000
00000000
00000000
,  // measure 84
00000000
00030000
00000000
00000000
;

//---------------dance-single - ----------------
#NOTES:
     dance-single:
     :
     Medium:
     7:
     0.614,0.705,0.195,0.669,0.025:
0000
0000
0000
0000
,
0000
0000
0000
0000
,
0000
0000
0000
0000
,
0001
0010
0100
1000
0010
0100
0002
0000
,
0000
0000
1003
0100
2000
0000
3010
0100
,
0001
0100
0010
1000
0200
0000
0320
0000
,
0031
0010
0100
1000
0010
0100
0002
0000
,
0000
0000
0000
0000
1003
0000
0100
0000
0010
0000
0000
0100
0000
0000
1000
0000
,
0001
0100
0020
0000
0000
0000
0000
0000
,
1030
0001
0010
0100
1000
0010
0200
0000
,
0000
0000
0301
0010
0002
0000
0013
0100
,
1000
0100
0010
0001
2000
0000
3020
0000
,
0130
0000
0001
0000
0010
0000
0100
0000
1000
0000
0010
0000
0100
0000
0000
0001
,
0000
0100
0010
1000
2000
0000
0000
0000
,
3000
0001
0200
0000
0000
0000
0300
0000
,
1001
0000
0000
0001
0010
0100
1000
0000
,
0001
0000
0101
0000
1001
0000
1000
1000
,
0001
0001
0100
0010
0100
0001
0100
0010
,
1000
0000
0000
0001
0010
0001
1000
0000
,
0010
0000
0100
0000
0001
0100
0010
1000
,
0001
0000
1000
0100
0010
0001
1000
0000
,
1001
0000
0000
0001
0010
0100
1000
0000
,
1000
0000
1100
0000
1001
0000
0001
0001
,
1000
1000
0100
0010
0001
0010
0100
1000
,
0010
0000
0000
0100
0001
1000
0100
0000
,
0010
0000
0100
0000
1000
0010
0100
0001
,
1000
0000
0001
0010
0100
1000
0001
0000
,
2000
0000
0000
3001
0010
0001
0200
0000
,
0320
0230
0302
0023
,
0230
0000
0301
0100
1000
0001
1000
0100
,
0020
0000
0000
0031
0010
0100
0020
0000
,
0032
0000
2003
0000
3001
0100
1000
0100
,
0001
0000
1000
0100
0001
0100
1000
0000
,
0002
0000
0000
1003
0010
1000
0200
0000
,
0320
0230
2300
3020
,
0230
0000
1300
0100
0001
1000
0001
0100
,
0020
0000
0000
1030
0010
0100
0020
0000
,
2030
0000
3002
0000
1003
0100
0001
0100
,
1000
0000
0001
0100
1000
0100
0001
0000
,
2100
0000
3001
0102
,
0000
1003
0002
0013
,
0100
0000
0100
0000
0010
0001
1000
0000
,
0102
0000
1003
2100
,
0000
3001
2000
3010
,
0100
0000
0100
0000
0010
1000
0001
0000
,
0012
0000
1003
2010
,
0000
3001
2000
3100
,
0010
0000
0010
0000
0100
1000
0001
0000
,
2000
0000
3200
0000
0320
0000
0031
0010
,
0100
1000
0100
0010
0002
0000
0203
0000
,
0320
0000
1030
0010
0100
0001
0100
0010
,
2000
3200
0320
0032
,
0203
0320
2030
0000
,
0000
0001
0001
0000
3000
0000
0001
0100
,
0010
0000
1000
0100
0010
0100
1000
0000
,
0001
0000
0100
0010
1000
0000
0001
0010
,
0100
0010
0001
0000
1000
0010
0100
0001
,
0100
0100
0100
0000
0001
0000
0010
0010
,
0010
0000
0100
1000
0001
0000
0000
0100
,
0000
0110
2000
3200
,
0320
0000
0031
0010
0001
0100
1000
0000
,
0100
0001
1000
0000
0200
0000
1300
0010
,
1000
0100
0001
0000
0200
0000
2300
0000
,
3002
0000
0013
0100
1000
0001
0200
0000
,
0310
1000
0001
0000
2002
0000
0000
0000
,
3003
0220
0000
0330
,
1000
0000
0001
0100
0001
0000
0020
0000
,
0031
0000
1000
0000
0001
0000
1000
0100
,
1000
0020
1030
0001
,
0100
0010
0100
0000
0001
0000
0010
0100
,
0010
0000
0001
0000
1000
0000
0000
0001
,
0000
0000
0110
0000
0000
1001
0000
0000
,
0001
0010
0001
0010
0100
1000
0020
0000
,
0230
0000
0302
0000
1003
0010
1000
0010
,
0100
0001
0020
0000
0230
0000
2300
0000
,
3001
0100
0001
0100
1000
0100
0002
0000
,
1003
0000
0100
0000
0010
0000
0000
0000
0001
0100
0001
0000
1000
0100
1000
0000
,
0001
0010
0100
1000
0001
0000
0100
0000
1000
0000
0100
0000
0001
0000
0010
0000
,
0100
0000
1000
0100
0001
0100
1100
0000
,
0000
0101
0000
0000
0011
0000
1010
0000
,
1001
0220
0000
0000
,
0000
0000
0000
0000
,
0000
0000
0000
0000
,
0000
0330
0000
0000
;

//---------------dance-single - ----------------
#NOTES:
     dance-single:
     :
     Easy:
     5:
     0.367,0.494,0.068,0.195,0.000:
0000
0000
0000
0000
,
0000
0000
0000
0000
,
0000
0000
0000
0000
,
1000
0001
0100
0020
,
0000
0130
0002
1003
,
0100
0010
0100
1000
,
0001
1000
0100
0020
,
0000
0130
1000
0001
,
1000
0020
0000
0030
,
0100
0001
0010
0200
,
0000
1300
0020
0130
,
0001
1000
0001
0010
,
0100
1000
0010
0100
,
0001
1000
2000
0000
,
3000
0002
0000
0003
,
0100
0000
0010
1000
,
0001
0010
0100
1000
,
1000
1000
0100
0010
,
0001
0000
1000
0100
,
1000
0010
0100
0000
,
0100
0001
0000
0001
,
0010
0000
0100
1000
,
0001
0100
0010
1000
,
1000
1000
0010
0100
,
0001
0000
1000
0010
,
1000
0100
0010
0000
,
0010
0001
0000
0001
,
1000
0000
0000
1000
0100
0000
0010
0000
,
0001
0100
0001
1000
,
0100
1000
0001
0100
,
0010
0000
0000
0010
1000
0000
0100
0000
,
0010
0001
0100
0100
,
1000
0100
0100
0001
,
1000
0000
0000
1000
0010
0000
0100
0000
,
0001
0010
0001
1000
,
0010
1000
0001
0010
,
0100
0000
0000
0100
1000
0000
0010
0000
,
0100
0001
0010
0010
,
1000
0010
0010
0001
,
2000
3000
0100
0020
,
0030
0001
1000
0100
,
0001
0001
0100
1000
,
0002
0003
0100
0020
,
0030
1000
0001
0100
,
1000
1000
0100
0001
,
2000
3000
0010
0200
,
0300
0001
1000
0010
,
0001
0001
0010
1000
,
0002
0023
0230
1300
,
0001
0010
0200
0320
,
0032
1003
0100
0010
,
0001
0100
1000
0010
,
0001
1000
0200
0000
,
0000
0020
0330
0001
,
0001
0000
0100
0010
0100
0000
0001
0000
,
0000
0000
1000
0000
0001
0000
0100
0010
,
0100
0001
1000
0100
,
0010
0010
0100
1000
,
1000
0100
0010
0000
,
0000
1001
0000
0000
,
0001
0100
1000
0100
,
0001
0001
1000
0100
,
0001
0100
1000
1000
,
0010
1000
0100
0010
,
0001
0100
0010
0000
,
0000
1001
0000
0000
,
1000
0000
0000
1000
0100
0000
0010
0000
,
0000
0000
0001
0000
0100
0000
0000
0100
,
0001
0010
0000
0100
,
1000
1000
0100
0001
,
0001
0000
0100
0000
1000
0000
0000
0001
,
0000
0000
0100
0000
0000
0010
0000
0000
,
0100
1001
1001
0100
,
0000
0010
0100
1001
,
1001
0100
0010
0010
,
0100
1001
1001
0100
,
0000
0000
0010
0000
1000
0100
0010
0001
,
0000
0010
0100
0000
1000
0000
0010
0000
,
0001
0100
0001
0010
,
0000
1000
0000
0000
0001
0000
0001
0000
,
0001
0200
0000
0000
,
0000
0000
0000
0000
,
0000
0000
0000
0000
,
0000
0300
0000
0000
;

//---------------dance-single - ----------------
#NOTES:
     dance-single:
     :
     Beginner:
     2:
     0.203,0.247,0.000,0.152,0.000:
0000
0000
0000
0000
,
0000
0000
0000
0000
,
0000
0000
0000
0000
,
1000
0000
0000
0001
,
0000
0000
0010
0000
,
0000
0100
0000
0000
,
1000
0000
0000
0010
,
0000
0000
0100
0000
,
0000
0001
0000
0000
,
0010
0000
0100
0100
,
0000
1000
1000
0000
,
0001
0001
0000
0100
,
0100
0000
0010
0010
,
0000
1000
1000
0000
,
0001
0001
0000
0000
,
1000
0000
0000
0100
,
0000
0000
0010
0010
,
0010
0010
0000
0000
,
0001
0000
0000
0100
,
0000
0000
0010
0000
,
0100
0100
0000
0010
,
0010
0000
0000
1000
,
0000
0000
0100
0100
,
0100
0100
0000
0000
,
0010
0000
0000
0001
,
0000
0000
0100
0000
,
0010
0010
0000
1000
,
1000
0000
0001
0001
,
0000
1000
1000
0000
,
0000
0010
0000
0100
,
0100
0000
0001
0001
,
0000
0000
1000
0000
,
0000
0001
0000
0000
,
0100
0000
0010
0010
,
0000
1000
1000
0000
,
0000
0001
0000
0000
,
0010
0000
0100
0100
,
0000
1000
1000
0000
,
0000
0001
0000
0000
,
2000
3000
0000
0002
,
0003
0000
2000
3000
,
0000
0002
0003
0000
,
0200
0300
0000
0020
,
0030
0000
0200
0300
,
0000
0020
0030
0000
,
2000
3000
0000
0200
,
0300
0000
2000
3000
,
0000
0200
0300
0000
,
0010
0010
0010
0010
,
0000
0000
0001
0001
,
0001
0001
0000
0000
,
1000
0000
1000
0001
,
0000
0001
1000
0000
,
0000
0000
0000
0000
,
0010
0000
0000
0001
,
0000
0000
0100
0000
,
0000
0010
0000
0000
,
1000
1000
0000
0001
,
0001
0000
1000
0000
,
0000
0100
0000
0000
,
0010
0010
0000
0001
,
0000
0000
0100
0100
,
0000
0010
0000
0000
,
1000
1000
0000
0100
,
0000
0000
0020
0030
,
0000
0002
0003
0000
,
1000
0000
1000
0001
,
0000
0000
0001
0000
,
0001
1000
0000
0000
,
0100
0100
0000
0010
,
0010
0000
0002
0003
,
0000
2000
3000
0000
,
0001
0001
0001
0001
,
0000
0000
1000
1000
,
1000
1000
0000
0000
,
0100
0100
0100
0100
,
0000
0000
0000
0000
0020
0000
0000
0030
,
0000
0001
0000
0000
,
1000
0000
0000
0100
,
0000
0100
0000
0000
0100
0000
0100
0000
,
0100
0200
0000
0000
,
0000
0000
0000
0000
,
0000
0000
0000
0000
,
0000
0300
0000
0000
;

//---------------dance-double - ----------------
#NOTES:
     dance-double:
     :
     Medium:
     7:
     0.520,0.599,0.042,0.381,0.000: // measure 1
00000000
00000000
00000000
00000000
,  // measure 2
00000000
00000000
00000000
00000000
,  // measure 3
00000000
00000000
00000000
00000000
,  // measure 4
00021000
00000000
00000000
02030000
,  // measure 5
00000000
00000000
23000000
00000000
,  // measure 6
00000000
00000000
30100000
00000000
00000000
00010000
00000000
00000000
,  // measure 7
00002000
00000000
00000000
00003200
,  // measure 8
00000000
00000000
00000000
00000000
00000301
00000000
00000000
00000010
,  // measure 9
00000000
00000100
00020000
00031000
,  // measure 10
01000000
00100000
10000000
01000000
,  // measure 11
00010000
00001000
00000100
00000010
,  // measure 12
00010000
00001000
00100000
00010000
,  // measure 13
01000000
10000000
01000000
00010000
,  // measure 14
00100000
00001000
00010000
00000100
,  // measure 15
00001000
00000000
00000001
00000100
00000001
00000100
00000001
00000000
,  // measure 16
00001000
00000000
00000100
00010000
00001000
00010000
00000100
00000000
,  // measure 17
00010000
00001000
01000000
01010000
,  // measure 18
11000000
00000000
10000000
00010000
01000000
00010000
10000000
01000000
,  // measure 19
00100000
00000000
00001000
00010000
00001000
00000100
00000010
00000000
,  // measure 20
00001000
00000000
00000100
00000000
00010000
00001000
00010000
00000100
,  // measure 21
00010000
00000000
00001000
00010000
00001000
01000000
00001000
00100000
,  // measure 22
00010000
00000000
01000000
00001000
00010000
00001000
01000000
00000000
,  // measure 23
00001000
00010000
00000100
00001100
,  // measure 24
00000101
00000000
00000001
00001000
00000100
00001000
00000001
00000100
,  // measure 25
00000010
00000000
00010000
00001000
00010000
01000000
00100000
00000000
,  // measure 26
00010000
00000000
01000000
00000000
00001000
00100000
00001000
01000000
,  // measure 27
00001000
00000000
00010000
00000010
00010000
00000100
00010000
00000000
,  // measure 28
00002000
00000000
00013000
00000100
00000010
00000100
00010000
00000000
,  // measure 29
00000010
00000100
00000001
00002000
,  // measure 30
00003200
00000000
00000310
00000100
00010000
00001000
01000000
00010000
,  // measure 31
00100000
00000000
01000000
10000000
00100000
10000000
01000000
00000000
,  // measure 32
00020000
00000000
00032000
00000000
00003100
00000001
00000100
00000001
,  // measure 33
00000010
00000000
00000100
00001000
00000100
00001000
00000010
00000000
,  // measure 34
00020000
00000000
00031000
01000000
00100000
01000000
00001000
00000000
,  // measure 35
00100000
01000000
10000000
00020000
,  // measure 36
02030000
00000000
03100000
01000000
00001000
00010000
00000100
00001000
,  // measure 37
00000010
00000000
00000100
00000001
00000010
00000001
00000100
00000000
,  // measure 38
00002000
00000000
00023000
00000000
01030000
10000000
01000000
10000000
,  // measure 39
00100000
00000000
01000000
00010000
01000000
00010000
00100000
00000000
,  // measure 40
00020000
00000000
00031000
00000002
,  // measure 41
00000000
00001003
00010000
10000000
,  // measure 42
01000000
01000000
00100000
00010000
,  // measure 43
00002000
00000000
00013000
20000000
,  // measure 44
00000000
30010000
00001000
00000001
,  // measure 45
00000100
00000100
00000010
00001000
,  // measure 46
00020000
00000000
00031000
00000002
,  // measure 47
00000000
00001003
00010000
10000000
,  // measure 48
01000000
01000000
00010000
00001000
,  // measure 49
00020000
02030000
23000000
31000000
,  // measure 50
00010000
00001000
00000200
00000302
,  // measure 51
00002003
00003001
00000010
00001000
,  // measure 52
00020000
02030000
23000000
30200000
,  // measure 53
00320000
00032000
00003200
00000000
,  // measure 54
00000000
00000010
00000310
00000000
00000000
00000000
00001000
00000001
,  // measure 55
00001000
00000000
00000001
00000010
00000100
00000010
00000001
00000000
,  // measure 56
00001000
00000000
00000100
00000000
00010000
00000000
00001000
01000000
,  // measure 57
00100000
01000000
00010000
00000000
10000000
00000000
01000000
00000000
,  // measure 58
00100000
01000000
10000000
00000000
01000000
00000000
00010000
00001000
,  // measure 59
00010000
00000000
00000100
00000000
00001000
00000000
00000010
00000100
,  // measure 60
00000010
00000000
00001000
00000000
00000001
00000010
00000001
00000000
,  // measure 61
00000100
00000000
00000010
00001000
00000100
00010000
00000100
00000000
,  // measure 62
00010000
00000000
00001000
00000000
01000000
00000000
00100000
10000000
,  // measure 63
01000000
00100000
00010000
00000000
00100000
00000000
00001000
00000000
,  // measure 64
00010000
00000000
00000100
00001000
00000010
00000100
00000001
00000000
,  // measure 65
00000010
00000100
00010000
00000000
00002000
00000000
00000000
00000000
,  // measure 66
00000000
00000000
00023000
00000000
00000000
00000000
00031000
01000000
,  // measure 67
00100000
00000000
10000000
01000000
00010000
01000000
10000000
00000000
,  // measure 68
00010000
00000000
00001000
00000000
00000001
00000000
00001000
00000010
,  // measure 69
00000001
00000010
00001000
00000000
00000001
00000000
00001000
00000000
,  // measure 70
00000100
00010000
00001000
00000000
00100000
00000000
00001000
00010000
,  // measure 71
00100000
00000000
10000000
00000000
01000000
00000000
00000000
00010000
,  // measure 72
00000000
00000000
00001000
00000000
00000000
00000010
00000000
00000000
,  // measure 73
00000001
00000100
00000001
00000100
00001000
00010000
02000000
00000000
,  // measure 74
23000000
00000000
30020000
00000000
10030000
00100000
10000000
00100000
,  // measure 75
00010000
00001000
00000020
00000000
00000032
00000000
00000203
00000000
,  // measure 76
00000301
00000100
00001000
00000100
00001000
00010000
00200000
00000000
,  // measure 77
10300000
00010000
10000000
00000000
00010000
10000000
00010000
00001000
,  // measure 78
00000001
00001000
00000100
00010000
00001000
00100000
00010000
01000000
,  // measure 79
00100000
10000000
01000000
00010000
01000000
00100000
00001000
00010000
,  // measure 80
00000100
00001000
00000010
00000100
00000001
00000100
00001000
00010000
,  // measure 81
01000000
10000000
00020000
00000000
00000000
00000000
00000000
00000000
,  // measure 82
00000000
00000000
00000000
00000000
,  // measure 83
00000000
00000000
00000000
00000000
,  // measure 84
00000000
00030000
00000000
00000000
;

//---------------dance-double - ----------------
#NOTES:
     dance-double:
     :
     Easy:
     4:
     0.315,0.353,0.008,0.042,0.000: // measure 1
00000000
00000000
00000000
00000000
,  // measure 2
00000000
00000000
00000000
00000000
,  // measure 3
00000000
00000000
00000000
00000000
,  // measure 4
10000000
00000000
00000000
01000000
,  // measure 5
00000000
00000000
00100000
00000000
,  // measure 6
00000000
00010000
00000000
00000000
,  // measure 7
00001000
00000000
00000000
00000100
,  // measure 8
00000000
00000000
00000010
00000000
,  // measure 9
00000000
00000001
00000000
00000000
,  // measure 10
00001000
00000001
00000001
00000100
,  // measure 11
00000010
00000010
00001000
00000100
,  // measure 12
00000100
00010000
00001000
00001000
,  // measure 13
00100000
00010000
01000000
00100000
,  // measure 14
10000000
01000000
00100000
00001000
,  // measure 15
00010000
00000100
00001000
00000010
,  // measure 16
00000100
00000000
00000100
00000100
,  // measure 17
00000001
00001000
00000100
00000100
,  // measure 18
00001000
00000001
00000100
00000010
,  // measure 19
00001000
00000000
00000100
00010000
,  // measure 20
00001000
00100000
00010000
00010000
,  // measure 21
01000000
00100000
00100000
10000000
,  // measure 22
01000000
00000000
00100000
00010000
,  // measure 23
01000000
00001000
00010000
00010000
,  // measure 24
00001000
01000000
00010000
00100000
,  // measure 25
00001000
00000000
00010000
00000100
,  // measure 26
00001000
00000010
00000100
00000100
,  // measure 27
00000001
00001000
00001000
00000100
,  // measure 28
00000010
00000000
00000100
00001000
,  // measure 29
00000100
00000010
00000001
00000001
,  // measure 30
00000010
00000100
00010000
00001000
,  // measure 31
00100000
00000000
00010000
00100000
,  // measure 32
00010000
01000000
00100000
00100000
,  // measure 33
10000000
01000000
01000000
00100000
,  // measure 34
00010000
00000000
00100000
00001000
,  // measure 35
00010000
00000100
00001000
00001000
,  // measure 36
00000100
00010000
00000100
00001000
,  // measure 37
00000010
00000000
00000100
00000001
,  // measure 38
00000100
00000001
00000010
00000100
,  // measure 39
00001000
00000100
00001000
00000001
,  // measure 40
00000100
00000000
00001000
00010000
,  // measure 41
00000000
00100000
10000000
01000000
,  // measure 42
00100000
00100000
01000000
10000000
,  // measure 43
00100000
00000000
00010000
00001000
,  // measure 44
00000000
00000100
00000001
00000010
,  // measure 45
00000100
00000100
00000010
00000001
,  // measure 46
00000100
00000000
00001000
00010000
,  // measure 47
00000000
00100000
10000000
01000000
,  // measure 48
00010000
00010000
01000000
10000000
,  // measure 49
00100000
00100000
01000000
01000000
,  // measure 50
00000000
00000000
00010000
00010000
,  // measure 51
00100000
00100000
00000000
00000000
,  // measure 52
00001000
00001000
00010000
00010000
,  // measure 53
00000100
00000100
00000020
00000000
,  // measure 54
00000000
00000031
00000000
00000000
,  // measure 55
00001000
00000100
00010000
00000100
,  // measure 56
00000000
00010000
00001000
01000000
,  // measure 57
00001000
00010000
00000000
00001000
,  // measure 58
01000000
01000000
00100000
01000000
,  // measure 59
01000000
00000000
00010000
00000000
00100000
00000000
00000000
01000000
,  // measure 60
00000000
00000000
10000000
00000000
00000000
01000000
00000000
00000000
,  // measure 61
00100000
00001000
00010000
00000100
,  // measure 62
00000000
00000100
00001000
00000010
,  // measure 63
00000100
00000001
00000001
00000010
,  // measure 64
00000100
00001000
00000010
00010000
,  // measure 65
00000000
00010000
00002000
00000000
,  // measure 66
00003000
02000000
00000000
03000000
,  // measure 67
00010000
00000000
10000000
01000000
,  // measure 68
00000000
00010000
00001000
00000000
,  // measure 69
00000100
00000001
00000000
00000010
,  // measure 70
00000100
00000010
00000001
00000100
,  // measure 71
00000001
00000000
00000010
00000000
00000100
00000000
00000000
00010000
,  // measure 72
00000000
00000000
00001000
00000000
00000000
01000000
00000000
00000000
,  // measure 73
00100000
10000000
01000000
00100000
,  // measure 74
00000000
00100000
00001000
00010000
,  // measure 75
00001000
00000100
00000001
00001000
,  // measure 76
00000001
00000010
00000100
00001000
,  // measure 77
00000000
00000000
00001000
00000000
00000100
00010000
00001000
00100000
,  // measure 78
00000000
00100000
00010000
00000000
01000000
00000000
00100000
00000000
,  // measure 79
10000000
00000000
10000000
01000000
,  // measure 80
00000000
00010000
00000000
00000000
00001000
00000000
00000010
00000000
,  // measure 81
00000001
00002002
00000000
00000000
,  // measure 82
00000000
00000000
00000000
00000000
,  // measure 83
00000000
00000000
00000000
00000000
,  // measure 84
00000000
00003003
00000000
00000000
;
