#TITLE:WILD RUSH (FROM NONSTOP MEGAMIX);
#SUBTITLE:;
#ARTIST:FACTOR-X;
#TITLETRANSLIT:;
#SUBTITLETRANSLIT:;
#ARTISTTRANSLIT:;
#GENRE:;
#CREDIT:;
#BANNER:[Round 2] - WILD RUSH (FROM NONSTOP MEGAMIX).png;
#BACKGROUND:[Round 2] - WILD RUSH (FROM NONSTOP MEGAMIX)-bg.png;
#LYRICSPATH:;
#CDTITLE:cdtitle.png;
#MUSIC:[Round 2] - WILD RUSH (FROM NONSTOP MEGAMIX).mp3;
#OFFSET:-0.101;
#SAMPLESTART:17.340;
#SAMPLELENGTH:15.000;
#SELECTABLE:YES;
#DISPLAYBPM:125.000;
#BPMS:0.000=125.000
;
#STOPS:
;
#BGCHANGES:;
#KEYSOUNDS:;
#ATTACKS:;

//---------------dance-single - ----------------
#NOTES:
     dance-single:
     :
     Challenge:
     9:
     0.596,0.526,0.069,0.098,0.712,408.000,7.000,10.000,0.000,0.000,0.000,0.596,0.526,0.069,0.098,0.712,408.000,7.000,10.000,0.000,0.000,0.000:
0000
0000
0000
0000
,
0001
0100
0000
0001
0100
0000
0010
0100
0000
0010
0000
1000
0000
0000
0010
0000
,
1000
0100
0000
1000
0100
0000
0010
0100
0010
0000
0010
0000
0100
1000
0100
0000
,
1000
0010
0000
1000
0010
0000
0100
0001
0000
1000
0000
0001
0000
0000
1000
0000
,
0001
0010
0000
0001
0010
0001
0010
0000
0100
0010
0000
0100
0000
0000
1000
0010
,
1000
0000
0100
0000
0010
0000
0001
0100
0000
0100
0001
0000
1000
0000
0010
0000
,
0001
0000
0010
0000
1000
0000
0100
0000
0010
0001
0010
0000
0100
1000
0100
0000
,
1000
0000
0001
0000
0100
0000
0010
1000
0000
1000
0001
0000
0010
0000
0100
1000
,
0001
0000
0100
0000
0202
0000
0303
0000
0001
1000
0001
0000
1000
0100
0000
1000
,
0100
0000
0000
1000
0010
0000
0010
0100
0000
0100
0001
0000
1000
0000
0001
0000
,
0010
0000
0000
0000
0100
1000
0000
0001
0000
0001
0000
1000
0001
0100
0001
0000
,
1000
0000
0000
0001
0010
0100
0000
0010
0000
0010
0000
0010
0000
0010
0001
0000
,
1000
0000
0100
0000
0020
0000
0030
0000
0001
0010
0001
0000
1000
0001
0000
1000
,
0001
0000
0000
1000
0010
0000
0010
0100
0000
0100
0001
0000
1000
0000
0100
0000
,
0010
0000
0000
0000
0100
1000
0000
0001
0000
0001
0000
1000
0001
0100
0001
0000
,
0100
0000
0000
0010
1000
0001
0000
0100
0000
0100
0000
0100
0000
0100
0010
0000
,
2002
0000
0000
0000
0000
0000
0000
0000
0000
0000
0000
0000
3003
0000
0001
1000
,
0001
0000
0100
0000
0010
0000
1000
0100
0000
0100
0010
0000
0001
0000
1000
0000
,
0010
0000
0001
0000
0010
0000
1000
0000
0001
0010
0001
0000
1000
0100
1000
0000
,
0001
0000
0000
1000
0100
0010
0000
0001
0000
0001
0000
0001
0000
0001
0100
0000
,
0001
0000
0010
0000
0100
0000
1000
0000
0020
0000
0000
0000
0030
0000
0100
0001
,
0100
0000
0010
0000
1000
0000
0001
0010
0000
0001
0010
0000
0100
0000
1000
0000
,
0010
0000
0100
0000
0001
0000
0010
0000
0001
0100
0001
0000
1000
0010
1000
0000
,
0001
0000
0000
1000
0100
0010
0000
0100
0000
0100
0000
0100
0000
0100
1000
0000
,
0010
0000
0100
0000
0001
0000
1000
0000
0001
0010
0001
0010
0002
0000
0003
0000
,
1000
0010
1000
0010
1000
0010
1000
0010
,
1000
0010
1000
0010
1000
0010
1000
0010
,
0100
0001
0100
0001
0100
0001
0100
0001
,
0100
0001
0100
0001
1000
0100
0010
0001
,
0200
0000
0000
0000
,
0000
0000
0000
0300
,
0010
0000
0000
0010
1000
0010
0000
0100
0000
0100
0000
0100
0000
0100
0001
0000
,
1000
0100
1000
0100
1000
0100
1000
0100
0000
0000
0110
0000
1001
0000
0000
0000
,
0001
0000
0100
0000
0001
0000
1000
0100
0000
0010
0001
0000
1000
0000
0010
0000
,
1000
0000
0100
0000
0010
0000
0001
0000
1000
0010
0100
0000
0010
1000
0100
1000
,
0100
0000
0010
0001
0100
0010
0000
0100
0000
0010
0000
0100
0000
0010
0100
0000
,
0001
0000
1000
0000
1001
0000
0001
0000
1000
0100
1000
0000
0001
0010
0100
0010
,
0001
0000
1000
0010
0100
0000
0100
0001
0000
0001
0010
0000
0100
0000
1000
0000
,
0010
0000
0100
0000
0001
0000
1000
0000
0100
0010
0001
0000
1000
0010
0100
0010
,
0100
0000
0010
1000
0001
0010
0000
0100
0000
0010
0000
0100
0000
0010
0100
0000
,
1000
0000
0001
0000
1001
0000
1000
0000
0001
0100
0001
0000
1000
0100
0010
0100
,
1000
0000
0000
0010
0100
0000
0100
0001
0000
0001
0010
0000
0100
0000
1000
0000
,
0010
0000
0000
0000
0100
0001
0000
1000
0000
0001
0000
1000
0100
0010
0001
0000
,
1000
0000
0000
0001
0100
0010
0000
1000
0000
0010
0000
1000
0000
0010
1000
0000
,
0001
0000
0010
0000
0001
0000
0010
0000
0001
0000
0100
0000
0010
1000
0010
1000
,
0010
0000
0000
1000
0100
0000
0100
0010
0000
0010
0001
0000
1000
0000
0010
0000
,
0100
0000
0010
0000
0100
0000
0001
0000
1000
0100
1000
0000
0001
1000
0001
0000
,
2002
0000
0000
0000
,
0000
0000
0000
3003
;

//---------------dance-single - ----------------
#NOTES:
     dance-single:
     :
     Hard:
     7:
     0.452,0.383,0.088,0.059,0.098,307.000,9.000,6.000,0.000,0.000,0.000,0.452,0.383,0.088,0.059,0.098,307.000,9.000,6.000,0.000,0.000,0.000: // measure 0
0000
0000
0000
0000
,  // measure 1
0001
0000
0100
0000
0001
0000
0000
0000
1000
0000
0000
0100
0000
0000
0100
0000
,  // measure 2
1000
0010
1000
0010
0100
0000
0001
0000
,  // measure 3
0010
0000
0100
0000
0010
0000
0000
0000
0100
0000
0000
1000
0000
0000
1000
0000
,  // measure 4
0010
0000
0100
0000
0010
0000
0100
0000
0001
0000
0000
1000
0000
0000
0001
0000
,  // measure 5
0010
0000
0100
0000
1000
0000
0000
0010
0000
0000
0100
0000
0001
0000
0000
0000
,  // measure 6
1000
0100
0001
0100
1000
0000
1100
0000
,  // measure 7
1000
0000
0010
0000
0100
0000
0000
0001
0000
0000
0010
0000
0100
0000
0010
0000
,  // measure 8
0001
0100
0010
0000
0110
0000
1010
0000
,  // measure 9
1000
0000
0001
0000
0010
0000
0000
0100
0000
0010
0100
0000
1000
0000
0001
0000
,  // measure 10
0100
0000
0010
1000
0001
0010
1000
0010
,  // measure 11
0001
0000
1000
0100
1000
0010
0100
0001
,  // measure 12
0010
0000
0100
0000
0100
0000
0000
0000
0010
0000
0001
0000
1000
0001
0000
1000
,  // measure 13
0001
0000
1000
0010
0001
0010
0100
0001
,  // measure 14
0010
0000
0011
0000
0001
0010
0001
0010
,  // measure 15
0100
0000
0010
0001
0100
1000
0100
0010
,  // measure 16
2000
0000
0000
0000
0000
0000
3000
0001
,  // measure 17
0010
0000
0001
0000
0100
0000
0000
0010
0000
0100
0010
0000
1000
0000
0001
0000
,  // measure 18
1000
0100
0001
0100
1000
0010
0100
0000
,  // measure 19
0101
0000
0001
1000
0010
0001
0010
0100
,  // measure 20
0001
0000
0010
0000
0100
0000
1000
0000
0020
0000
0000
0000
0030
0000
0100
0010
,  // measure 21
0100
0000
0010
0000
1000
0000
0000
0001
0000
0000
1000
0000
0100
0000
0010
0000
,  // measure 22
0100
1000
0001
0100
1000
0100
0001
0010
,  // measure 23
0100
0000
1100
0000
1000
0001
0010
0100
,  // measure 24
0010
0001
0100
0010
1000
0001
0020
0030
,  // measure 25
0100
1000
0100
1000
0100
1000
0100
1000
,  // measure 26
0100
1000
0100
1000
0100
1000
0100
1000
,  // measure 27
0001
0010
0001
0010
0001
0010
0001
0010
,  // measure 28
0001
0010
0001
0010
0001
0010
0100
1000
,  // measure 29
0200
0000
0000
0000
,  // measure 30
0000
0000
0000
0300
,  // measure 31
1100
0000
1000
0010
0001
0010
1000
0001
,  // measure 32
0010
0100
0010
0100
0000
0010
0110
0000
,  // measure 33
0100
1000
0001
0000
1000
0010
0100
0001
,  // measure 34
0010
0000
0100
0000
0010
0000
0000
0000
0001
0000
1000
0000
0001
0100
0000
0000
,  // measure 35
0001
0010
0100
0000
1000
0010
0001
0010
,  // measure 36
1000
0000
0001
0000
0010
0000
0000
0000
0100
0000
0010
0000
0001
1000
0000
0001
,  // measure 37
1000
0000
0010
0100
0010
0100
0001
0000
,  // measure 38
1000
0000
0100
0000
0010
0000
0100
0000
1000
0000
0001
0000
0100
0001
0000
0000
,  // measure 39
0010
0100
0010
0000
0100
1000
0001
0100
,  // measure 40
1000
0000
0100
0000
0001
0000
0010
0000
0100
0000
1000
0000
0001
1000
0000
0001
,  // measure 41
1000
0000
0010
0100
0010
1000
0001
0000
,  // measure 42
0010
0100
0010
0001
1000
0001
0100
0010
,  // measure 43
1000
0000
0001
0010
0100
0010
0001
0100
,  // measure 44
0010
1000
0010
1000
0100
0010
0001
1000
,  // measure 45
0100
0000
0010
0100
1000
0010
0100
0000
,  // measure 46
0010
0000
0100
0000
0001
0000
1000
0000
0100
0000
0010
0000
0001
1000
0000
0000
,  // measure 47
2002
0000
0000
0000
,  // measure 48
0000
0000
0000
3003
;

//---------------dance-single - ----------------
#NOTES:
     dance-single:
     :
     Medium:
     4:
     0.280,0.263,0.088,0.059,0.000,185.000,9.000,6.000,0.000,0.000,0.000,0.280,0.263,0.088,0.059,0.000,185.000,9.000,6.000,0.000,0.000,0.000:
0000
0000
0000
0000
,
0001
0000
0100
0000
0001
0000
0100
0010
,
0100
0000
0010
0000
1000
0010
1000
0010
,
1000
0000
0100
0000
1000
0000
0100
0010
,
0100
0000
0010
0000
0100
0000
0010
0001
,
0010
0001
0100
1000
,
0010
0000
0001
0000
0100
0010
0100
0000
,
0010
1000
0100
0001
,
0010
0000
1000
0000
0100
0010
0100
0000
,
0010
0001
1001
0000
,
1000
0000
0010
0000
0100
0001
0100
0000
,
0010
1000
1001
0000
,
0001
0010
0100
1000
,
0001
0001
0101
0000
,
1000
0100
0010
0001
,
1000
1000
1010
1000
,
0002
0000
0000
0003
,
1000
0100
0001
0010
,
1000
0000
0100
0000
0010
0001
0010
0000
,
0001
0100
1000
0010
,
0001
0000
0100
0000
0020
0000
0030
0100
,
0010
1000
0001
1000
,
0100
0001
0010
1000
,
0001
0010
0001
0100
,
1000
0000
0010
0000
0001
0000
2000
3000
,
0010
0100
0010
0100
,
0010
0100
0010
0100
,
0001
1000
0001
1000
,
0001
1000
0001
1000
,
0200
0000
0000
0000
,
0000
0000
0000
0300
,
1000
0000
1010
0000
0010
1000
0010
0000
,
1000
0001
1000
1001
,
0001
0000
0010
0000
0001
0010
0001
0000
,
0010
1000
0100
0001
,
1000
0000
0100
0000
1000
0100
1000
0000
,
0001
1000
1001
0000
,
1000
0000
0010
0000
1000
0010
1000
0000
,
0010
0001
0100
1000
,
0001
0000
0100
0000
0001
0100
0001
0000
,
1000
0001
1001
0000
,
1000
0100
0010
0100
,
1000
0000
0010
0000
0100
0001
0100
0000
,
0001
0010
0100
0010
,
0001
0100
0010
1000
,
0001
0010
1000
0100
,
0001
0010
0100
1000
,
2002
0000
0000
0000
,
0000
0000
0000
3003
;

//---------------dance-single - ----------------
#NOTES:
     dance-single:
     :
     Easy:
     3:
     0.241,0.215,0.039,0.059,0.000,162.000,4.000,6.000,0.000,0.000,0.000,0.241,0.215,0.039,0.059,0.000,162.000,4.000,6.000,0.000,0.000,0.000:
0000
0000
0000
0000
,
0001
0000
0001
0000
,
1000
0000
0100
0100
,
1000
0000
1000
0000
,
0001
0000
0100
0100
,
0001
0010
0001
0000
,
1000
0100
1000
0001
,
1000
0010
1000
0000
,
0001
0100
0001
1000
,
0001
0001
1000
0001
,
1000
1000
0001
1000
,
0100
0100
0010
0100
,
0010
0010
0100
1000
,
0001
0100
0001
0000
,
1000
0100
1000
0100
,
0010
0001
0010
0001
,
2000
0000
0000
3000
,
0001
0001
1000
0100
,
1000
1000
0010
0100
,
0001
0001
1000
0001
,
0010
0100
0020
0030
,
0001
0001
1000
0001
,
1000
1000
0001
1000
,
0010
0010
0100
0010
,
0100
0000
0100
0000
0010
0000
2000
3000
,
0001
1000
0001
1000
,
0001
1000
0001
1000
,
0001
1000
0001
1000
,
0001
1000
0001
0010
,
0200
0000
0000
0000
,
0000
0000
0000
0300
,
1000
1000
0001
0001
,
1000
0001
1000
1001
,
0001
0001
0100
0001
,
1000
1000
0010
1000
,
0001
0001
0010
0001
,
1000
0001
1001
0000
,
1000
1000
0100
1000
,
0001
0001
0100
0001
,
1000
1000
0010
1000
,
0001
1000
1001
0000
,
0001
0001
1000
0001
,
1000
1000
0001
1000
,
0100
0100
0010
0100
,
0010
0001
0010
0001
,
1000
0010
1000
0000
,
0001
0100
0001
1000
,
2002
0000
0000
0000
,
0000
0000
0000
3003
;
