#TITLE:SIN;
#SUBTITLE:;
#ARTIST:ESTi;
#TITLETRANSLIT:;
#SUBTITLETRANSLIT:;
#ARTISTTRANSLIT:;
#GENRE:;
#CREDIT:;
#BANNER:[Round 2] - SIN-bn.png;
#BACKGROUND:[Round 2] - SIN-bg.png;
#LYRICSPATH:;
#CDTITLE:TaroNuke.png;
#MUSIC:[Round 2] - SIN.ogg;
#OFFSET:-0.144;
#SAMPLESTART:72.100;
#SAMPLELENGTH:10.100;
#SELECTABLE:YES;
#DISPLAYBPM:190.000;
#BPMS:0.000=190.000;
#STOPS:;
#BGCHANGES:0.000=[Round 2] - SIN.avi=1.000=1=0=0=StretchNoLoop==CrossFade==,
99999=-nosongbg-=1.000=0=0=0 // don't automatically add -songbackground-
;
#KEYSOUNDS:;

//---------------dance-single - TaroNuke----------------
#NOTES:
     dance-single:
     TaroNuke:
     Medium:
     6:
     0.415,0.501,0.122,0.461,0.009:
0000
0000
0000
0000
,
0000
0000
0000
0000
,
0000
0000
0000
0000
,
0000
0000
0000
0000
,
1000
0100
1000
0100
,
0010
0001
0010
0001
,
1000
0001
0100
0001
,
1000
0000
0001
0000
1000
0100
0010
0000
,
0001
0100
0001
0000
1000
0100
1000
0000
,
0001
0100
0001
0000
,
1000
0010
1000
0000
0001
0010
0001
0000
,
1000
0001
1000
0000
,
0001
0100
1000
0000
0100
0010
1000
0000
,
0100
0010
0100
0010
,
2002
0000
0000
0000
,
0000
0000
3003
0000
,
1000
0000
0000
0010
0000
0000
0100
0000
,
0000
0002
0000
0000
1003
0000
0000
0000
,
0002
0000
0000
2003
0000
0000
3020
0000
,
0030
0000
1010
0000
,
2000
0000
0000
3002
0000
0000
0023
0000
,
0030
0000
0011
0000
,
0002
0000
0000
0203
0000
0000
2300
0000
,
3000
0000
1100
0000
,
2000
0000
0000
3020
0000
0000
0032
0000
,
0003
0000
0011
0000
,
2002
0000
0000
0000
,
0000
0000
3003
0000
,
0001
0000
0000
0100
0000
0000
1000
0000
,
0000
0100
0000
0000
0001
0000
0010
0000
,
0100
0000
0000
0001
0000
0000
1000
0000
,
0000
0010
0000
0000
0001
0000
0001
0000
,
1000
0000
0000
0100
0000
0000
0001
0000
,
0000
0100
0000
0000
1000
0000
0010
0000
,
0200
0000
0000
0302
0000
0000
1003
0000
,
0000
0000
0000
0000
0000
0000
0001
0000
0100
0000
0001
0000
,
2000
0000
3200
0000
,
0302
0000
0023
0000
,
0030
0000
0000
0000
,
1000
0010
0100
0001
,
0010
0100
1000
0000
0001
0010
0100
0000
,
1000
0100
0010
0001
,
0100
0010
1000
0000
0001
0100
0010
0000
,
1000
0001
0100
0010
,
1000
0100
0001
0000
0100
0010
0001
0000
,
0200
0000
0000
0320
0000
0000
2030
0000
,
0000
3200
0000
0000
0310
0000
0000
0000
,
2002
3003
0000
0000
,
1000
0000
0001
0000
,
0220
0330
0000
0000
,
1001
0000
2000
0000
,
3010
0000
0000
0000
,
0101
0000
0000
0000
,
2002
0000
0000
0000
,
3003
0000
0000
0000
,
0001
0000
0000
0010
0000
0000
0100
0000
,
0000
2000
0000
0000
3001
0000
0000
0000
,
1000
0010
0100
0001
,
0010
0100
0010
0001
0010
0100
0010
0000
,
0001
0010
0100
1000
,
0010
0100
0010
1000
0010
0100
0010
0000
,
2000
3000
0020
0030
,
0200
0300
0002
1003
,
1000
0010
0100
0001
,
0010
0100
0010
0000
1001
0000
0000
0000
,
1000
0100
1000
0000
0010
1000
0000
0001
,
1000
0000
0010
1000
0000
0100
1000
0000
,
0001
0100
0001
0000
0010
0001
0000
1000
,
0001
0000
0010
0001
0000
0100
0001
0000
,
1000
0010
1000
0000
0001
0100
0000
0010
,
1000
0000
0001
0010
0100
1000
0100
0010
,
0001
0100
0001
0000
1000
0100
0000
0010
,
0001
0100
0010
0010
,
2000
0000
0000
0000
,
0000
0000
0000
0000
,
3200
0000
0000
0000
,
0320
0032
2003
3020
,
0230
0000
0302
0000
,
0023
0000
0230
0000
,
2300
0000
0000
0000
,
3002
0000
0000
0003
,
1000
0010
1000
0000
0001
0010
0001
0000
,
1000
0010
1000
0000
,
0001
0100
0001
0000
1000
0100
1000
0000
,
0001
0100
0001
0000
,
1000
0100
0001
0000
0100
0010
0001
0000
,
0100
0010
0100
0010
,
2002
0000
0000
0000
,
3003
0000
0000
0110
;

//---------------dance-single - TaroNuke----------------
#NOTES:
     dance-single:
     TaroNuke:
     Beginner:
     2:
     0.151,0.309,0.035,0.070,0.000:
0000
0000
0000
0000
,
0000
0000
0000
0000
,
0000
0000
0000
0000
,
0000
0000
0000
0000
,
1000
0000
0000
0000
,
0010
0000
0000
0000
,
0100
0000
0000
0000
,
0001
0000
0000
0000
,
1000
0000
0000
0000
,
0001
0000
0001
0000
,
1000
0000
0000
0000
,
0100
0000
0100
0000
,
0010
0000
0000
0000
,
0100
0000
0000
0000
,
2002
0000
0000
0000
,
0000
0000
0000
0000
,
0000
0000
0000
0000
,
0000
0000
3003
0000
,
1000
0000
0000
0001
0000
0000
0010
0000
,
0000
0000
0000
0000
,
0001
0000
0000
1000
0000
0000
0010
0000
,
0000
0000
0000
0000
,
0010
0000
0000
0100
0000
0000
0001
0000
,
0000
0000
0000
0000
,
0100
0000
0000
0010
0000
0000
1000
0000
,
0000
0000
0000
0000
,
0002
0000
0000
0000
,
0000
0000
0000
0000
,
1003
0000
0000
0000
,
1000
0000
0000
0000
,
0001
0000
0000
0000
,
1001
0000
0000
0000
,
0110
0000
0000
0000
,
0100
0000
0000
0000
,
0010
0000
0000
0000
,
0110
0000
0000
0000
,
2000
3000
0200
0300
,
0020
0030
0002
0003
,
0000
0000
0000
0000
,
1000
0000
0000
0000
,
0001
0000
0000
0000
,
0100
0000
0000
0000
,
0010
0000
0000
0000
,
1000
0000
0000
0000
,
0001
0000
0000
0000
,
0100
0000
0000
0000
,
0010
0000
0000
0000
,
1000
0000
0001
0000
,
1000
0000
0001
0000
,
0100
0000
0000
0000
,
0100
0000
0010
0000
,
1000
0000
0000
0000
,
0001
0000
0000
0000
,
1000
0000
0000
0000
,
0000
0000
0000
0000
,
0001
0000
0000
0001
0000
0000
0001
0000
,
0000
0001
0000
0000
0001
0000
0000
0000
,
1000
0000
1000
0000
,
1000
0000
0001
1000
,
0001
0000
0001
0000
,
0001
0000
1000
0001
,
0100
0000
0100
0000
,
0100
0000
0010
0100
,
0010
0000
0010
0000
,
0010
0000
0000
0000
,
1000
0000
0000
0000
,
1000
0000
0000
0000
,
0100
0000
0000
0000
,
0010
0000
0000
0000
,
1000
0000
0000
0000
,
0010
0000
0000
0000
,
0001
0000
0000
0000
,
1000
0000
1000
0000
,
1000
0000
0000
0000
,
0010
0000
0000
0000
,
0100
0000
0000
0000
,
0010
0000
0000
0000
,
1000
0000
0001
0000
,
0100
0000
0010
0000
,
1000
0000
0000
0000
,
0001
0000
0000
0000
,
1000
0000
1000
0000
,
1000
0000
0000
0000
,
0001
0000
0001
0000
,
0001
0000
0000
0000
,
0100
0000
0100
0000
,
0100
0000
0000
0000
,
0010
0000
0010
0000
,
0020
0000
0000
0000
,
0030
0000
0000
0000
;

//---------------dance-single - TaroNuke----------------
#NOTES:
     dance-single:
     TaroNuke:
     Hard:
     8:
     0.555,0.810,0.287,0.521,0.052:
0000
0000
0000
0000
,
0000
0000
0000
0000
,
0000
0000
0000
0000
,
0000
0000
0000
0000
,
1000
0100
0010
0001
,
0010
0100
1000
0001
,
0100
0010
1000
0010
,
0100
0001
0020
0031
,
1100
0000
0000
0001
,
0101
0100
0001
0010
,
0110
0000
0000
1000
0000
0000
0010
0000
,
0110
0000
0001
0010
,
0110
1000
0001
0100
,
1000
0100
0010
0100
,
2002
0000
0000
0000
,
0000
0000
3003
0000
,
2010
0000
0000
0100
0000
0000
0001
0000
,
0000
3020
0000
0000
1030
0000
0000
0000
,
0002
0000
0000
0203
0000
0000
0320
0000
,
0130
0001
0010
0100
0000
1010
0000
0000
,
2000
0000
0000
3200
0000
0000
0320
0000
,
0130
1000
0010
0100
0000
0011
0000
0000
,
0002
0000
0000
0203
0000
0000
0320
0000
,
1030
0001
0010
0100
0000
1010
0000
0000
,
2000
0000
0000
3200
0000
0000
0320
0000
,
0031
1000
0010
0100
0000
0011
0000
0000
,
2002
0000
0000
0000
,
0000
0000
3003
0110
,
1001
0000
0000
1000
0000
0000
0012
0000
,
0000
0103
0000
0000
0001
0000
0010
0000
,
0021
0000
0000
0130
0000
0000
1020
0000
,
0000
0000
0000
0130
0000
0000
0000
0000
0000
0000
0000
0000
0001
0000
0000
0000
0010
0000
0000
0000
0100
0000
0000
0000
,
1000
0000
0000
0001
0000
0000
0021
0000
,
0000
0000
0000
0030
0000
0000
0000
0000
0000
0000
0000
0000
0100
0000
0000
0000
1000
0000
0000
0000
0001
0000
0000
0000
,
0100
0000
0000
0010
0000
0000
2010
0000
,
0000
0000
0000
3000
0000
0000
0000
0000
0000
0000
0000
0000
0001
0000
0000
0000
0100
0000
0000
0000
0010
0000
0000
0000
,
2000
0000
0000
0100
3200
0000
0000
0010
,
0320
0000
0000
0001
0032
0000
0000
0000
,
1003
0100
1000
0001
0010
0010
0100
0000
,
1000
0000
0001
0100
0000
0100
0010
1000
,
0001
0010
0100
0100
1000
0010
0100
0000
,
0001
0000
1000
0100
0000
0100
0010
0001
,
1000
0010
0100
0002
0000
0000
0013
0100
,
1000
0000
0001
0100
0000
0100
0010
1000
,
0100
0010
0001
0100
0000
0100
0010
1000
,
0002
0000
0000
0023
0000
0000
0230
0000
,
0000
2300
0000
0000
3001
0000
0000
0000
,
2002
3003
0000
0000
,
1000
0000
0100
0000
0010
0000
0001
0000
0010
0000
0100
0000
,
2000
3000
0000
0000
,
0000
0000
0000
0000
0000
0000
1000
0000
0001
0000
0100
0000
,
0020
0030
0000
0000
,
2000
3000
0000
0000
,
0002
0003
0000
0000
,
0000
0000
0000
0000
,
0012
0000
0000
0100
0000
0000
1000
0000
,
0000
0023
0000
0000
0031
0000
0000
0000
,
1001
0000
0000
1000
0100
0001
0100
0010
,
0001
0100
0010
1000
,
1001
0000
0000
0001
0100
1000
0100
0010
,
1000
0100
0010
0001
,
0202
0303
2020
3030
,
2200
3300
0022
0033
,
0001
0100
0010
1000
0100
0010
0100
1000
,
0001
0100
0020
0000
1030
0000
0000
0000
,
1000
0100
1000
0001
0100
0001
1000
0100
,
1000
0001
0100
0001
1000
0010
0100
0001
,
1000
0010
1000
0001
0010
0001
1000
0010
,
1000
0001
0010
0001
1000
0100
0010
0001
,
1000
0010
0100
0001
0010
0100
1000
0010
,
0100
0001
0010
0100
1000
0100
0010
0001
,
1000
0001
0100
0010
1000
0100
0010
0001
,
0200
0320
2030
3020
0230
0302
0203
0320
,
1030
0000
0100
1000
0000
0001
1000
0000
,
0100
0010
0001
0100
0000
0010
1000
0000
,
0001
0000
0100
0001
0000
1000
0001
0000
,
0010
0100
1000
0010
0000
0100
0001
0000
,
1000
0000
0001
0010
0000
0100
0010
0000
,
0001
1000
0010
0100
0000
0100
0001
0010
,
0100
0000
1000
0010
0000
0100
0010
0000
,
1000
0010
1000
0100
0010
0001
0100
0001
,
1000
0000
0001
0100
0001
0000
0100
0000
,
0110
0100
0001
0010
,
0110
0000
0100
1000
0000
0001
0010
0000
,
0110
1000
0001
0100
,
0110
0000
1000
0000
0001
0010
0100
1000
,
0010
1000
0001
0100
,
2002
0000
0000
0000
,
0000
0000
3003
0110
;

//---------------dance-single - TaroNuke----------------
#NOTES:
     dance-single:
     TaroNuke:
     Challenge:
     9:
     0.721,0.751,0.191,0.356,0.156:
0000
0000
0000
0000
,
0000
0000
0000
0000
,
0000
0000
0000
0000
,
0000
0000
0000
0000
,
1000
0100
0010
0010
,
0001
0000
0000
0000
1000
0000
0000
0000
0010
0000
0000
0000
0010
0000
0100
0010
,
1000
0100
0010
0001
0010
0100
1000
0001
,
0100
0010
1000
0001
2000
0000
3010
0000
,
1000
0100
0010
0001
1000
0010
0100
0001
,
1000
0100
0010
0001
1000
0001
0010
0001
,
1000
0001
0100
0010
1000
0001
0010
0100
,
1000
0001
0100
0010
1000
0001
0100
0001
,
1000
0100
0010
0001
1000
0010
0100
0001
,
1000
0100
0010
0001
1000
0001
0010
0001
,
2002
0000
0000
0000
,
0000
0000
3003
0000
,
0001
0000
0000
0100
0000
0000
1000
0000
,
0000
0020
0000
0000
0031
0000
0000
0000
,
0002
0000
0000
0203
0000
0000
2300
0000
,
3100
0001
0010
0100
1000
0010
0100
0001
,
2000
0000
0000
3200
0000
0000
0302
0000
,
0103
1000
0010
0100
0001
0100
0010
1000
,
0002
0000
0000
0203
0000
0000
2300
0000
,
3100
0001
0100
0010
1000
0010
0100
0001
,
2000
0000
0000
3200
0000
0000
0302
0000
,
0103
1000
0010
0100
0001
0010
0100
1000
,
0001
0000
0000
0000
1000
0000
0001
0100
0001
0000
0010
0000
0100
1000
0000
1000
,
0001
0100
0010
1000
0100
0010
1001
0000
,
1000
0000
0000
0001
0000
0000
0100
0000
,
0010
0010
1000
0100
1000
0000
0001
0000
,
0200
0000
0000
0301
0000
0000
2000
0000
,
3100
0000
0000
0100
0000
0000
0010
0000
0000
0001
0000
0000
0100
0000
0000
0000
0010
0000
0000
0000
0100
0000
0000
0000
,
0001
0000
0000
0010
0000
0000
0100
0000
,
1000
0000
0000
1000
0000
0000
0010
0000
0000
0100
0000
0000
0001
0000
0000
0000
0010
0000
0000
0000
0001
0000
0000
0000
,
0200
0000
0000
0320
0000
0000
1030
0000
,
1000
0000
0000
1000
0000
0000
0001
0000
0000
0010
0000
0000
0001
0000
0000
0000
0100
0000
0000
0000
0010
0000
0000
0000
,
1000
0000
0100
0000
1000
0000
0100
0000
0000
1000
0000
0000
0001
0000
0010
0000
0001
0000
0010
0000
0000
0001
0000
0000
,
1000
0000
0010
0000
1000
0000
0010
0000
0000
0100
0000
0000
0001
0000
0000
0010
0000
0000
0100
0000
0000
1000
0000
0000
,
0001
0000
1000
0000
0001
1000
0001
0000
0100
0000
0010
0000
0110
0000
0000
0000
,
1000
0001
0100
0010
1000
0100
0010
0100
,
0001
0100
0010
0100
1000
0010
0100
0000
,
0001
1000
0100
0010
0001
0100
0010
0100
,
1000
0100
0010
0100
0001
0010
0100
0000
,
1000
0001
0100
0010
1000
0100
0010
0100
,
0001
1000
0010
0100
1000
0010
0100
0000
,
0001
1000
0100
0010
0001
0100
0010
0100
,
1000
0001
0010
0100
0001
0010
0100
0000
,
2002
3003
0000
0000
,
1000
0000
0100
0000
0001
0000
1000
0000
0010
0000
0001
0000
,
0200
0300
0000
0000
,
1001
0000
0000
0000
0000
0000
1000
0000
0100
0000
1000
0000
,
0020
0030
0000
0000
,
0202
0303
0000
0000
,
2002
3003
0000
0000
,
0000
0000
0000
0000
,
1000
0000
0000
0100
0000
0000
0001
0000
,
0000
0020
0000
0000
1030
0000
0000
0000
,
0002
0000
0000
0000
0003
0000
1000
0100
0010
0000
0001
0000
0100
0000
0010
0000
,
1010
0000
0000
0000
0110
0000
0000
0000
0101
0000
0000
0000
1001
0000
1000
0100
,
0020
0000
0000
0000
0030
0000
0001
0100
0010
0000
1000
0000
0100
0000
0010
0000
,
0011
0000
0000
0000
0110
0000
0000
0000
1100
0000
0000
0000
0101
0000
0100
0010
,
2000
0000
0000
0000
3000
0000
0001
0010
0100
0000
1000
0000
0010
0000
0100
0000
,
0002
0203
2300
3200
,
0301
0000
0010
0100
1000
0000
0010
0000
0001
0000
0010
0000
0100
0000
0001
0000
,
0010
0100
1000
0000
1001
0000
0000
0000
,
1000
0100
0001
0100
1000
0010
1000
0100
,
0001
0100
1000
0010
1000
0100
0001
0100
,
1000
0010
0001
0010
1000
0100
1000
0010
,
0001
0010
1000
0100
1000
0010
0001
0010
,
1000
0100
0001
1000
0010
0001
1000
0100
,
0001
1000
0010
0001
0100
1000
0100
0010
,
1000
0010
0001
1000
0100
0001
1000
0100
,
0001
0100
0010
0001
0100
0010
1000
0001
,
1000
0000
0100
0000
0000
0000
0011
0000
0000
0000
0001
0000
1000
0001
1000
0001
,
1000
0010
1000
0100
0010
0001
0100
0010
,
0000
1100
0000
0011
0000
1000
0001
0100
,
0020
0000
2030
0000
3002
0000
1003
0100
,
0010
0000
0100
0000
0000
0000
1010
0000
0000
0000
1000
0000
0010
1000
0010
1000
,
0010
0100
0001
1000
0100
0010
0001
0100
,
0010
0100
0000
1001
0000
0001
0010
0100
,
1000
0010
1000
0100
1000
0010
1000
0001
,
1000
0100
0010
0001
1000
0010
0100
0001
,
1000
0100
0010
0001
1000
0001
0010
0001
,
1000
0001
0100
0010
1000
0001
0010
0100
,
1000
0001
0100
0010
1000
0001
0100
0001
,
1000
0100
0010
0001
1000
0010
0100
0001
,
1000
0100
0010
0001
1000
0001
0010
0001
,
1000
0000
0000
0000
0001
0000
1000
0100
1000
0000
0010
0000
0100
0001
0000
0001
,
1000
0100
0010
0001
0100
0010
2002
0000
,
0000
0000
0000
0000
,
0000
0000
0000
0000
,
3003
0000
0000
0000
;

//---------------dance-single - TaroNuke----------------
#NOTES:
     dance-single:
     TaroNuke:
     Easy:
     4:
     0.287,0.463,0.148,0.156,0.000:
0000
0000
0000
0000
,
0000
0000
0000
0000
,
0000
0000
0000
0000
,
0000
0000
0000
0000
,
1000
0000
1000
0000
,
0010
0000
0000
0000
,
0100
0000
0000
0000
,
0001
0000
0010
0000
,
0001
0000
0000
0001
,
0100
0010
1000
0100
,
0010
0000
0000
0000
,
0010
0000
0001
0100
,
0010
0000
1000
0000
,
0001
0000
0010
0000
,
2002
0000
0000
0000
,
3003
0000
0000
0000
,
1000
0000
0000
1000
0000
0000
1000
0000
,
0000
2000
0000
0000
3000
0000
0000
0000
,
0001
0000
0000
0100
0000
0000
0010
0000
,
1000
0000
0000
0000
,
1000
0000
0000
0100
0000
0000
0010
0000
,
0001
0000
0000
0000
0000
0000
0000
0100
,
0100
0000
0000
0010
0000
0000
1000
0000
,
0100
0000
0000
0000
,
0010
0000
0000
0001
0000
0000
0100
0000
,
0010
0000
0000
0000
,
2000
0000
0000
0000
,
0000
0000
3000
0001
,
1000
0000
0000
0100
0000
0000
0010
0000
,
0000
0001
0000
0000
0100
0000
0010
0000
,
1000
0000
0000
0001
0000
0000
0000
0000
,
0000
0000
0001
0000
,
0100
0000
0000
0000
,
0000
0000
0010
0000
,
1000
0000
0000
0000
,
0000
0000
1000
0000
,
0001
0000
0011
0000
,
0110
0000
1100
0000
,
1000
1000
1000
0000
,
0001
0100
0001
0100
,
0010
0010
0010
0000
,
2000
0000
0000
3200
0000
0000
0320
0000
,
0000
0000
0030
0000
,
0001
0010
0001
0010
,
0100
0100
0100
0000
,
2000
0000
0000
3020
0000
0000
0230
0000
,
0000
0302
0000
0000
1003
0000
0000
0000
,
1000
0000
0000
0000
,
1000
0000
0010
0000
,
0100
0000
0000
0000
,
0100
0000
0001
0000
,
0010
0000
0000
0000
,
0100
0000
0000
0000
,
1001
0000
0000
0000
,
0000
0000
0000
0000
,
0001
0000
0000
0001
0000
0000
0001
0000
,
0000
0002
0000
0000
1003
0000
0000
0000
,
1001
0001
1001
1000
,
0110
1001
0110
0000
,
1001
1000
1001
0001
,
0110
1001
0110
0000
,
2000
0000
3002
0000
,
0203
0000
0320
0000
,
1030
0000
1000
0000
,
0001
0001
0001
0000
,
1000
0000
0100
0000
0000
0001
0000
0000
,
1000
0000
0000
0001
0000
0000
0100
0000
,
1000
0000
0010
0000
0000
0001
0000
0000
,
1000
0000
0000
0001
0000
0000
0010
0000
,
1000
0000
0100
0000
0000
0001
0000
0000
,
0010
0000
0000
0001
0000
0000
0100
0000
,
1000
0000
0010
0000
0000
0100
0000
0000
,
1000
0100
0001
1000
,
0001
1000
0001
0100
,
0010
0010
0010
1000
,
0001
0100
0010
1000
,
0100
0100
0100
1000
,
0001
0100
0010
1000
,
0100
0100
0100
0010
,
0001
1000
0010
0100
,
0001
1000
0001
0010
,
0001
0000
0000
0001
,
0100
0010
1000
0100
,
0010
0000
0000
0000
,
0010
0000
0001
0100
,
0010
0000
1000
0000
,
0001
0000
0010
0000
,
2002
0000
0000
0000
,
3003
0000
0000
1001
;

//---------------dance-double - Ama-tan----------------
#NOTES:
     dance-double:
     Ama-tan:
     Hard:
     9:
     0.657,0.751,0.061,0.408,0.113:
00000000
00000000
00000000
00000000
,
00000000
00000000
00000000
00000000
,
00000000
00000000
00000000
00000000
,
00000000
00000000
00000000
00000000
,
00010000
00001000
00100000
00010000
,
01000000
00000000
00000000
00000000
00100000
00000000
00000000
00000000
10000000
00000000
00000000
00000000
00100000
00000000
10000000
01000000
,
10000000
00100000
01000000
00001000
00010000
00000100
00001000
00000100
,
00000001
00000100
00001000
00000100
00010000
00001000
00100000
00010000
,
10000000
01000000
00100000
00001000
10000000
01000000
00100000
00001000
,
10000000
01000000
00100000
00001000
00010000
00000100
00000001
00000100
,
00010000
00000010
00000100
00000001
00010000
00000010
00000100
00000001
,
00010000
00000010
00001000
00000100
00000001
00001000
00000010
00000100
,
00010000
00001000
00100000
00010000
01000000
10000000
01000000
00010000
,
00100000
00001000
00010000
00000100
00000010
00000100
00010000
00002000
,
00020000
00000000
00000000
00000000
,
00000000
00000000
00033000
00000000
,
00001000
00000000
00000000
01000000
00000000
00000000
00100000
00000000
,
00000000
20000000
00000000
00000000
31000000
00000000
00000000
00000000
,
00200000
00000000
00000000
00302000
00000000
00000000
00003020
00000000
,
00000031
00001000
00000100
00001000
00000010
00000100
00000001
00000100
,
00000020
00000000
00000000
00002030
00000000
00000000
00203000
00000000
,
10300000
01000000
00100000
00010000
01000000
00100000
10000000
000M0000
,
020M0000
00000000
00000000
03020000
00000000
00000000
00030200
00000000
,
00000310
00000001
00001000
00000010
00000100
00000010
00001000
00000001
,
00000200
00000000
00000000
00020300
00000000
00000000
02030000
00000000
,
03100000
10000000
00010000
00100000
00010000
01000000
00100000
00000000
,
20000000
00000000
01000000
00000000
00000000
00100000
00000000
00000000
,
00010000
00000000
00000000
30001000
00000000
00000000
MM0110MM
00000000
,
00001100
00000000
00000000
00001000
00000000
00000000
00000001
00000000
,
00000000
00000100
00000000
00000000
00000010
00000000
00010000
00000000
,
00002000
00000000
00000000
00000000
00000000
00000000
00100000
00000000
00003000
00M00000
00000000
00000000
00020000
00000000
00000000
00000000
,
00000000
00000000
00000000
00000000
00000000
00000000
00000010
00000000
00000000
00000000
00000000
00000000
00030000
00000000
00000000
000000M0
00000000
00000000
00000000
00000000
00000000
00000000
00000000
00000000
00001000
00000000
00000000
00000000
00000000
00000000
00000000
00000000
00100000
00000000
00000000
00000000
00000000
00000000
00000000
00000000
00010000
00000000
00000000
00000000
00000000
00000000
00000000
00000000
,
01000000
00000000
00000000
00100000
00000000
00000000
10000000
00000000
,
00000000
00000000
00000000
00000000
00000000
00000000
01000000
00000000
00100000
00000000
00010000
00000000
,
01000000
00000000
00000000
00001000
00000000
00000000
00010000
00000000
,
00000000
00000000
00000000
00000000
00000000
00000000
00000001
00000000
00000100
00000000
00000010
00000000
,
M0010000
00000000
00000100
00000000
00010000
00000000
00000010
00000000
00000000
00010000
00000000
00000000
0000100M
00000000
01000000
00000000
00001000
00000000
00100000
00000000
00000000
00001000
00000000
00000000
,
M0010000
00000000
00000010
00000000
00010000
00000000
00000100
00000000
00000000
00001000
00000000
00000000
0000010M
00000000
00000000
00010000
00000000
00000000
00001000
00000000
00000000
01000000
00000000
00000000
,
00100000
00000000
10000000
00000000
00010000
01000000
00010000
00000000
00100000
00000000
00100000
00000000
01000000
00000000
00000000
00000000
,
10000000
01000000
00100000
00001000
00010000
00000100
00000010
00000100
,
00000001
00000100
00000010
00000100
00010000
00001000
00100000
01000000
,
10000000
00100000
01000000
00001000
00010000
00000010
00000100
00000010
,
00000001
00000010
00000100
00000010
00010000
00001000
01000000
00100000
,
10000000
01000000
00100000
00001000
00010000
00000100
00000010
00000100
,
00000001
00001000
00000010
00000100
00010000
00001000
00100000
01000000
,
10000000
00100000
01000000
00001000
00010000
00000010
00000100
00000010
,
00000001
00001000
00000100
00000010
00001000
00000100
00000010
00000000
,
00002001
00003000
00000000
00000000
,
00000001
00000000
00000100
00000000
00001000
00000000
00010000
00000000
00100000
00000000
10000000
00000000
,
02000000
03000000
00000000
00000000
,
10010000
00000000
00000000
00000000
00000000
00000000
10000000
00000000
01000000
00000000
00100000
00000000
,
00001000
00000000
00000000
00000000
,
01000100
00000000
00000000
00000000
,
00022000
00000000
00000000
00000000
,
00033000
00000000
00000000
00000000
,
00010000
00000000
00000000
00000100
00000000
00000000
00000010
00000000
,
00000000
00000002
00000000
00000000
00000103
00000000
00000000
00000000
,
00000001
00000000
00000100
00000000
00000010
00000000
00001000
00000100
00010000
00000000
00001000
00000000
01000000
00000000
00001000
00000000
,
00020000
00030020
00000230
00000320
,
00010030
00000000
00001000
00000000
01000000
00000000
00010000
00100000
01000000
00000000
10000000
00000000
00100000
00000000
01000000
00000000
,
00020000
00230000
00302000
02003000
,
03100000
00000000
10000000
00000000
01000000
00000000
00100000
00001000
00010000
00000000
00000100
00000000
00001000
00000000
00000010
00000000
,
00002000
00003200
00000302
00000203
,
00001300
00000000
00000001
00000010
00000100
00000000
00010000
00000000
00001000
00000000
01000000
00000000
00100000
00000000
01000000
00000000
,
10000000
01000000
00100000
00000000
10010000
00000000
00000000
00000000
,
10000000
01000000
00010000
10000000
00100000
00001000
00010000
00000100
,
00000010
00001000
00000010
00000001
00000010
00000100
00000001
00000100
,
00000001
00000100
00001000
00000001
00000100
00010000
00001000
00100000
,
10000000
00010000
00100000
01000000
10000000
01000000
00010000
01000000
,
10000000
01000000
00100000
00010000
01000000
00100000
00010000
00001000
,
00100000
00001000
00010000
00000100
00000010
00001000
00000010
00000100
,
00001000
00000001
00000100
00000010
00010000
00000100
00000010
00001000
,
00000010
00000001
00001000
00000100
00010000
00001000
01000000
00010000
,
20000000
00000000
00000000
00010000
00000000
00000000
01000000
00000000
,
30010000
10000000
00010000
00100000
00010000
01000000
00001000
00010000
,
00002000
00000000
00000000
00010000
00000000
00000000
00100000
00000000
,
00023000
00030200
00000320
00000032
,
00000203
00000000
00000320
00000000
,
00020030
00000000
00030200
00000000
,
00002300
00000000
00000000
00000001
00000000
00000000
00000100
00000000
,
00003010
00001000
00000100
00001000
00000010
00001000
00000001
00000010
,
00000001
00000100
00000010
00010000
00000001
00000100
00000010
00010000
,
00000001
00000100
00000010
00010000
00001000
01000000
10000000
01000000
,
00001000
00100000
01000000
10000000
00001000
00100000
01000000
10000000
,
00001000
00100000
00010000
01000000
10000000
00010000
00100000
01000000
,
00001000
00010000
00000100
00001000
00000010
00000001
00000010
00000100
,
00000001
00001000
00000100
00000010
00001000
00000010
00000100
00001000
,
00000001
00000100
00000010
00010000
00001000
01000000
00100000
01000000
,
10000000
00010000
00100000
01000000
00001000
00010000
00000200
000000M0
,
00000000
000000M0
00000000
000000M0
00000000
000000M0
00000000
000000M0
,
00000000
000000M0
00000000
000000M0
00000000
000000M0
00000000
000000M0
,
00000300
00000000
00000000
00000000
;
