#TITLE:Re-union;
#SUBTITLE:;
#ARTIST:MINAMOTRANCE;
#TITLETRANSLIT:;
#SUBTITLETRANSLIT:;
#ARTISTTRANSLIT:;
#CREDIT:;
#BANNER:Re-union-jk.png;
#BACKGROUND:Re-union-bg.png;
#LYRICSPATH:;
#CDTITLE:;
#MUSIC:Re-union.mp3;
#OFFSET:-6.910;
#SAMPLESTART:45.290;
#SAMPLELENGTH:10.970;
#SELECTABLE:YES;
#BPMS:0.000=175.000;
#STOPS:;
#BGCHANGES:;

//---------------dance-single - ----------------
#NOTES:
     dance-single:
     :
     Hard:
     9:
     0.600,0.733,0.431,0.174,0.294:
1000
0000
1001
0000
,
0001
0000
0000
0100
0110
0000
0000
0000
,
0010
0000
1000
0000
1001
0000
0000
0001
,
0010
0000
0000
0001
0000
0000
0010
0000
0110
0000
0000
0000
0000
0000
0000
0000
,
0001
1000
0001
0000
1000
0000
0010
0000
,
0100
0010
0100
0000
0001
0000
1000
0000
,
0100
0010
0001
0000
1000
0010
0100
0000
,
0010
0000
0000
1000
0000
0000
0001
0000
1000
0000
0000
0000
0001
0000
0000
0000
,
0010
0001
1001
1000
,
0010
0100
1001
0001
,
0010
0001
1000
0100
0010
0100
1000
0001
,
1000
0000
0000
0001
0000
0000
0100
0000
0110
0000
0000
0000
0010
0100
0010
0100
,
0020
0000
0000
0000
,
0000
0000
0000
0000
,
2030
0000
0000
0000
,
0000
0000
0000
0000
,
3002
0000
0000
0000
,
0000
0000
0000
0000
,
0023
0000
0000
0000
,
0200
0000
0000
0330
,
2001
0000
0000
0001
0000
0000
0010
0000
,
0000
0010
0000
0000
0100
0000
0100
0000
,
3200
0000
0000
0001
0000
0000
0001
0000
,
0000
0010
0000
0000
0010
0000
0310
0000
,
0100
0010
0001
1000
0100
0010
0001
0100
,
0010
1000
0001
0100
0010
1000
0001
1000
,
0100
0001
0100
1000
0100
0010
0001
1000
,
2002
0000
0000
3003
,
1001
0000
0000
0001
0000
0000
0100
0000
0000
0001
0000
0000
1000
0000
0001
0000
,
0100
0000
0010
0000
0000
1000
0000
0000
0001
0000
0000
1000
0000
0000
0100
0000
,
0010
0000
0000
0100
0000
0000
0010
0000
0000
0001
0000
0000
1000
0000
0001
0000
,
0100
0000
0001
0000
0000
1000
0000
0000
0010
0000
1000
0000
0100
0000
1000
0000
,
0100
0000
0000
0010
0000
0000
0100
0000
0000
1000
0000
0000
0001
0000
0100
0000
,
0001
0000
1000
0000
0000
0010
0000
0000
0100
0000
0000
0001
0000
0000
0100
0000
,
0001
0000
0000
1000
0000
0000
0100
0000
0000
0010
0000
0000
0100
0000
0210
0000
,
0000
0000
0010
0000
0000
0010
0000
0000
0010
0000
0000
0010
0000
0000
0310
0000
,
0100
0000
0000
1000
0000
0000
0001
0000
0100
0000
0010
0000
1000
0000
0001
0020
,
0000
0000
0130
0000
0000
0010
0000
0000
0001
0000
0000
0100
0000
0000
0010
0000
,
1000
0000
0000
0001
0100
0000
0010
0000
1000
0000
0100
0000
1000
0000
0001
2000
,
0000
0000
3001
0000
0000
0001
0000
0000
1000
0000
0100
0000
0010
0000
0001
0000
,
0100
0000
0000
0010
0000
0000
0100
0000
0001
0000
1000
0000
0100
0000
0010
0001
,
1000
0000
0001
0000
0000
0100
0000
0000
0001
0000
0000
1000
0000
0000
0100
0000
,
0010
0000
0001
0100
0001
0000
0100
0000
0010
0000
1000
0000
0100
0000
0110
0000
,
0000
0000
0011
0000
0000
1001
0000
0000
0100
0001
0100
0000
0010
1000
0010
1000
,
0020
0000
0130
0010
1000
0100
0002
0000
,
0103
1000
0001
0100
0110
0000
1001
0000
,
0002
0000
0103
0010
1000
0100
0020
0000
,
0130
1000
0010
0001
0020
0000
0130
0000
,
1002
0000
1003
0100
0010
0100
2000
0000
,
3010
0100
0001
0010
0011
0000
1100
0000
,
1000
0100
0010
0001
0100
0010
1000
1010
,
0000
0000
0101
0000
0000
0011
0000
0000
1100
0000
0000
1000
0001
1000
0001
1000
,
0001
0000
0100
0000
0010
0000
0100
0000
0001
0000
1000
0000
0100
0000
0010
0001
,
1000
0010
0100
0001
1001
0000
1100
0000
,
0100
0000
1000
0000
0001
0000
0100
0000
0001
0000
1000
0000
0010
0000
0100
0010
,
1000
0100
0001
0100
1100
0000
1001
0000
,
1000
0000
0100
0000
0001
0000
1000
0000
0010
0000
0001
0000
0100
0000
0010
0100
,
0001
1000
0100
0010
1001
0000
0110
0000
,
0010
1000
0100
0001
0100
1000
0010
0110
,
0000
0000
1010
0000
0000
1001
0000
0000
0001
0010
0001
0000
1000
0100
1000
0100
,
1000
0000
0001
0100
0000
0100
0001
0000
,
1000
0010
0000
0010
1000
0000
1001
0000
,
0110
0000
0010
1000
0000
0001
0100
0000
,
0001
0010
0100
0010
0001
0000
1100
0000
,
1000
0010
0100
0001
0000
0100
0001
0000
,
1000
0100
0010
1000
0010
0000
0011
0000
,
0001
0100
0010
0001
0000
0010
1000
1002
,
0000
0000
0100
0000
0000
0100
0000
0000
0103
0000
0000
0000
0001
1000
0001
0000
,
1001
0000
0000
1001
0000
0000
0101
0000
0000
0101
0000
0000
1010
0000
0000
1010
,
0000
0000
1100
0000
0000
1100
0000
0000
0011
0000
0000
0011
0000
0000
0001
1000
,
0001
0000
0000
0101
0000
0000
1010
0000
0000
1100
0000
0000
0011
0000
0010
0001
,
0100
0000
0000
0101
0000
0000
0010
1000
0100
0000
0000
1000
0100
1000
0001
0100
,
0001
0100
0010
1000
0001
0100
0010
1000
,
0100
0010
0001
1000
0100
0010
0001
1000
,
0100
0001
0100
1000
0100
0010
0001
1000
,
0010
1000
0010
0100
0001
0100
0001
1000
0001
1000
0100
0010
,
0002
0000
0000
0000
,
0003
0000
0000
0000
;

//---------------dance-single - ----------------
#NOTES:
     dance-single:
     :
     Beginner:
     2:
     0.141,0.189,0.091,0.000,0.000:
1001
0000
0000
0000
,
0001
0000
1000
0000
,
0100
0000
0000
0000
,
0010
0000
0000
0000
,
0110
0000
0000
0000
,
0100
0000
0010
0000
,
0001
0000
0000
0000
,
1000
0000
0000
0000
,
0001
0000
0000
0000
,
1000
0000
0001
0000
,
1000
0000
0010
0000
,
0100
0000
0010
0000
,
1001
0000
0000
0000
,
0000
0000
0000
0000
,
0001
0000
0000
0000
,
0000
0000
0000
0000
,
1000
0000
0000
0000
,
0000
0000
0000
0000
,
0100
0000
0000
0000
,
0010
0000
0000
0000
,
1001
0000
0000
0000
,
0000
0000
0000
0000
,
0001
0000
0000
0000
,
0000
0000
0000
0000
,
1000
0000
0010
0000
,
1000
0000
0010
0000
,
0100
0000
0000
0000
,
1001
0000
0000
0000
,
0001
0000
1000
0000
,
0100
0000
0010
0000
,
0100
0000
1000
0000
,
0001
0000
0000
0000
,
1000
0000
0001
0000
,
0100
0000
0010
0000
,
0100
0000
0001
0001
,
0000
0000
0000
0000
,
0001
0000
0010
0000
,
0100
0000
1000
0000
,
0010
0000
0100
0000
,
0001
0000
1000
0000
,
0100
0000
0010
0000
,
0100
0000
0010
0000
,
0001
0000
1000
1000
,
0000
0000
0000
0000
,
1001
0000
0000
0000
,
0001
0000
0100
0000
,
0010
0000
0000
0000
,
1000
0000
0100
0000
,
0010
0000
0000
0000
,
0001
0000
1000
0000
,
0001
0000
0100
0100
,
0000
0000
0000
0000
,
0110
0000
0000
0000
,
0010
0000
0100
0000
,
0001
0000
0000
0000
,
1000
0000
0001
0000
,
0010
0000
0000
0000
,
0100
0000
0010
0000
,
0001
0000
1000
1000
,
0000
0000
0000
0000
,
0001
0000
0100
0000
,
0001
0000
0100
0000
,
0010
0000
1000
0000
,
0010
0000
1000
0000
,
0001
0000
0010
0000
,
0100
0000
1000
0000
,
0010
0000
0100
0100
,
0000
0000
0000
0000
,
1001
0000
0000
0000
,
0000
0000
0000
0000
,
1001
0000
0000
0000
,
0000
0000
0000
0000
,
0010
0000
0010
0000
,
0100
0000
0100
0000
,
0001
0000
1000
0000
,
1001
0000
0000
0000
,
0110
0000
0000
0000
;

//---------------dance-single - ----------------
#NOTES:
     dance-single:
     :
     Easy:
     4:
     0.289,0.383,0.091,0.199,0.000:
1000
0000
0001
0000
,
0100
0000
0001
0000
,
1000
0000
0100
0000
,
0010
0100
0110
0000
,
1001
0000
0001
0000
,
1000
0000
0010
0000
,
0100
0000
0010
0000
,
1000
0000
0001
0000
,
1000
0000
0100
0010
,
0100
0001
0010
0001
,
1000
0100
0001
0100
,
1000
0001
2002
3003
,
0120
0000
0000
0000
,
0000
0000
0000
0000
,
2030
0000
0000
0000
,
0000
0000
0000
0000
,
3200
0000
0000
0000
,
0000
0000
0000
0000
,
0320
0000
0000
0000
,
0032
0000
0000
0000
,
2003
0001
0000
0001
,
0000
0010
0000
0010
,
3020
0100
0000
0100
,
0000
1000
0000
1030
,
0001
1000
0001
1000
,
0001
0010
0100
1000
,
0001
0100
0010
1000
,
2002
0000
0000
3003
,
0001
0100
0001
0100
,
0010
1000
0010
0000
,
1000
0100
1000
0100
,
0010
0001
0010
0000
,
0001
1000
0010
0100
,
0001
0010
0100
0001
,
0100
0000
1000
0000
0001
0000
1000
2000
,
0000
0000
0000
3000
,
1001
0001
0010
0100
,
0010
0001
0100
0000
,
0010
1000
0100
1000
,
0010
0100
0001
0000
,
1000
0001
1000
0010
,
0100
0001
0010
0100
,
0010
0000
0001
0000
1000
0000
0010
0020
,
0000
0000
0000
0030
,
1001
0000
0000
1000
0000
0000
0001
0000
,
0000
1000
0000
0000
0100
0000
0010
0000
,
0100
0000
0000
0010
0000
0000
0001
0000
,
0000
0100
0000
0000
0010
0000
0100
0000
,
0010
0000
0000
1000
0000
0000
0001
0000
,
0000
1000
0000
0000
0100
0000
1000
0000
,
0100
0000
0000
0010
0000
0000
0001
0002
,
0000
0000
0000
0003
,
1000
0010
0100
0001
,
1000
0100
0010
0010
,
0010
0100
1000
0010
,
0001
0010
0100
0100
,
0100
0001
0010
0100
,
0001
0100
1000
1000
,
1000
0000
0010
0000
0100
0000
0001
0002
,
0000
0000
0000
0003
,
1000
0001
0100
1000
,
0001
0010
1000
0001
,
1000
0100
1000
0100
,
0010
0001
0010
0001
,
1000
0010
0100
0010
,
0001
0010
0100
0010
,
1000
0000
0100
0000
0001
0000
0100
0200
,
0000
0000
0000
0300
,
2002
0000
0000
0000
,
0000
0000
0000
3003
,
0220
0000
0000
0000
,
0000
0000
0000
0330
,
0010
0100
0010
0100
,
1000
0001
1000
0001
,
0100
0010
1000
0100
,
0220
0000
0000
0330
,
2002
0000
0000
0000
,
3003
0000
0000
0000
;

//---------------dance-single - ----------------
#NOTES:
     dance-single:
     :
     Medium:
     6:
     0.433,0.446,0.190,0.232,0.050:
1000
0000
0001
0000
,
0100
0000
0000
0001
1000
0000
0000
0000
,
0001
0000
1000
0000
,
0100
0000
0000
1000
0001
0000
0000
0000
,
1001
0001
0100
0010
,
1000
0100
0010
0000
,
0100
0100
0010
0000
0001
0000
1000
0000
,
0001
0000
0100
0010
0100
0000
0010
0000
,
1000
0001
1000
0010
,
0100
0001
0010
0001
,
1000
0001
1000
0000
0001
0100
0001
0000
,
1000
0010
0202
0303
,
0210
0000
0000
0000
,
0000
0000
0000
0000
,
0302
0000
0000
0000
,
0000
0000
0000
0000
,
2003
0000
0000
0000
,
0000
0000
0000
0000
,
3200
0000
0000
0000
,
0020
0000
0000
0330
,
2001
0000
0000
0001
0000
0000
0001
0000
,
0000
0001
0000
0000
0001
0000
0001
0000
,
3002
0000
0000
0100
0000
0000
0100
0000
,
0000
0100
0000
0000
0100
0000
0100
0000
,
0103
0001
0100
0001
,
1000
0100
1000
0100
,
1000
0001
1000
0001
1000
0000
0001
0000
,
0220
0000
0000
0330
,
1001
0000
0001
0000
0100
0001
0100
0000
,
0010
0000
1000
0000
0100
0000
0010
0100
,
0010
0000
0100
0000
1000
0001
0100
0000
,
0010
0000
0100
0000
0001
0000
1000
0100
,
0010
0000
0100
0000
1000
0010
0100
0000
,
0010
0000
0100
0001
0100
0000
0001
0010
,
0100
0000
0010
0000
0001
1000
0010
0200
,
0000
0000
0010
0000
0000
0010
0000
0000
0020
0000
0000
0000
0330
0000
0000
0000
,
0010
0000
1001
0000
1000
0100
0010
0000
,
0100
1000
0001
0000
0100
0000
0001
0000
,
0100
0000
0011
0000
1000
0001
1000
0000
,
0010
0100
0001
0000
0010
0001
1000
1000
,
0010
0000
0110
0000
0001
0010
1000
0000
,
1000
0010
0001
0000
1000
0000
0001
0000
,
0100
0000
1001
0000
1000
0100
0010
0002
,
0000
0000
1000
0000
0000
1000
0000
0000
2000
0000
0000
0000
3003
0000
0000
0000
,
1000
0000
0001
0100
0000
0100
0001
0000
,
1000
0100
0000
0100
1000
0000
1001
0000
,
0001
0000
1000
0100
0000
0010
0001
0000
,
1000
0010
0000
0100
0001
0000
1001
0000
,
1000
0000
0010
1000
0000
1000
0100
0000
,
0010
0001
0000
0001
0100
0000
0110
0000
,
1001
0000
0001
1000
0000
0001
1000
0002
,
0000
0000
1000
0000
0000
1000
0000
0000
2000
0000
0000
0000
3003
0000
0000
0000
,
1000
0000
0010
0100
0000
0010
0100
0001
,
1000
0100
0110
1001
,
1000
0000
0001
0010
0000
0010
0001
1000
,
0010
0000
0100
0000
0010
1000
0100
0000
,
1000
0000
0001
0100
0000
0010
1000
0100
,
0010
0100
0110
1001
,
1000
0000
0001
0010
0000
0100
1000
0200
,
0000
0000
0010
0000
0000
0010
0000
0000
0020
0000
0000
0000
0330
0000
0000
0000
,
0100
0000
0001
0100
0001
0000
0010
0000
,
0100
1000
0100
0000
1000
0000
0001
0000
,
1000
0000
0010
0100
0010
0000
1000
0000
,
0001
0010
0001
0000
1000
0000
1001
0000
,
0001
0000
0100
0010
0100
0000
0001
0000
,
0010
0100
0010
0000
0100
0000
1001
0000
,
1000
0000
0100
1000
0001
0000
0100
0020
,
0000
0000
0100
0000
0000
0100
0000
0000
0200
0000
0000
0000
0330
0000
0000
0000
,
2001
0000
0000
0001
0000
0000
0001
0000
0000
0001
0000
0000
0001
0000
0000
0001
,
0000
0000
0001
0000
0000
0001
0000
0000
0001
0000
0000
0001
0000
0000
3002
0000
,
0100
0000
0000
0100
0000
0000
0100
0000
0000
0100
0000
0000
0100
0000
0100
0000
,
0203
0000
0000
0010
0020
0000
0330
0000
,
1010
0000
1000
0000
0100
1000
0001
0000
,
0010
0001
0100
0000
0010
0100
0010
0000
,
1000
0001
1000
0001
1000
0001
1000
0000
,
0020
0000
0000
0030
,
0220
0000
0000
0000
,
0330
0000
0000
0000
;

//---------------dance-double - ----------------
#NOTES:
     dance-double:
     :
     Hard:
     9:
     0.635,0.733,0.456,0.141,0.290:
00000001
00000000
00001001
00000000
,
00000100
00000000
00000000
00000100
00010100
00000000
00000000
00000000
,
00010000
00000000
00000000
00000000
00011000
00000000
00000000
00001000
,
00100000
00000000
00000000
00010000
00000000
00000000
10000000
00000000
20020000
00000000
00000000
00000000
30030000
00000000
00000000
00000000
,
10000000
01000000
00100000
00000000
01000000
00000000
00010000
00000000
,
00001000
00000000
00010000
00001000
00010000
00000000
00000100
00000000
,
00000010
00000001
00000100
00000000
00000010
00000000
00010000
00000000
,
00001000
00010000
00000100
00010000
00001000
00000000
00100000
00000000
,
00010000
10000000
11000000
01000000
,
00100000
00000000
00010000
00100000
00110000
00000000
11000000
00000000
,
10000000
00100000
01000000
00010000
00100000
00001000
00010000
00001000
,
00010000
00000000
00000000
00000100
00000000
00000000
00001000
00000000
00001001
00000000
00000000
00000000
00001000
00000001
00001000
00000001
,
00002000
00000000
00000000
00000010
00000000
00000000
00000010
00000000
,
00000000
00000100
00000000
00000000
00003100
00000000
00001100
00000000
,
00012000
00000000
00000000
00100000
00000000
00000000
00010000
00000000
,
00000000
01000000
00000000
00000000
00013000
00000000
00011000
00000000
,
02010000
00000000
00000000
00100000
00000000
00000000
10000000
00000000
,
00000000
00100000
00000000
00000000
03010000
00000000
10010000
00000000
,
20010000
00000000
00000000
00100000
00000000
00000000
00010000
00000000
,
32000000
00000000
03200000
00000000
,
00320000
00000100
00000000
01000000
,
00000000
00030100
00000010
00010000
,
00002000
00000010
00000000
00100000
,
00000000
00003010
00000100
00010000
,
00001000
00010000
00001000
00010000
00000100
00000010
00000001
00000000
,
00000010
00000001
00000100
00000010
00001000
00000100
00010000
00001000
,
00100000
00010000
01000000
00100000
01000000
00010000
00100000
00001000
,
00022000
00000000
00000000
00033000
,
00101000
00000000
00000000
00100000
00000000
00000000
00010000
00000000
01000000
00000000
00100000
00000000
10000000
00000000
02000000
00000000
,
00000000
00000000
00100000
00000000
00000000
00100000
00000000
00000000
03100000
00000000
00000000
01000000
00000000
00000000
00100000
00000000
,
00001000
00000000
00000000
00010000
00000000
00000000
00000100
00000000
00001000
00000000
00000100
00000000
00000010
00000000
00000002
00000000
,
00000000
00000000
00001000
00000000
00000000
00001000
00000000
00000000
00001003
00000000
00000100
00000000
00010000
00000000
00001000
00000000
,
00100000
00000000
00000000
00010000
00000000
00000000
10000000
00000000
00100000
00000000
01000000
00000000
00010000
00000000
10000000
02000000
,
00000000
00000000
00100000
00000000
00000000
00100000
00000000
00000000
03100000
00000000
01000000
00000000
10000000
00000000
00010000
00000000
,
01000000
00000000
00000000
00001000
00000000
00000000
00010000
00000000
00001000
00000000
00010000
00000000
00000100
00000000
00001000
00000100
,
00000000
00000000
00000011
00000000
00000000
00001100
00000000
00000000
00001001
00000000
00000000
00000101
00000000
00000000
00000110
00000000
,
00000010
00000000
00001000
00000000
00000100
00000000
00000001
00000000
00000100
00000000
00000010
00000000
00000001
00000000
00001000
00000010
,
00001000
00000000
00000100
00000000
00000000
00010000
00000000
00000000
00000100
00000000
00000000
00010000
00000000
00000000
00001000
00000000
,
00100000
00000000
00010000
00000000
01000000
00000000
00100000
00000000
10000000
00000000
01000000
00000000
00100000
00000000
01000000
00100000
,
01000000
00000000
00100000
00000000
00000000
00001000
00000000
00000000
00010000
00000000
00001000
00000000
00010000
00000000
00000100
00000000
,
00000010
00000000
00000100
00000000
00001000
00000000
00000010
00000000
00000100
00000000
00000001
00000000
00001000
00000000
00000100
00010000
,
00000100
00000000
00010000
00000000
00000000
00001000
00000000
00000000
00011000
00000000
00000000
01001000
00000000
00000000
01010000
00000000
,
01000000
00000000
00100000
00000000
10000000
00000000
00010000
00000000
01000000
00000000
00010000
00000000
00100000
00000000
00001000
00020000
,
00000000
00000000
00001000
00000000
00000000
00001000
00000000
00000000
00031000
00000000
00000000
00000000
00010000
00000100
00010000
00000100
,
00010000
00000000
00000100
00010000
00000100
00001000
00000100
00000000
,
00000010
00000001
00000100
00000000
00001010
00000000
00000101
00000000
,
00000001
00000100
00001000
00000100
00000010
00000000
00001000
00000100
,
00010000
00001000
00100000
00000000
00010000
10000000
01000000
00000000
,
00100000
00010000
01000000
00001000
00010000
00000000
00000100
00010000
,
00000100
00001000
00000010
00000000
00000101
00000000
00001001
00000000
,
00000001
00000100
00000010
00001000
00000100
00010000
00001000
00011000
,
00000000
00000000
00101000
00000000
00000000
00101000
00000000
00000000
00101000
00000000
00000000
00100000
00010000
00100000
00010000
10000000
,
00010000
00000000
10000000
00000000
01000000
00000000
00100000
00000000
00010000
00000000
00100000
00000000
00001000
00000000
00010000
00001000
,
00000000
00000000
00010000
00000000
00000000
00000100
00000000
00000000
00001000
00000000
00000000
00000001
00000000
00000000
00001000
00000000
,
00000001
00000000
00000100
00000000
00001000
00000000
00000100
00000000
00000010
00000000
00010000
00000000
00001000
00000000
00010000
00001000
,
00010000
00000000
00001000
00000000
00000000
01000000
00000000
00000000
00010000
00000000
10000000
00000000
01000000
00000000
00100000
00000000
,
00001000
00000000
01000000
00000000
00001000
00000000
00010000
00000000
00000100
00000000
00001000
00000000
00000010
00000000
00000100
00000001
,
00000000
00000000
00000100
00000000
00000000
00000010
00000000
00000000
00010000
00000000
00000000
00001000
00000000
00000000
00100000
00000000
,
00001000
00100000
00010000
10000000
01000000
00010000
01000000
11000000
,
00000000
00000000
00110000
00000000
00000000
00101000
00000000
00000000
00001000
00010000
00001000
00000000
00010000
00000010
00010000
00000010
,
00001000
00000010
00000100
00000010
00000000
00000100
00000001
00000010
,
00000100
00000010
00000000
00000001
00000010
00000000
00001100
00000000
,
00001000
00000100
00010000
00001000
00000000
00001000
01000000
00100000
,
00010000
00100000
00000000
10000000
00010000
00000000
10010000
00000000
,
10000000
01000000
00100000
00010000
00100000
00001000
00010000
00000100
,
00001000
00000010
00000001
00000010
00001000
00000000
00001001
00000000
,
00000001
00000100
00000010
00001000
00000100
00010000
00001000
01001000
,
00000000
00000000
01100000
00000000
00000000
01010000
00000000
00000000
10000000
00100000
10000000
00000000
00010000
01000000
00010000
01000000
,
00010000
00000000
00000000
10010000
00000000
00000000
10010000
00000000
00000000
00110000
00000000
00000000
00110000
00000000
00000000
00101000
,
00000000
00000000
00101000
00000000
00000000
00011000
00000000
00000000
00011000
00000000
00000000
00010100
00000000
00000000
00010000
00000100
,
00001000
00000000
00000000
00001100
00000000
00000000
00001100
00000000
00000000
00001001
00000000
00000000
00001001
00000000
00000001
00000100
,
00000010
00000000
00000000
00000110
00000000
00000000
00000100
00000010
00001000
00000000
00000000
00000010
00001000
00000010
00001000
00000010
,
00001000
00000100
00000010
00000001
00000100
00000010
00001000
00000100
,
00010000
00001000
01000000
00010000
01000000
00100000
00010000
00100000
,
10000000
01000000
00010000
01000000
10000000
00010000
10000000
00010000
,
10000000
01000000
00100000
01000000
00100000
00010000
00100000
00001000
00010000
00000100
00001000
00000001
,
00002000
00000000
00000000
00000000
,
00003000
00000000
00000000
00000000
;

//---------------dance-double - ----------------
#NOTES:
     dance-double:
     :
     Medium:
     7:
     0.465,0.478,0.240,0.190,0.066:
10000000
00010000
10010000
00000000
,
10000000
00000000
00000000
00010000
00110000
00000000
00000000
00000000
,
00001000
00000000
00010000
00000000
00011000
00000000
00000000
00000100
,
00010000
00000000
00000000
00000100
00000000
00000000
00001000
00000000
00001100
00000000
00000000
00000000
00000000
00000000
00000000
00000000
,
00000001
00000100
00001000
00000100
,
00000002
00000000
00001003
00000100
00001000
00000000
00000100
00000000
,
00010000
00001000
00100000
00010000
,
01000000
00000000
00100000
10000000
01000000
00000000
00100000
00010000
,
01000000
00010000
00100000
00001000
,
00010000
00000000
00000010
00000100
00000010
00000000
00000100
00000000
,
00000001
00000010
00000001
00000000
00001000
00000100
00001000
00000000
,
00000100
00000000
00000000
00010000
00000000
00000000
00000100
00000000
00001100
00000000
00000000
00000000
00010100
00000000
00000000
00000000
,
00022000
00000000
00000000
00000000
,
00000000
00000000
00000000
00030000
,
00200000
00000000
00000000
00000000
,
00000000
00000000
00000000
00003000
,
00020000
00000000
00000000
00000000
,
00000000
00000000
00000000
00030000
,
02000000
00000000
00000000
00300000
,
20000000
03000000
00020000
30030000
,
10020000
00100000
00000000
01000000
,
00000000
00130000
00001000
00010000
,
00000200
00000010
00000000
00001000
,
00000000
00000310
00000001
00001000
,
00000010
00001000
00000100
00000010
,
00000001
00001000
00000100
00010000
,
00001000
00100000
00001000
00010000
00001000
00010000
00000100
00010000
,
00022000
00000000
00000000
00033000
,
00101000
00000000
00100000
00000000
00010000
01000000
00010000
00000000
,
10000000
00000000
01000000
00000000
00100000
00000000
00010000
00100000
,
00001000
00000000
00010000
00000000
00000100
00001000
00000010
00000000
,
00000100
00000000
00000001
00000100
00000010
00000100
00000010
00000000
,
00001000
00000000
00000100
00000000
00001000
00000100
00010000
00000000
,
00001000
00000000
00100000
00000000
00010000
00000000
10000000
00100000
,
01000000
00000000
00010000
00000000
10000000
01000000
00100000
00020000
,
00000000
00000000
00100000
00000000
00000000
00100000
00000000
00000000
00100000
00000000
00000000
00100000
00000000
00000000
00100000
00000000
,
00130000
00000000
00001000
00000000
00010000
00001000
00010000
00000000
,
00000100
00000000
00010000
00000000
00000010
00000000
00000100
00000001
,
00000100
00000000
00000001
00000000
00001000
00000100
00001000
00000100
,
00000000
00010000
00000100
00000000
00010000
00000000
00001000
00100000
,
00010000
00000000
01000000
00000000
00100000
10000000
01000000
00100000
,
00000000
00100000
00001000
00010000
00001000
00000000
00010000
00000010
,
00010000
00000000
00000010
00000000
00000100
00000010
00000100
00000020
,
00000000
00000000
00001000
00000000
00000000
00001000
00000000
00000000
00002000
00000000
00000000
00000000
00003030
00000000
00000000
00000000
,
00001001
00000000
00000001
00000010
00000100
00000000
00000010
00000000
,
00000100
00001000
00000100
00000000
00010000
00000000
00011000
00000000
,
00001000
00000000
00100000
00010000
01000000
00000000
00100000
00000000
,
10000000
00010000
00100000
00000000
01000000
00000000
01100000
00000000
,
00100000
00000000
00010000
10000000
00100000
00000000
01000000
00000000
,
00010000
00100000
00001000
00010000
00000100
00000000
00001100
00000000
,
00001001
00000000
00000001
00000100
00001000
00000000
00000100
00000002
,
00000000
00000000
00001000
00000000
00000000
00001000
00000000
00000000
00002000
00000000
00000000
00000000
00003003
00000000
00000000
00000000
,
00001100
00000000
00010000
00001000
00100000
00000000
00010000
01000000
,
00010000
10000000
00010000
00000000
10000000
00000000
11000000
00000000
,
01000000
00000000
00100000
00010000
01000000
00000000
00100000
01000000
,
00001000
00100000
00001000
00000000
00010000
00000000
00010100
00000000
,
00000100
00000000
00000010
00000001
00001000
00000000
00000010
00001000
,
00000001
00000100
00000010
00000000
00001000
00000000
00001100
00000000
,
00010100
00000000
00100000
00001000
00010000
00000100
00010000
00002000
,
00000000
00000000
00010000
00000000
00000000
00010000
00000000
00000000
00020000
00000000
00000000
00000000
00033000
00000000
00000000
00000000
,
00001000
00000000
00100000
00010000
01000000
00000000
00010000
00000000
,
10000000
01000000
00100000
00000000
01000000
00000000
11000000
00000000
,
10010000
00000000
00010000
01000000
00100000
00000000
01000000
00000000
,
00010000
00100000
01000000
00000000
00100000
00000000
00011000
00000000
,
00010100
00000000
00000100
00001000
00000001
00000000
00000101
00000000
,
00000100
00000001
00001000
00000000
00000100
00000000
00010100
00000000
,
00011000
00000000
00001000
00100000
00010000
00000000
10000000
02000000
,
00000000
00000000
00100000
00000000
00000000
00100000
00000000
00000000
00200000
00000000
00000000
00000000
03300000
00000000
00000000
00000000
,
10000000
00000000
00000000
10000000
00000000
00000000
01000000
00000000
00000000
01000000
00000000
00000000
00100000
00000000
00000000
00100000
,
00000000
00000000
00001000
00000000
00000000
00001000
00000000
00000000
00010000
00000000
00000000
00010000
00000000
00000000
00000100
00000000
,
00000100
00000000
00000000
00000100
00000000
00000000
00001000
00000000
00000000
00001000
00000000
00000000
00000010
00000000
00000010
00000000
,
00000100
00000000
00000000
00000100
00000000
00000000
00000001
00000000
00000001
00000000
00000000
00000000
00001010
00000000
00000000
00000000
,
00001000
00000100
00001000
00000000
00000100
00010000
00000100
00000000
,
00010000
00001000
00010000
00000000
00001000
01000000
00001000
00000000
,
01000000
00010000
01000000
00100000
10000000
00100000
10000000
00010000
,
10000000
01000000
00100000
00001000
,
00022000
00000000
00000000
00000000
,
00033000
00000000
00000000
00000000
;

//---------------dance-double - ----------------
#NOTES:
     dance-double:
     :
     Easy:
     4:
     0.296,0.415,0.133,0.174,0.000: // measure 1
00001000
00000000
00001001
00000000
,  // measure 2
00000001
00000000
00001001
00000000
,  // measure 3
00000100
00000000
00000110
00000000
,  // measure 4
00000100
00010000
00011000
00000000
,  // measure 5
00001000
00100000
00001000
00000000
,  // measure 6
00100000
00010000
01000000
00000000
,  // measure 7
00100000
10000000
00010000
01000000
,  // measure 8
00010000
00100000
00001000
00000000
,  // measure 9
00010000
00000100
00001000
00000000
,  // measure 10
00000100
00000010
00000001
00000000
,  // measure 11
00000100
00000001
00001000
00000010
,  // measure 12
00000100
00000010
00000110
00000000
,  // measure 13
00002002
00000000
00000000
00000000
,  // measure 14
00000000
00000000
00003000
00000000
,  // measure 15
00000200
00000000
00000000
00000000
,  // measure 16
00000000
00000000
00000003
00000000
,  // measure 17
00000020
00000000
00000000
00000000
,  // measure 18
00000000
00000000
00000300
00000000
,  // measure 19
00020000
00000000
00000030
00000000
,  // measure 20
00032000
00000000
00103000
00000000
,  // measure 21
01100000
01000000
00000000
00100000
,  // measure 22
00000000
01000000
10000000
00010000
,  // measure 23
01000000
00010000
00000000
00100000
,  // measure 24
00000000
00001000
00010000
00000100
,  // measure 25
00001000
00000010
00000000
00000100
,  // measure 26
00000000
00000010
00001000
00000100
,  // measure 27
00000010
00000010
00000100
00000100
,  // measure 28
00002002
00000000
00000000
00003003
,  // measure 29
00000001
00000000
00000100
00000000
,  // measure 30
00000010
00001000
00000010
00001000
,  // measure 31
00000100
00000000
00010000
00000000
,  // measure 32
00001000
00010000
00001000
01000000
,  // measure 33
00100000
00000000
01000000
00000000
,  // measure 34
00010000
10000000
01000000
00100000
,  // measure 35
01000000
00000000
00100000
00000000
00010000
00000000
00100000
00200000
,  // measure 36
00000000
00000000
00000000
00300000
,  // measure 37
00001000
00100000
00001000
00000000
,  // measure 38
00010000
00000100
00010000
00000100
,  // measure 39
00001000
00000010
00000100
00000000
,  // measure 40
00000010
00000100
00000001
00000010
,  // measure 41
00000100
00000010
00000001
00000000
,  // measure 42
00001000
00000100
00001000
00000100
,  // measure 43
00010000
00000000
00001000
00000000
00010000
00000000
00001000
00002000
,  // measure 44
00000000
00000000
00000000
00003000
,  // measure 45
00010000
00000000
00000000
00001000
00000000
00000000
00010000
00000000
,  // measure 46
00000000
00001000
00000000
00000000
00100000
00000000
00110000
00000000
,  // measure 47
00010000
00000000
00000000
01000000
00000000
00000000
00100000
00000000
,  // measure 48
00000000
10000000
00000000
00000000
01000000
00000000
11000000
00000000
,  // measure 49
10000000
00000000
00000000
00010000
00000000
00000000
00100000
00000000
,  // measure 50
00000000
00001000
00000000
00000000
00010000
00000000
00010100
00000000
,  // measure 51
00000100
00000000
00000000
00001000
00000000
00000000
00000001
00000000
,  // measure 52
00000000
00001000
00000000
00000000
00000010
00000000
00001000
00000000
,  // measure 53
00000100
00000010
00000001
00000100
,  // measure 54
00000010
00010000
00001000
00001000
,  // measure 55
00001000
00010000
00001000
01000000
,  // measure 56
00100000
10000000
01000000
01000000
,  // measure 57
01000000
00100000
01000000
00100000
,  // measure 58
00001000
00010000
00001000
00001000
,  // measure 59
00001000
00010000
00000100
00000020
,  // measure 60
00000000
00000001
00000000
00000000
00000001
00000000
00000031
00000000
,  // measure 61
00000001
00000100
00000010
00000000
,  // measure 62
00001000
00000010
00001000
00000000
,  // measure 63
00000100
00010000
00001000
00000000
,  // measure 64
00010000
00001000
01000000
00000000
,  // measure 65
00100000
10000000
01000000
00100000
,  // measure 66
01000000
00000000
00100000
00000000
,  // measure 67
00010000
00100000
00001000
00010000
,  // measure 68
00001000
00000000
00010000
00000000
,  // measure 69
00022000
00000000
00000000
00000000
,  // measure 70
00033000
00000000
00000000
00000000
,  // measure 71
00000220
00000000
00000330
00000000
,  // measure 72
00002002
00003003
00000220
00000330
,  // measure 73
00000001
00000100
00000001
00000100
,  // measure 74
00000010
00001000
00000010
00001000
,  // measure 75
00000100
00010000
00001000
00010000
,  // measure 76
00001000
00100000
00010000
10000000
,  // measure 77
20020000
00000000
00000000
00000000
,  // measure 78
30030000
00000000
00000000
00000000
;
