#TITLE:Negative Legacy;
#SUBTITLE:;
#ARTIST:Primary;
#TITLETRANSLIT:;
#SUBTITLETRANSLIT:;
#ARTISTTRANSLIT:;
#GENRE:;
#CREDIT:AznPunk07/Frozen_Heat/GuardianFrozen;
#MENUCOLOR:#e7a720;
#METERTYPE:DDR;
#BANNER:[Round 2] - Negative Legacy.png;
#BACKGROUND:[Round 2] - Negative Legacy-bg.png;
#LYRICSPATH:[Round 2] - Negative Legacy.lrc;
#CDTITLE:cdtitle.png;
#MUSIC:[Round 2] - Negative Legacy.mp3;
#OFFSET:-0.083;
#SAMPLESTART:70.100;
#SAMPLELENGTH:10.105;
#SELECTABLE:YES;
#LISTSORT:;
#DISPLAYBPM:190.000;
#BPMS:0.000=95.000,16.000=190.000;
#STOPS:;
#BGCHANGES:;
#ATTACKS:;

//---------------dance-single - ----------------
#NOTES:
     dance-single:
     :
     Hard:
     8:
     0.606,0.631,0.340,0.068,0.000: // measure 1
0000
0000
0000
0000
,  // measure 2
0000
0000
0000
0000
,  // measure 3
0000
0000
0000
0000
,  // measure 4
0000
0000
0000
0000
,  // measure 5
0101
0000
0001
0100
0000
0100
0010
0000
,  // measure 6
0010
1000
0000
1000
0100
0000
1100
0000
,  // measure 7
1010
0000
0010
1000
0000
1000
0001
0000
,  // measure 8
0001
0010
0000
0010
0100
0000
0110
0000
,  // measure 9
0011
0000
0001
0100
0000
0001
0010
0000
,  // measure 10
0001
1000
0000
0100
1000
0000
1100
0000
,  // measure 11
0110
0000
0010
0001
0000
0001
0100
0000
,  // measure 12
0100
0010
0000
0010
1000
0000
1010
0000
,  // measure 13
0110
0000
0100
0001
0000
0001
0010
0000
,  // measure 14
0010
1000
0000
1000
0010
0000
0011
0000
,  // measure 15
0101
0000
0100
0010
0000
1000
0001
0000
,  // measure 16
0010
0100
0000
1000
0001
0000
1001
0000
,  // measure 17
1010
0000
0010
1000
0000
0010
0100
0000
,  // measure 18
0010
1000
0000
0010
0100
0000
0100
0001
,  // measure 19
0000
0100
0010
0000
0100
0001
0000
0001
,  // measure 20
0010
0000
0001
1000
0000
0001
0010
0000
,  // measure 21
0001
1000
0000
1000
0010
0000
1000
0100
,  // measure 22
0000
1000
0010
0000
1000
0100
0010
0000
,  // measure 23
0001
0010
0000
0100
0010
0000
0001
0010
,  // measure 24
0000
0010
0100
0000
1000
0100
0000
0010
,  // measure 25
0100
0000
1000
0100
0000
0100
1000
0000
,  // measure 26
0001
1000
0000
0010
1000
0000
0001
1000
,  // measure 27
0000
1000
0010
0000
0100
0010
0000
1000
,  // measure 28
0010
0000
0100
0010
2000
0000
0000
0001
,  // measure 29
0000
3001
0100
0010
,  // measure 30
0200
0000
0000
0001
0000
0000
0310
0000
,  // measure 31
1000
0001
1000
0000
0002
0000
0000
0010
,  // measure 32
0000
0013
0100
1000
,  // measure 33
0020
0000
0000
0100
0000
0000
0130
0000
,  // measure 34
0001
0000
0000
1000
0002
0000
0000
0100
,  // measure 35
0000
0013
0100
1000
,  // measure 36
0020
0000
0000
0100
0000
0000
0130
0000
,  // measure 37
0001
1000
0100
0000
1000
0100
0010
0100
,  // measure 38
0000
1000
0100
0000
0010
0001
0100
0001
,  // measure 39
0010
0100
0000
0110
0000
0100
1000
0000
,  // measure 40
0001
1000
1001
0000
0001
0100
0010
0100
,  // measure 41
0000
0001
0100
0010
0100
0010
0000
1000
,  // measure 42
0100
0000
1100
0000
0010
0001
0100
0001
,  // measure 43
0000
0010
0001
0100
0001
0010
0000
0001
,  // measure 44
1000
0000
0101
0000
1000
0100
0010
0100
,  // measure 45
0000
1000
0010
0100
0010
0100
0000
0001
,  // measure 46
0010
0000
0011
0000
1000
0010
0000
1010
,  // measure 47
0000
0001
1000
0100
0000
1000
0010
0000
,  // measure 48
0101
0000
0001
0000
0010
0001
0100
0001
,  // measure 49
0000
1000
0100
1000
0001
0100
0000
0010
,  // measure 50
0100
0010
1000
0000
0001
0010
0100
1000
,  // measure 51
0000
0001
0010
0100
1000
0001
0000
0100
,  // measure 52
0010
0000
0110
0000
0001
0100
0010
0100
,  // measure 53
0001
0010
0100
0010
0001
0100
0010
0100
,  // measure 54
0001
0010
0100
1000
0010
1000
0100
1000
,  // measure 55
0010
0100
1000
0100
0010
1000
0100
1000
,  // measure 56
0010
0100
1000
0100
0001
0010
1000
0010
,  // measure 57
0001
0100
0010
1000
0100
0001
0100
1000
,  // measure 58
0001
0010
0100
0000
1000
0100
0010
0100
,  // measure 59
0000
1000
0100
0010
0001
0100
0010
0100
,  // measure 60
1000
0000
0100
0001
0010
0100
1000
0001
,  // measure 61
0000
0100
0001
0100
0010
1000
0100
0010
,  // measure 62
0001
0100
0010
0000
1000
0100
0001
0100
,  // measure 63
0000
0010
0001
1000
0000
0010
0000
0001
,  // measure 64
0010
1000
1001
0000
1010
0000
1000
0010
,  // measure 65
0000
0010
0100
0000
0100
0001
0000
0001
,  // measure 66
0010
0000
0011
0000
0101
0000
0100
0001
,  // measure 67
0000
0001
1000
0000
1000
0100
0000
0100
,  // measure 68
0010
0000
0110
0000
1100
0000
1000
0010
,  // measure 69
0000
1000
0100
0000
1000
0001
0000
0010
,  // measure 70
0001
0000
0011
0000
0110
0000
0100
1000
,  // measure 71
0000
1000
0010
0000
0010
0100
0000
0100
,  // measure 72
0001
0000
0101
0000
0110
0000
0010
1000
,  // measure 73
0000
1000
0100
0000
0100
0001
0000
0001
,  // measure 74
0100
0000
1100
0000
1010
0000
0010
0100
,  // measure 75
0000
0001
1000
0000
0100
0010
0000
0001
,  // measure 76
1000
0000
1001
0000
0101
0000
1000
0100
,  // measure 77
0000
0001
0200
0000
0300
0000
0000
0000
;

//---------------dance-single - ----------------
#NOTES:
     dance-single:
     :
     Medium:
     7:
     0.431,0.520,0.184,0.097,0.000:
0000
0000
0000
0000
,
0000
0000
0000
0000
,
0000
0000
0000
0000
,
0000
0000
0000
0000
,
1000
0000
0000
0001
0000
0000
0100
0000
,
0000
0010
0000
1000
0010
0000
0000
0000
,
0100
0000
0000
0001
0000
0000
0010
0000
,
0000
0100
0000
1000
0100
0000
0000
0000
,
0010
0000
0000
0001
0000
0000
1000
0000
,
0000
0010
0000
0100
0001
0000
1000
0000
,
0001
0000
0000
1000
0000
0000
0010
0000
,
0000
0100
0000
0001
1000
0000
0000
0000
,
0100
0000
0000
0010
0000
0000
0001
0000
,
0000
0100
0000
0001
0010
0000
0000
0000
,
0100
0000
0000
1000
0000
0000
0001
0000
,
0000
0100
0000
0010
1000
0000
1001
0000
,
0001
0000
0000
0001
0000
0000
1000
0000
,
0000
1000
0000
0000
0010
0000
0000
0010
,
0000
0000
0100
0000
0000
0101
0000
0000
,
0001
0000
0000
0001
0000
0000
1000
0000
,
0000
1000
0000
0000
0100
0000
0000
0100
,
0000
0010
0011
0100
,
0000
0100
0000
0000
1000
0000
0000
1000
,
0000
0000
0001
0000
0000
0001
0000
0000
,
0100
0000
0000
0110
0000
0000
0010
0000
,
0000
0010
0000
0000
1000
0000
0000
1000
,
0000
0000
0001
0000
0000
0001
0000
0000
,
0100
0000
0110
0000
1000
0000
0000
1000
,
0000
0001
0010
0200
,
0010
1000
0300
0000
,
0010
0001
2000
0010
,
0000
3000
0010
1000
,
0002
0000
0000
0023
,
0000
0000
0000
0000
0130
0000
0000
0010
,
0000
0001
1000
0020
,
0001
0100
0030
0000
,
1000
0000
0001
0000
0200
0010
0000
0010
,
0300
0010
0100
0000
0001
1000
0001
0000
,
1000
0100
0000
0110
0000
0010
0001
0000
,
2002
0000
3003
0000
0001
0100
0000
0100
,
0000
0010
1000
0000
0010
0100
0000
0001
,
0010
0000
0100
0000
0010
0001
0000
0001
,
0000
1000
0010
0000
0100
0001
0000
0010
,
0001
0000
1000
0000
0001
0100
0000
0100
,
0000
0000
0010
1000
0000
0010
0100
0000
,
0100
0001
0010
0000
0100
1000
0000
1100
,
0000
1000
0001
0000
0001
1000
0000
0000
,
1001
0000
0100
0000
0001
0010
0000
0110
,
0000
1000
0010
0000
0100
0010
0000
0000
,
0110
0000
0010
0000
1000
0100
1000
0100
,
0000
0000
0010
0001
0000
0010
0001
0000
,
0011
0000
0100
0000
1000
0010
1000
0000
,
0010
0100
0010
0000
0100
0001
0100
0000
,
0001
1000
0001
0000
0010
0001
0010
0000
,
0100
0010
0100
0000
1000
0100
1000
0000
,
0001
1000
0001
0000
0100
0001
0010
0000
,
0100
1000
0010
0000
0100
0001
1000
0000
,
0100
1000
0001
0000
0010
0001
0100
0001
,
0010
0000
0100
1000
0100
0010
0000
0001
,
0100
0000
0010
0000
1000
0010
0100
0010
,
0000
0100
0001
0000
0001
1000
0000
1000
,
0100
0000
0010
0000
0001
0010
0100
1000
,
0000
0001
0010
0000
0010
0100
0000
0100
,
1000
0001
1000
0000
0001
0000
0000
1000
,
0000
0000
0010
0000
0000
0100
0000
0001
,
0100
0000
0110
0000
0010
0000
0000
1000
,
0000
0000
0100
0000
0000
0010
0000
0001
,
0010
0000
0110
0000
0100
0000
0000
1000
,
0000
0000
0001
0000
0000
0100
0000
0010
,
1000
0000
1001
0000
1000
0000
0000
0001
,
0000
0000
0100
0000
0000
0010
0000
1000
,
0001
0000
0011
0000
0010
0000
0000
0100
,
0000
0000
1000
0000
0000
0010
0000
1000
,
0100
0000
1100
0000
1000
0000
0000
0001
,
0000
0000
0100
0000
0000
0010
0000
0100
,
0001
0000
1001
0000
0010
0000
0000
0100
,
0000
2002
3003
0000
;

//---------------dance-single - ----------------
#NOTES:
     dance-single:
     :
     Beginner:
     2:
     0.132,0.221,0.019,0.000,0.000:
0000
0000
0000
0000
,
0000
0000
0000
0000
,
0000
0000
0000
0000
,
0000
0000
0000
0000
,
1000
0000
0000
0000
,
0000
0000
0000
0000
,
0001
0000
0000
0000
,
0000
0000
0000
0000
,
1000
0000
0000
0000
,
0000
0000
0000
0000
,
0010
0000
0000
0000
,
0000
0000
0000
0000
,
0100
0000
0000
0000
,
0000
0000
0000
0000
,
0010
0000
0000
0000
,
0000
0000
0000
0000
,
1000
0000
0000
1000
,
0000
0000
0001
0000
,
0000
0001
0000
0000
,
0100
0000
0000
0100
,
0000
0000
0010
0000
,
0000
0010
0000
0100
,
0000
0000
0100
0000
,
0000
0001
0000
0000
,
0001
0000
0000
1000
,
0000
0000
1000
0000
,
0000
0010
0000
0000
,
0010
0010
0010
0000
,
0000
0000
0000
0000
,
0100
0000
0000
0000
,
0000
0000
0001
0000
,
0000
0000
0000
0000
,
1000
0000
0000
0000
,
0000
0000
0100
0000
,
0000
0000
0000
0000
,
0010
0000
0000
0000
,
0000
0000
0001
0000
,
0000
1000
0000
0000
,
1001
0000
0000
1001
,
0000
0000
1000
0000
,
0100
0000
1000
0000
,
0000
0000
0001
0000
,
0100
0000
0001
0000
,
0000
0000
1000
0000
,
0010
0000
1000
0000
,
0000
0000
0001
0000
,
0010
0000
0100
0000
,
0000
0000
1000
0000
,
0010
0000
0100
0000
,
0000
0000
0001
0000
,
0100
0000
0010
0000
,
0000
0000
1000
0000
,
0001
0000
0100
0000
,
0010
0000
1000
0000
,
0001
0000
0010
0000
,
0100
0000
1000
0000
,
0001
0000
0100
0000
,
0010
0000
1000
0000
,
1000
0000
0001
0000
,
0010
0000
0100
0000
,
0100
0000
0010
0000
,
0001
0000
0010
0000
,
0010
0000
0001
0000
,
1000
0000
0001
0000
,
0000
0000
1000
0000
,
0000
0000
0010
0000
,
0000
0000
0100
0000
,
0000
0000
0001
0000
,
0000
0000
1000
0000
,
0000
0000
0100
0000
,
0010
0000
0001
0000
,
0000
0000
0100
0000
,
0010
0000
1000
0000
,
0000
0000
0001
0000
,
0010
0000
0100
0000
,
1000
0000
0001
0000
,
1000
0000
0000
0000
;

//---------------dance-single - ----------------
#NOTES:
     dance-single:
     :
     Easy:
     4:
     0.290,0.333,0.019,0.155,0.000:
0000
0000
0000
0000
,
0000
0000
0000
0000
,
0000
0000
0000
0000
,
0000
0000
0000
0000
,
0001
0000
0100
0000
,
0010
0000
1000
0000
,
0100
0000
0010
0000
,
0001
0000
1000
0000
,
0010
0000
0100
0000
,
0001
0000
0010
0000
,
0100
0000
0010
0000
,
0001
1000
0010
0000
,
0100
0000
0001
0000
,
1000
0100
0010
0000
,
0001
0000
1000
0000
,
0001
0010
0100
1000
,
0002
0000
0000
0003
0000
0000
2000
0000
,
0000
3000
0000
0000
0020
0000
0000
0030
,
0000
0000
0200
0000
0000
0300
0000
0000
,
0002
0000
0000
0003
0000
0000
2000
0000
,
0000
3000
0000
0000
0200
0000
0000
0300
,
0000
0000
0020
0000
0000
0030
0200
0000
,
0000
0300
0000
0000
2000
0000
0000
3000
,
0000
0000
0002
0000
0000
0003
0000
0000
,
0200
0000
0000
0300
0000
0000
0020
0000
,
0000
0030
0000
0000
2000
0000
0000
3000
,
0000
0000
0002
0000
0000
0003
0000
0000
,
0200
0000
0000
0300
0001
0000
0100
0000
,
0001
0000
0000
0000
,
1000
0100
0010
0000
,
0000
0000
0001
1000
,
0010
0000
0000
0100
,
0001
0000
0000
1000
,
0000
0000
0100
0000
,
0000
0000
0010
0100
,
1000
0001
0000
0000
,
0100
0010
1000
0001
,
0100
0000
0001
1000
,
0001
0000
0000
1001
,
0000
0000
1000
0100
,
0010
0100
1000
0001
,
1000
0000
0001
0100
,
0010
0100
0001
0010
,
0100
0000
1000
0010
,
0100
0001
0010
0100
,
1000
0000
0001
0100
,
0001
0010
0100
0010
,
0001
0000
1000
0010
,
0100
0010
1000
0100
,
0010
0000
0001
0100
,
0010
1000
0001
0010
,
0100
0000
1000
1000
,
0001
0001
0100
0100
,
0010
0010
1000
1000
,
0001
0001
0010
0010
,
0100
0100
1000
1000
,
0001
0001
0100
0100
,
0010
0010
1000
0100
,
0010
0001
0100
0010
,
1000
0000
0001
0010
,
0100
1000
0010
0100
,
0001
0000
1000
0100
,
0010
0001
1000
0010
,
0100
0000
0001
0000
1000
0000
0000
1000
,
0000
0000
1000
0000
0000
1000
0000
0000
,
1000
0000
0000
0000
0001
0000
0000
0001
,
0000
0000
0001
0000
0000
0001
0000
0000
,
0001
0000
0000
0000
0100
0000
0000
0100
,
0000
0000
0100
0000
0000
0100
0000
0000
,
0100
0000
0000
0000
0001
0000
0000
0010
,
0000
0000
0100
0000
0000
0010
0000
0000
,
0001
0000
0000
0000
1000
0000
0000
0010
,
0000
0000
0100
0000
0000
0010
0000
0000
,
1000
0000
0000
0000
0010
0000
0000
0010
,
0000
0000
0010
0000
0000
0010
0000
0000
,
0010
0000
0000
0000
0100
0000
0000
0100
,
0000
1001
0000
0000
;
