#TITLE:Go Go Carlito (Who's That Boy?);
#SUBTITLE:;
#ARTIST:Carlito;
#TITLETRANSLIT:;
#SUBTITLETRANSLIT:;
#ARTISTTRANSLIT:;
#CREDIT:Lisek;
#BANNER:[Round 2] - Go Go Carlito (Who's That Boy).png;
#BACKGROUND:[Round 2] - Go Go Carlito (Who's That Boy)-bg.png;
#LYRICSPATH:;
#CDTITLE:cdtitle.png;
#MUSIC:[Round 2] - Go Go Carlito (Who's That Boy).ogg;
#OFFSET:-0.070;
#SAMPLESTART:18.070;
#SAMPLELENGTH:15.940;
#SELECTABLE:YES;
#BPMS:0.000=120.000;
#STOPS:;
#BGCHANGES:1.250=[Round 2] - Go Go Carlito (Who's That Boy).avi=1.000=0=0=1,
99999=-nosongbg-=1.000=0=0=0 // don't automatically add -songbackground-
;

//---------------dance-single - Lisek----------------
#NOTES:
     dance-single:
     Lisek:
     Hard:
     8:
     0.478,0.544,0.244,0.045,0.307: // measure 1
0000
0000
0000
0000
,  // measure 2
0000
0000
0000
0000
,  // measure 3
0000
0000
0000
0000
,  // measure 4
0000
0000
0000
0000
,  // measure 5
1000
0000
0000
0100
0000
0000
1000
0000
0010
0000
0000
0100
0000
0000
0001
0000
,  // measure 6
0100
0010
0100
0001
1000
0010
1000
0001
,  // measure 7
0101
0000
0000
0110
0000
0000
1010
0000
0000
0000
0000
0000
0000
0000
1000
0000
,  // measure 8
0100
1000
0001
0100
0010
0100
0001
1000
,  // measure 9
1001
0000
0000
0110
0000
0000
1001
0000
0000
0000
0000
0000
0000
0000
0000
0000
,  // measure 10
1000
0000
0010
0100
0000
0010
0100
0010
1000
0000
0001
0000
0100
0000
0001
0000
,  // measure 11
1000
1001
0001
1001
,  // measure 12
1000
0000
0010
0100
0000
0000
0001
0000
0010
0000
0001
0000
1000
0000
0010
0000
,  // measure 13
1000
0010
1000
0010
0000
1000
0000
0000
0001
0100
0001
0100
0000
0001
0000
0000
,  // measure 14
1000
0000
0001
0100
0000
0001
1000
0001
0100
0000
0010
0000
0100
0000
0001
0000
,  // measure 15
0101
0000
0000
0000
0101
0000
0000
0000
1000
0010
1000
0010
0000
1000
0000
0000
,  // measure 16
0001
0000
0100
0001
0000
0000
1000
0000
0010
0000
0100
0000
0001
0000
0010
0000
,  // measure 17
0000
0000
0001
0000
0100
0000
0010
0000
1000
0000
0000
0001
1000
0000
0000
0000
,  // measure 18
0001
0100
0010
1000
0100
0010
0001
0010
,  // measure 19
0100
1000
0001
0100
0001
1000
0000
0000
,  // measure 20
0001
0100
0010
1000
0100
0010
0001
0010
,  // measure 21
0100
1000
0000
0000
0000
0000
0000
0000
,  // measure 22
0001
0100
0010
1000
0100
0010
0100
1000
,  // measure 23
0001
0100
0001
1000
0010
1000
0000
0000
,  // measure 24
0001
0100
0010
1000
0100
0010
0001
0010
,  // measure 25
0100
0010
0001
0000
1001
0000
2000
0000
,  // measure 26
3010
0100
0001
1000
0100
0010
0001
0010
,  // measure 27
0100
1000
0100
0000
1001
0000
0000
0000
,  // measure 28
1001
0000
0000
0000
0000
0000
1000
0000
0010
0000
0000
0100
0000
0000
0010
0000
,  // measure 29
1000
0000
0000
0000
0001
0000
0000
0000
0010
0000
0000
0001
0000
0000
0100
0000
,  // measure 30
0010
0000
0000
1000
0000
0000
0010
0000
0100
0000
0000
0001
0000
0000
1000
0000
,  // measure 31
0100
0000
0000
0000
1000
0000
0000
0000
0010
0000
0000
0100
0000
0000
0001
0000
,  // measure 32
0100
0000
0000
0000
0010
0000
1000
0000
0100
0000
0000
0010
0000
0000
0001
0000
,  // measure 33
1000
0000
0000
0000
0010
0000
0000
0000
0100
0000
0000
0001
0000
0000
1000
0000
,  // measure 34
0010
0000
0000
1000
0000
0000
0001
0000
0100
0000
0000
0010
0000
0000
1000
0000
,  // measure 35
0002
0010
0003
0100
2000
0001
3000
0001
,  // measure 36
1001
0000
0000
0110
0000
0000
0000
0000
,  // measure 37
1001
0000
0000
0110
0000
0000
1001
0000
0000
0000
0000
0000
0000
0000
0000
0000
,  // measure 38
0001
0000
0100
0010
0000
1000
0010
0100
0010
0000
1000
0000
0001
0000
0010
0000
,  // measure 39
0001
1001
1000
1001
,  // measure 40
0001
0000
1000
0010
0000
0000
0100
0000
0010
0000
1000
0000
0001
0000
0100
0000
,  // measure 41
0010
1000
0010
1000
0000
0010
0000
0000
0100
0001
0100
0001
0000
0100
0000
0000
,  // measure 42
0001
0000
0100
0010
0000
0100
0010
1000
0001
0000
1000
0000
0001
0000
0100
0000
,  // measure 43
0101
0000
0000
0000
0101
0000
0000
0000
0001
0100
0001
0100
0000
0001
0000
0000
,  // measure 44
1000
0000
0001
0100
0000
0000
0010
0000
1000
0000
0010
0000
0100
0000
0001
0000
,  // measure 45
0000
0000
0010
0000
0100
0000
1000
0000
0001
0000
0000
1000
0001
0000
0000
0000
,  // measure 46
1000
0000
0010
1000
0000
0001
0010
0001
0100
0000
0010
0000
1000
0000
0010
0000
,  // measure 47
1000
1001
0001
1001
,  // measure 48
1000
0000
0001
0100
0000
0000
0010
0000
0100
0000
0001
0000
1000
0000
0010
0000
,  // measure 49
1000
0010
1000
0010
0000
1000
0000
0000
0001
0100
0001
0100
0000
0001
0000
0000
,  // measure 50
1000
0000
0001
0010
0000
0001
0100
0010
0100
0000
0010
0000
1000
0000
0010
0000
,  // measure 51
1010
0000
0000
0000
1010
0000
0000
0000
1000
0010
1000
0010
0000
1000
0000
0000
,  // measure 52
0001
0000
0100
0010
0000
0000
0100
0000
0001
0000
1000
0000
0010
0000
1000
0000
,  // measure 53
0000
0000
0001
0000
0010
0000
0100
0000
1000
0000
0000
0001
1000
0000
0000
0000
,  // measure 54
0001
0100
0010
1000
,  // measure 55
0002
2003
3001
1001
;

//---------------dance-single - Lisek----------------
#NOTES:
     dance-single:
     Lisek:
     Challenge:
     9:
     0.661,0.668,0.154,0.081,0.850: // measure 1
0000
0000
0000
0000
,  // measure 2
0000
0000
0000
0000
,  // measure 3
0000
0000
0000
0000
,  // measure 4
0000
0000
0000
0000
,  // measure 5
1000
0000
0000
0001
0000
0000
0100
0000
0001
0000
0000
1000
0000
0100
1000
0100
,  // measure 6
1000
0000
0010
0100
0010
0000
1000
0100
1000
0010
0100
0010
1000
0000
0010
0000
,  // measure 7
1010
0000
0000
0000
0000
0000
0000
0000
0000
0110
0000
0000
0000
0000
0000
0000
0000
0000
0101
0000
0000
0000
0000
0000
0001
0000
0000
0000
0010
0000
0000
0000
0100
0000
0000
0000
1000
0000
0000
0001
0000
0000
0100
0000
0000
0001
0000
0000
,  // measure 8
0100
0000
0010
1000
0010
0000
0100
0001
0100
0010
1000
0010
0100
0000
0001
0000
,  // measure 9
0101
0000
0000
0000
0000
0000
0000
0000
0000
0110
0000
0000
0000
0000
0000
0000
0000
0000
1010
0000
0000
0000
0000
0000
0000
0000
0000
0000
0000
0000
0001
0000
1000
0000
0001
0000
1000
0000
0000
0000
0000
0000
0001
0000
0000
0000
0000
0000
,  // measure 10
1000
0000
0010
1000
0001
0000
0100
0001
0010
0000
0100
1000
0010
0000
1000
0000
,  // measure 11
0001
0000
0000
0001
0100
0000
1000
0000
0100
0000
0000
1000
0100
0000
0001
0000
,  // measure 12
0100
0000
0010
1000
0100
0000
0010
0001
1000
0000
0010
0100
0001
0000
1000
0000
,  // measure 13
0001
0100
0010
0100
0000
0001
0000
0000
1000
0010
0100
0010
0000
1000
0000
0000
,  // measure 14
0001
0000
1000
0010
0100
0000
0001
0100
0010
0000
1000
0001
0100
0000
0010
0000
,  // measure 15
1010
0000
0000
0000
0110
0000
0000
0000
0100
0001
0100
0010
0000
0100
0000
0000
,  // measure 16
0001
0000
0100
0010
1000
0000
0001
0100
0010
0000
1000
0010
0100
0000
0001
0000
,  // measure 17
0000
0000
1000
0000
0100
0000
0001
0000
0200
0000
0300
0010
0002
0000
0003
0000
,  // measure 18
1000
0000
0010
0100
0000
0001
0000
0100
0000
0001
0000
1000
0000
0010
0100
0000
,  // measure 19
0010
0000
1000
0100
0000
0010
0000
0001
0000
1000
0000
0000
0001
0000
0000
0000
,  // measure 20
1000
0000
0010
0100
0000
0001
0000
0100
0000
0010
0000
1000
0000
0100
0000
1000
,  // measure 21
0001
0000
1000
0000
0010
0000
0000
0000
0100
0001
0100
0010
1000
0000
1010
0000
,  // measure 22
0010
0000
0100
0001
0000
0010
0000
0100
0000
1000
0000
0001
0000
0100
0000
0010
,  // measure 23
0000
0000
0000
1000
0000
0000
0000
0000
0000
0100
0000
0000
0000
0000
0000
0010
0000
0000
0000
0000
0000
0001
0000
0000
0000
0000
0000
1000
0000
0000
0001
0000
0100
0000
0001
0000
0100
0000
0000
0000
0000
0000
0010
0000
0000
0000
0000
0000
,  // measure 24
1000
0000
0100
0010
0000
0100
0000
1000
0000
0001
0000
0100
0000
0010
0000
0100
,  // measure 25
0000
0000
0000
0001
0000
0000
0000
0000
0000
1000
0000
0000
0001
0000
0000
0000
0000
0000
1000
0000
0000
0000
0000
0000
0010
0000
0000
0000
0000
0000
0100
0000
0000
0000
0000
0000
0001
0000
0000
0000
1000
0000
0000
0000
0010
0000
0000
0000
,  // measure 26
0100
0000
0001
0010
0000
0001
0000
0100
0000
0001
0000
1000
0000
0010
0000
1000
,  // measure 27
0000
0100
0000
1000
0001
0000
0100
0000
0020
0000
0000
0000
0000
0000
0030
0000
,  // measure 28
1000
0000
0010
0100
0001
0000
0010
0100
1000
0000
0001
0100
0010
0000
1000
0100
,  // measure 29
0010
0000
0001
1000
0010
0000
0100
0001
1000
0000
0010
1000
0001
0000
1000
0001
,  // measure 30
0100
0000
0001
0010
0100
0000
1000
0010
0100
0000
0001
0100
0010
0000
1000
0100
,  // measure 31
0010
0000
0001
1000
0010
0000
0100
0001
1000
0000
0010
0100
0001
0000
0100
0010
,  // measure 32
1000
0000
0100
0010
0001
0000
1000
0001
0100
0000
0001
0010
0100
0000
1000
0001
,  // measure 33
0010
0000
0100
1000
0001
0000
0010
0001
1000
0000
0100
1000
0010
0000
0100
0001
,  // measure 34
0010
0000
0100
1000
0001
0000
0100
0001
1000
0000
0010
0100
0001
0000
0010
0100
,  // measure 35
2000
0000
0100
0000
0000
0000
3100
0000
0020
0000
0001
0000
0030
0001
0010
0001
,  // measure 36
0010
0000
0100
1000
0100
0000
0010
0001
0010
0100
1000
0100
1000
0000
0100
0000
,  // measure 37
0110
0000
0000
0011
0000
0000
2002
0000
0000
0000
0000
0000
3003
0000
0000
0000
,  // measure 38
1000
0000
0001
0100
0010
0000
1000
0010
0100
0000
0001
0100
0010
0000
1000
0000
,  // measure 39
0001
0000
0000
0100
1000
0000
0100
0000
0001
0000
0000
1000
0100
0000
0001
0000
,  // measure 40
0100
0000
1000
0010
0100
0000
0001
0100
0010
0000
1000
0001
0100
0000
0010
0000
,  // measure 41
1000
0100
1000
0010
0000
1000
0000
0000
0001
0100
0001
0010
0000
0001
0000
0000
,  // measure 42
1000
0000
0001
0100
0010
0000
0100
0001
1000
0000
0010
0100
0001
0000
1000
0000
,  // measure 43
1010
0000
0000
0000
0101
0000
0000
0000
0001
0100
0010
1000
0000
0010
0000
0000
,  // measure 44
1000
0000
0001
0100
0010
0000
1000
0010
0100
0000
0001
1000
0100
0000
0100
1000
,  // measure 45
0010
0000
0100
0001
0010
0000
0100
1000
0001
0100
0010
1000
0010
0000
1000
0000
,  // measure 46
0001
0000
0100
0010
1000
0000
0001
0100
0010
0000
1000
0100
0010
0000
0001
0000
,  // measure 47
1000
0000
0000
0010
0001
0000
0010
0000
1000
0000
0000
0100
0001
0000
0100
0000
,  // measure 48
1000
0000
0001
0100
0010
0000
1000
0010
0100
0000
0001
1000
0010
0000
1000
0000
,  // measure 49
0001
0100
0010
0100
0000
0001
0000
0000
1000
0010
0100
0010
0000
1000
0000
0000
,  // measure 50
0001
0000
1000
0010
0100
0000
0001
1000
0010
0000
1000
0100
0010
0000
0001
0000
,  // measure 51
0101
0000
0000
0000
0110
0000
0000
0000
1000
0010
0100
0010
0000
0100
0000
0000
,  // measure 52
0001
0000
0100
0010
1000
0000
0001
0100
0010
0000
1000
0010
0100
0000
0010
0000
,  // measure 53
0000
0000
0100
0000
1000
0000
0100
0000
0002
0000
0003
1000
0200
0000
0300
0000
,  // measure 54
1000
0100
0010
0001
,  // measure 55
1000
0001
0100
0010
1000
0100
0010
0000
0000
1001
0000
0000
;

//---------------dance-single - Lisek----------------
#NOTES:
     dance-single:
     Lisek:
     Beginner:
     1:
     0.070,0.099,0.000,0.009,0.000:
0000
0000
0000
0000
,
0000
0000
0000
0000
,
0000
0000
0000
0000
,
0000
0000
0000
0000
,
0000
0000
0000
0000
,
0001
0000
0000
0000
,
1000
0000
0000
0000
,
0001
0000
0000
0000
,
1000
0000
0000
0000
,
0010
0000
0000
0000
,
0100
0000
0000
0000
,
0001
0000
0000
0000
,
1000
0000
0000
0000
,
0001
0000
0000
0000
,
0010
0000
0000
0000
,
0100
0000
0000
0000
,
1000
0000
0001
0000
,
1000
0000
0000
0000
,
0001
0000
0000
0000
,
0100
0000
0000
0000
,
0010
0000
0000
0000
,
1000
0000
0000
0000
,
0100
0000
0000
0000
,
0010
0000
0000
0000
,
0001
0000
0000
0000
,
1000
0000
0000
0000
,
0010
0000
0000
0000
,
1000
0000
0000
0000
,
0001
0000
0000
0000
,
0100
0000
0000
0000
,
0001
0000
0000
0000
,
1000
0000
0000
0000
,
0010
0000
0000
0000
,
1000
0000
0000
0000
,
0001
0000
1000
0000
,
0010
0000
0000
0000
,
0100
0000
0000
0000
,
0001
0000
0000
0000
,
0100
0000
0000
0000
,
0001
0000
0000
0000
,
1000
0000
0000
0000
,
0010
0000
0000
0000
,
1000
0000
0000
0000
,
0001
0000
0000
0000
,
1000
0000
0001
0000
,
1000
0000
0000
0000
,
0010
0000
0000
0000
,
0100
0000
0000
0000
,
0001
0000
0000
0000
,
1000
0000
0000
0000
,
0010
0000
0000
0000
,
1000
0000
0000
0000
,
0001
0000
1000
0000
,
0020
0000
0000
0000
,
0000
0000
0000
0030
;

//---------------dance-single - Lisek----------------
#NOTES:
     dance-single:
     Lisek:
     Medium:
     4:
     0.262,0.272,0.090,0.090,0.014:
0000
0000
0000
0000
,
0000
0000
0000
0000
,
0000
0000
0000
0000
,
0000
0000
0000
0000
,
0000
0000
0000
0000
,
0001
0100
0010
0100
,
0001
0000
0000
0001
0000
0000
0001
0000
0000
0000
0000
0000
0000
0000
0000
0000
,
1000
0010
0100
0010
,
1000
0000
0000
1000
0000
0000
1000
0000
0000
0000
0000
0000
0000
0000
0000
0000
,
0001
0100
0010
1000
,
0001
1001
0000
1001
,
1000
0100
1000
0010
,
0200
0310
0020
0130
,
0001
1000
0010
0100
,
0001
0000
1000
0000
0001
1000
0001
0000
,
1000
0010
0100
0001
,
1000
0100
2000
3001
,
0001
0100
0010
1000
,
0100
1000
0001
0000
,
1000
0010
0100
0001
,
1000
0000
0002
0000
,
1003
0100
1000
0010
,
0100
0001
0100
0000
,
0001
1000
0010
0100
,
0010
1000
1001
0000
,
0001
1000
0010
0100
,
0010
1000
1001
0000
,
1000
0100
1000
0001
,
0100
0001
0010
0001
,
0100
0010
0100
0001
,
0100
0000
0001
1000
,
0010
0000
1000
0010
,
0100
0000
0001
0010
,
0100
1000
0001
0100
,
0002
0003
2000
3000
,
0010
0100
0010
0100
,
0010
0000
0000
0010
0000
0000
0010
0000
0000
0000
0000
0000
0000
0000
0000
0000
,
1000
0001
0100
0001
,
1000
1001
0000
1001
,
0001
0100
0010
0100
,
0002
0103
0200
0301
,
1000
0010
0100
0010
,
1000
0000
0001
0000
1000
0001
1000
0000
,
0001
0100
0010
1000
,
0001
0100
0010
0100
,
0001
1000
0010
0100
,
0010
0110
0000
0110
,
0100
0001
1000
0100
,
2000
3010
0020
1030
,
0010
1000
0001
0100
,
0001
0000
1000
0000
0001
1000
0001
0000
,
1000
0010
0100
0001
,
1000
0100
1000
0001
,
1001
0000
0000
0000
,
0010
0100
0010
1001
;

//---------------dance-single - Lisek----------------
#NOTES:
     dance-single:
     Lisek:
     Easy:
     2:
     0.137,0.198,0.045,0.081,0.000:
0000
0000
0000
0000
,
0000
0000
0000
0000
,
0000
0000
0000
0000
,
0000
0000
0000
0000
,
0000
0000
0000
0000
,
1000
0000
0001
0000
,
2002
0000
0000
3003
0000
0000
0000
0000
,
0010
0000
1000
0000
,
2002
0000
0000
3003
0000
0000
0000
0000
,
1000
0000
0100
0000
,
0010
0000
0001
0000
,
1000
0000
0001
0000
,
0100
0000
0010
0000
,
1000
0000
0001
0000
,
1000
0000
0001
0000
,
0100
0000
0001
0000
,
1000
0000
0010
0000
,
1000
0000
0100
0000
,
1000
0000
0010
0000
,
0100
0000
0001
0000
,
0100
0000
0000
0000
,
0001
0000
0010
0000
,
0001
0000
0100
0000
,
0010
0000
1000
0000
,
0010
0000
0000
0000
,
1000
0000
0100
0000
,
1000
0000
0010
0000
,
1000
0000
0001
0000
,
0100
0000
0001
0000
,
1000
0000
0010
0000
,
1000
0000
0001
0000
,
1001
0000
1000
0000
,
1001
0000
0001
0000
,
1000
0000
0010
0000
,
2000
3000
0002
0003
,
1000
0000
0001
0000
,
2002
0000
3003
0000
,
0001
0000
0100
0000
,
0010
0000
1000
0000
,
0010
0000
0100
0000
,
0001
0000
1000
0000
,
0001
0000
0010
0000
,
0001
0000
1000
0000
,
0010
0000
1000
0000
,
0001
0000
0000
0000
,
1000
0000
0010
0000
,
0100
0000
0001
0000
,
0010
0000
0001
0000
,
1000
0000
0010
0000
,
1000
0000
0001
0000
,
0100
0000
0001
0000
,
1000
0000
0010
0000
,
1000
0000
0001
0000
,
0200
0000
0000
0000
,
0000
0000
0000
0310
;
