#VERSION:0.81;
#TITLE:フー・フローツ;
#SUBTITLE:;
#ARTIST:Nanako;
#TITLETRANSLIT:Fuu Furotsu;
#SUBTITLETRANSLIT:;
#ARTISTTRANSLIT:;
#GENRE:;
#ORIGIN:;
#CREDIT:;
#BANNER:[Round 2] - Fuu Furotsu.png;
#BACKGROUND:[Round 2] - Fuu Furotsu-bg.png;
#PREVIEWVID:;
#JACKET:[Round 2] - Fuu Furotsu-jacket.png;
#CDIMAGE:;
#DISCIMAGE:;
#LYRICSPATH:;
#CDTITLE:;
#MUSIC:[Round 2] - Fuu Furotsu.ogg;
#OFFSET:-1.907;
#SAMPLESTART:57.883;
#SAMPLELENGTH:21.280;
#SELECTABLE:YES;
#BPMS:0.000=180.000;
#STOPS:;
#DELAYS:;
#WARPS:;
#TIMESIGNATURES:0.000=4=4;
#TICKCOUNTS:0.000=4;
#COMBOS:0.000=1;
#SPEEDS:0.000=1.000=0.000=0;
#SCROLLS:0.000=1.000;
#FAKES:;
#LABELS:0.000=Song Start;
#BGCHANGES:;
#KEYSOUNDS:;
#ATTACKS:
;

//---------------dance-single - ----------------
#NOTEDATA:;
#CHARTNAME:;
#STEPSTYPE:dance-single;
#DESCRIPTION:;
#CHARTSTYLE:;
#DIFFICULTY:Challenge;
#METER:9;
#RADARVALUES:0.723,0.871,0.391,0.255,0.164,485.000,43.000,28.000,0.000,0.000,0.000,0.000,0.000,0.723,0.871,0.391,0.255,0.164,485.000,43.000,28.000,0.000,0.000,0.000,0.000,0.000;
#CREDIT:;
#NOTES:
0000
0000
0000
0000
,
0000
0000
0000
0000
,
1000
0000
0000
1000
0010
0000
0000
0110
,
0000
0101
0000
1000
0000
0000
1100
0000
,
0001
0000
0000
0001
0010
0000
0000
0010
,
0100
0000
0000
0000
1100
0000
0000
0100
1000
0000
0001
0000
0100
0000
0000
0000
,
0001
0000
0000
1000
0010
0000
0000
0100
,
0000
0001
1000
0000
0100
0000
0010
0000
,
0001
0010
1000
0001
0100
1000
0010
0220
,
0000
0300
2030
0000
,
3001
1000
0100
1000
0001
0001
0100
0010
,
1000
0100
1000
0010
0001
0010
0100
0001
,
1000
0100
1000
0010
0100
0100
0001
0010
,
0100
0001
0100
0010
0001
1000
0001
1000
,
0010
0100
0001
0100
0010
0010
1000
0100
,
1000
0001
0100
0001
0010
0100
0010
0100
,
1000
1000
0000
1100
0000
0000
0001
0001
,
0100
0000
0010
0000
1000
0000
0001
0010
0001
0010
0100
0000
1000
0000
0100
0000
,
0010
0000
0100
0010
0000
0001
0000
0100
,
0100
0010
0000
1000
0000
0100
0000
1000
,
0001
0000
0100
0001
0000
1000
0000
0100
,
0100
0000
0000
0000
1000
0100
0001
0100
,
0010
0010
0010
0011
,
0100
0100
0100
0110
,
1000
0000
0001
0100
1000
0000
0001
0010
,
1000
0000
1000
0000
0001
0000
1000
0010
1000
0010
0100
0000
0001
0000
0000
0000
,
1000
0001
1000
0010
1000
0001
0100
0010
,
0100
0001
0010
0001
0100
0001
0010
0100
,
1000
0000
1000
0001
0000
0101
0000
1010
,
0000
1000
0001
1000
0100
0001
0100
1000
,
0010
1000
0001
1000
0010
1000
0001
0100
,
0010
1000
0100
0001
0100
0010
0001
0100
,
0010
0100
1000
0100
0001
1000
0100
0001
,
0100
0010
0001
0100
0010
0001
0010
1000
,
1100
1001
0101
0110
,
2002
0000
3003
0000
1000
0100
0001
0010
,
1010
1001
0101
1010
,
2002
0000
3003
0000
0100
0100
0100
0100
,
0001
0010
0000
0100
1000
0000
0001
0100
,
0000
0010
1000
0000
1000
0100
0010
0001
,
0110
0101
0011
1001
,
1010
0000
1000
0000
0001
0000
0100
0001
1000
0001
0100
0000
0110
0000
0000
0000
,
2000
3200
0320
0032
,
0203
0302
0023
0230
,
1300
0000
0100
1100
0000
1001
0000
0011
,
0000
0010
0001
1000
0200
0000
0310
0000
,
0001
0100
1000
0010
0001
0000
0001
0010
,
1000
0100
0001
0000
1000
0100
0010
0001
,
0101
0000
0100
0010
0000
1010
0000
0101
,
0000
0001
0010
0100
1000
0010
1000
0100
,
0020
0032
0203
0320
,
2030
3002
0023
0230
,
1300
0000
0010
0110
0000
0101
0000
1010
,
0000
1000
0010
1000
0200
0000
0310
0000
,
0001
0010
1000
0100
0001
0000
0001
0100
,
1000
0010
0001
0000
1000
0100
0010
0001
,
0101
0000
1000
0010
0000
0110
0000
1001
,
0000
1000
0010
0001
0010
0100
0001
0010
,
0100
0000
0011
0000
1100
0000
1000
0010
,
0100
0000
0101
0000
1010
0000
1000
0001
,
0200
0000
0000
0010
0310
0000
0000
0000
,
1000
0000
0000
0001
0000
0000
0010
0000
0000
0100
0000
0000
0000
0000
0000
1000
0000
0000
0000
0000
0100
0000
0000
0000
,
0010
0000
0001
0000
0100
0000
0010
0000
0001
0000
1000
0000
,
0100
0010
0100
0010
0100
0010
1000
0001
1000
0001
1000
0001
,
0010
0100
0000
1000
0010
0000
0001
0100
,
0000
1000
0010
0000
1000
0100
0010
0001
,
1000
0100
1000
0010
0100
0010
1000
0100
1000
0001
0010
0001
,
0100
0010
0100
0001
0010
0001
1000
0100
1000
0001
1000
0001
,
0010
1000
0010
0001
0100
0100
1000
0100
,
0010
1000
0010
1000
0100
0010
0100
0010
,
0001
0100
0001
0100
0010
0010
1000
0100
,
0001
0100
0001
0100
1000
0010
1000
0010
,
0100
1000
0100
1000
0100
0100
1000
0100
,
0001
0010
0001
0010
0100
1000
0100
1000
,
0100
0010
0001
1000
0100
1000
0010
0001
,
1000
0100
0010
1000
0001
0010
1000
0010
,
0001
0001
0010
0010
0100
0100
1000
1000
,
0001
1000
0100
0001
0010
1000
0100
0010
,
2002
0000
0000
0000
,
0000
0000
0000
3003
;

//---------------dance-single - ----------------
#NOTEDATA:;
#CHARTNAME:;
#STEPSTYPE:dance-single;
#DESCRIPTION:;
#CHARTSTYLE:;
#DIFFICULTY:Hard;
#METER:8;
#RADARVALUES:0.653,0.581,0.492,0.482,0.023,395.000,54.000,53.000,0.000,0.000,0.000,0.000,0.000,0.653,0.581,0.492,0.482,0.023,395.000,54.000,53.000,0.000,0.000,0.000,0.000,0.000;
#CREDIT:;
#NOTES:
0000
0000
0000
0000
,
0000
0000
0000
0000
,
0001
0010
0000
0100
0000
0010
0000
0100
,
0000
0100
0000
1000
0000
0000
1001
0000
,
1000
0010
0000
0100
0000
0100
0000
0001
,
0000
0000
0011
0000
1000
0100
0010
0000
,
0001
0100
0000
0010
0000
1000
0000
0001
,
0000
1000
0100
0010
,
0002
0000
0000
0000
0100
0000
0000
2000
,
0000
3003
0220
0330
,
1010
0000
1100
0000
1000
0100
0000
1100
,
0000
1010
0000
0010
0100
0000
0101
0000
,
0011
0000
0101
0000
0001
0100
0000
0110
,
0000
1010
0000
0010
1000
0010
0100
0010
,
1000
0000
1100
0000
1000
0001
0000
0011
,
0000
0101
0000
0100
0010
1000
0001
1000
,
0100
0100
0000
1001
0000
0000
0001
0001
,
0100
0010
1000
0100
0010
0001
1001
0000
,
0002
0000
0000
0010
0000
1000
0000
0100
,
0203
0000
0000
1000
0000
0010
0000
0001
,
0302
0000
0000
0010
0000
0100
0000
1000
,
1003
0000
0000
0000
1000
0001
1000
0001
,
0100
0100
0100
1001
,
0010
0010
0010
1001
,
2000
0000
0000
3010
0002
0000
0000
0013
,
0100
0010
1000
0100
0010
0001
1001
0000
,
0001
0100
0001
0100
0001
1000
0001
1000
,
0010
0100
0010
0100
0010
1000
0010
1000
,
0100
0000
1000
0100
0000
1100
0000
0012
,
0000
0000
0003
0000
1000
0100
0001
0100
,
1000
0100
1000
0100
1000
0010
1000
0010
,
0100
0001
0100
0001
0100
0010
0100
0010
,
2000
0010
0001
3100
,
0002
0010
1003
0110
,
2000
3002
0203
0310
,
1001
0000
0000
0000
0001
1000
0001
1000
,
0200
0320
0032
1003
,
0110
0000
0000
0000
0010
1000
0001
0100
,
0001
0010
0000
0100
1000
0000
0010
0100
,
0000
0001
1000
0000
0010
0100
0010
0100
,
0002
2003
3200
0302
,
0013
0010
1000
0001
1000
0100
0110
0000
,
0002
0203
0320
2030
,
3200
0320
0230
2300
,
3001
0000
0100
0001
0000
1010
0000
0101
,
0000
0001
1000
0001
,
1000
0001
1000
0100
0010
0000
0001
1000
,
0001
0010
0100
0000
1000
0010
0100
0001
,
1000
0000
0010
0110
0000
0101
0000
1001
,
0000
0001
0010
0001
0100
0010
1000
0100
,
2000
3200
0320
0032
,
0203
0320
2030
3002
,
0013
0000
0100
1000
0000
0011
0000
1100
,
0000
0001
1000
0001
,
1000
0001
0010
0100
1000
0000
0001
1000
,
0100
0010
0001
0000
1000
0010
0100
0001
,
0101
0000
0001
1000
0000
1010
0000
0101
,
0000
1000
0100
0001
0100
1000
0010
0100
,
0001
0000
0101
0000
1001
0000
1000
0100
,
0010
0000
0011
0000
0101
0000
0100
0010
,
2000
0000
0000
0001
0002
0000
3003
0000
,
1000
0000
0000
0001
0000
0000
0010
0000
0000
0200
0000
0000
0000
0000
0000
1300
0000
0000
0000
0000
0010
0000
0000
0000
,
0100
0000
0001
0000
0010
0000
0100
0000
1000
0000
0001
0000
,
0200
0000
0020
0330
,
0110
0110
0000
0001
1000
0000
0110
0110
,
0000
1000
0001
0000
1000
0100
0010
0001
,
0200
2300
3002
0023
,
2030
3200
0320
0032
,
1003
0000
1001
0000
1000
0001
0000
1001
,
0000
0101
0000
0001
0010
0100
0010
0000
,
0011
0000
0101
0000
0100
0010
0000
1010
,
0000
0110
0000
0010
0100
0001
0100
0010
,
1000
0100
1000
0010
0100
0100
0000
0101
,
0000
1010
0000
1000
0010
1000
0100
0000
,
1000
0010
0100
0010
0001
0010
0100
0010
,
1000
0100
0010
0100
0001
0100
0010
0100
,
1000
0100
1000
0100
0010
0001
0010
0001
,
1000
0100
0010
0001
1000
0010
0100
0001
,
2002
0000
0000
0000
,
0000
0000
0000
3003
;

//---------------dance-single - ----------------
#NOTEDATA:;
#CHARTNAME:;
#STEPSTYPE:dance-single;
#DESCRIPTION:;
#CHARTSTYLE:;
#DIFFICULTY:Medium;
#METER:7;
#RADARVALUES:0.564,0.581,0.473,0.410,0.000,337.000,52.000,45.000,0.000,0.000,0.000,0.000,0.000,0.564,0.581,0.473,0.410,0.000,337.000,52.000,45.000,0.000,0.000,0.000,0.000,0.000;
#CREDIT:;
#NOTES:
0000
0000
0000
0000
,
0000
0000
0000
0000
,
1000
0000
1000
0000
0001
0000
0000
0100
,
0000
0100
0000
0000
0000
0000
0110
0000
,
0001
0000
0001
0000
1000
0000
0000
0010
,
0000
0000
0110
0000
0001
1000
0001
0000
,
1000
0000
0000
0000
0100
0000
0000
0010
,
0000
0001
0010
0100
,
1000
0000
0000
0000
0001
0000
0000
0220
,
0000
0000
0000
0330
,
1001
0000
1001
0000
0001
0100
0000
0001
,
0000
1000
0000
0100
1000
0000
1100
0000
,
1001
0000
1001
0000
1000
0100
0000
0010
,
0000
0001
0000
0100
0010
0000
0110
0000
,
1001
0000
1001
0000
0001
0010
0000
0100
,
0000
1000
0000
0001
0100
0000
0101
0000
,
0100
0001
0100
0001
1000
0010
1000
0010
,
0000
0000
0000
1001
,
2000
0000
0000
0010
0000
0010
3000
0001
,
0002
0000
0000
0010
0000
0010
0003
0000
,
0200
0000
0000
0001
0000
0001
0300
0010
,
0020
0000
1000
1030
,
0001
0001
0001
0110
,
1000
1000
1000
0110
,
0002
0000
0000
0103
0020
0000
0000
1030
,
0001
0000
0000
0000
1000
0100
0010
0001
,
0100
0000
0001
0200
0000
0302
0000
2003
,
0000
3200
0000
0320
0000
0031
0000
0001
,
0100
0000
0010
1000
0000
0001
0000
0200
,
0000
0000
0300
0000
0001
0010
0100
1000
,
0100
0000
1000
0020
0000
0230
0000
0302
,
0000
0023
0000
0230
0000
0320
0000
0031
,
2000
0010
0001
3001
,
0002
0100
1000
1003
,
1001
0101
1001
1100
,
1001
0000
0000
0000
0001
1000
0001
0000
,
1001
1010
1001
0011
,
1001
0000
0000
0000
1000
0010
1000
0000
,
0001
0001
0000
0010
0010
0000
0100
0100
,
0000
1000
1000
0000
1000
0010
0100
0001
,
0010
0100
0010
0001
,
1001
0000
0000
0110
,
0002
2003
3200
0320
,
0032
0023
0230
2300
,
3100
0000
1000
0100
0000
0001
0000
0100
,
0000
1000
0001
1000
,
0001
0100
0001
0100
0010
0000
1000
0100
,
1000
0100
0010
0000
0001
0100
0010
1000
,
0100
0000
1000
0001
0000
1001
0000
0210
,
0000
0010
0010
0310
,
2000
3020
0230
0302
,
0203
0320
2030
3020
,
0130
0000
0001
0100
0000
1000
0000
0100
,
0000
0001
1000
0001
,
1000
0010
1000
0010
0100
0000
0001
0010
,
0001
0010
0100
0000
1000
0100
0010
0001
,
0010
0000
0001
1000
0000
0110
0000
1002
,
0000
0000
1000
0000
1003
0000
0001
0100
,
0010
0000
0110
0000
1001
0000
1000
0100
,
0010
0000
0110
0000
1001
0000
1000
0001
,
0200
0000
0000
0010
0310
0000
0000
0000
,
1000
0000
0000
0001
0000
0000
0110
0000
,
0020
0000
0000
0100
0230
0000
0000
0001
,
0301
0000
1000
0000
0001
0010
0100
0000
,
1000
0100
0000
0010
0001
0000
0001
0100
,
0000
0010
1000
0000
1000
0100
0010
0001
,
0100
0101
1000
0101
,
1001
1010
1100
1010
,
1001
0000
1001
0000
1000
0100
0000
0010
,
0000
0001
0000
0100
0010
0000
1001
0000
,
0110
0000
0110
0000
0100
0001
0000
0010
,
0000
0100
0000
1000
0100
0000
0110
0000
,
1001
0000
1001
0000
0001
0100
0000
0001
,
0000
0010
0000
0100
1000
0000
1001
0000
,
1000
0100
1000
0100
0010
0001
0010
0000
,
0001
0100
0001
0100
0010
1000
0010
0000
,
1000
0010
1000
0010
0100
0001
0100
0000
,
0001
0100
0001
0100
0010
1000
0010
0000
,
2002
0000
0000
0000
,
0000
0000
0000
3003
;

//---------------dance-single - ----------------
#NOTEDATA:;
#CHARTNAME:;
#STEPSTYPE:dance-single;
#DESCRIPTION:;
#CHARTSTYLE:;
#DIFFICULTY:Easy;
#METER:5;
#RADARVALUES:0.468,0.581,0.519,0.473,0.000,251.000,57.000,52.000,0.000,0.000,0.000,0.000,0.000,0.468,0.581,0.519,0.473,0.000,251.000,57.000,52.000,0.000,0.000,0.000,0.000,0.000;
#CREDIT:;
#NOTES:
0000
0000
0000
0000
,
0000
0000
0000
0000
,
0002
0000
0000
2000
0000
0000
0000
0000
,
0000
0000
0000
3003
0000
0000
0110
0000
,
1000
0000
0000
0001
0000
0000
0000
2002
,
0000
0000
3003
0110
,
0001
0000
0000
1000
0000
0000
0000
0001
,
0000
1000
0100
0010
,
0001
0000
0000
0000
1000
0000
0000
0220
,
0000
0000
0000
0330
,
1000
0001
1000
0100
,
0010
0001
0100
0110
,
0001
0010
0100
1000
,
0010
0100
0001
1001
,
1000
0100
0001
0100
,
1000
0010
0100
0001
,
2002
0000
0000
3003
,
0000
0000
0000
0110
,
2002
0000
0000
0000
3003
0000
0000
0002
,
2000
0000
3003
0000
,
0220
0000
0000
0000
0330
0000
0000
2000
,
0002
0000
3003
0000
,
1000
0001
1000
0110
,
0001
1000
0001
0110
,
0100
0100
0001
0001
,
1000
0010
0100
0110
,
1001
1000
0010
1000
,
0001
0100
0001
1000
,
0010
0100
0001
1000
,
0001
0010
0100
1000
,
1001
0001
0100
0001
,
1000
0010
1000
0100
,
0010
0010
0001
0001
,
1000
0100
0001
0010
,
1000
0001
0110
0110
,
1001
0000
0000
0000
0100
0100
0100
0000
,
0001
1000
0110
0110
,
1001
0000
0000
0000
0010
0010
0010
0000
,
1000
0000
0000
0101
0000
0000
0001
0000
,
0000
1100
0000
0000
0001
0000
1000
0000
,
0002
0203
0320
2030
,
3001
0000
0000
0110
,
0002
2003
3002
0203
,
0302
0023
0230
2300
,
3100
0000
0000
1100
0000
0011
0000
1100
,
0000
0001
1000
0001
,
1000
0100
0001
1000
,
0010
0001
0100
0010
,
0110
0000
0000
0101
0000
1010
0000
0101
,
0000
0001
0100
0010
,
2000
3002
2003
3020
,
2030
3200
0320
0032
,
0013
0000
0000
0011
0000
1100
0000
0011
,
0000
1000
0001
1000
,
0001
0100
1000
0001
,
0010
1000
0010
0100
,
0110
0000
0000
1001
0000
0110
0000
2002
,
0000
3003
0000
0001
,
1000
1100
0011
0001
,
1000
1010
0101
0002
,
2000
0000
0000
3003
,
0220
0000
0000
0330
,
0001
0000
1000
0000
,
0010
0000
1001
0000
,
0010
0000
0000
1001
0000
0000
0100
0000
,
0000
1001
0000
0000
1000
0000
0100
0000
,
0020
0032
0203
0320
,
2030
3200
0320
0032
,
0103
0010
1000
0001
,
0010
0001
1000
1001
,
0010
1000
0100
1000
,
0001
0100
0001
1001
,
0001
0001
0100
0010
,
1000
1000
0100
0010
,
0011
0100
0010
1000
,
1010
0010
0100
0001
,
0101
0001
1001
1000
,
1010
1001
0011
0110
,
2002
0000
0000
0000
,
0000
0000
0000
3003
;

//---------------dance-single - ----------------
#NOTEDATA:;
#CHARTNAME:;
#STEPSTYPE:dance-single;
#DESCRIPTION:;
#CHARTSTYLE:;
#DIFFICULTY:Beginner;
#METER:3;
#RADARVALUES:0.173,0.284,0.118,0.155,0.000,103.000,13.000,17.000,0.000,0.000,0.000,0.000,0.000,0.173,0.284,0.118,0.155,0.000,103.000,13.000,17.000,0.000,0.000,0.000,0.000,0.000;
#CREDIT:;
#NOTES:
0000
0000
0000
0000
,
0000
0000
0000
0000
,
1000
0000
0000
0000
,
0000
0000
0000
0000
,
0001
0000
0000
0000
,
0000
0000
0000
0000
,
1000
0000
0000
0000
,
1000
0000
0000
0000
,
0001
0000
0000
0000
,
1001
0000
0000
0000
,
1000
0000
0000
0000
,
0100
0000
0000
0000
,
0010
0000
0000
0000
,
0001
0000
0000
0000
,
0010
0000
0000
0000
,
0100
0000
0000
0000
,
2000
0000
0000
3000
,
0000
0000
0000
0000
,
0001
0000
0000
0000
,
0010
0000
0000
0000
,
0100
0000
0000
0000
,
1000
0000
0000
0000
,
0100
0000
0000
0000
,
0010
0000
0000
0000
,
0001
0000
0000
0000
,
1001
0000
0000
0000
,
1000
0000
0000
0000
,
1000
0000
0000
0000
,
0010
0000
0010
0000
,
0010
0000
0000
0000
,
0100
0000
0000
0000
,
0100
0000
0000
0000
,
0001
0000
0001
0000
,
0001
0000
0000
0000
,
1001
0000
0000
0000
,
1001
0000
0000
0000
,
0110
0000
0000
0000
,
0110
0000
0000
0000
,
1001
0000
0000
0001
,
0000
0000
1000
0000
,
1000
0000
1000
0000
,
1000
0000
0000
0000
,
0002
0000
0003
0000
,
0200
0000
0300
0000
,
0020
0000
0030
0000
,
2000
0000
3000
0000
,
0001
0001
0001
0000
,
1000
1000
1000
0000
,
0001
0000
1000
0000
,
0001
0000
0000
0000
,
2000
0000
3000
0000
,
0020
0000
0030
0000
,
0200
0000
0300
0000
,
0002
0000
0003
0000
,
1000
1000
1000
0000
,
0001
0001
0001
0000
,
0100
0000
0010
0000
,
0100
0000
0000
0000
,
0001
0000
1001
0000
,
1000
0000
1001
0000
,
0002
0000
0003
0000
,
0200
0000
0300
0000
,
0020
0000
0030
0000
,
2000
0000
3000
0000
,
1001
0000
0000
1000
,
0000
0000
0001
0000
,
0001
0000
0001
0000
,
1000
0000
0001
0000
,
1000
0000
0100
0000
,
0010
0000
0001
0000
,
0010
0000
0100
0000
,
1000
0000
0001
0000
,
0100
0000
0010
0000
,
1000
0000
0001
0000
,
2002
0000
3003
0000
,
0220
0000
0330
0000
,
1000
1000
1000
0000
,
0001
0001
0001
0000
,
1001
0000
0000
0000
;

//---------------dance-double - ----------------
#NOTEDATA:;
#CHARTNAME:;
#STEPSTYPE:dance-double;
#DESCRIPTION:;
#CHARTSTYLE:;
#DIFFICULTY:Challenge;
#METER:10;
#RADARVALUES:0.709,0.871,0.291,0.355,0.127,474.000,32.000,39.000,0.000,0.000,0.000,0.000,0.000,0.709,0.871,0.291,0.355,0.127,474.000,32.000,39.000,0.000,0.000,0.000,0.000,0.000;
#CREDIT:;
#NOTES:
// measure 0
00000000
00000000
00000000
00000000
,  // measure 1
00000000
00000000
00000000
00000000
,  // measure 2
10000000
00000000
00000000
00100000
00010000
00000000
00000000
00001000
,  // measure 3
00000000
00000100
00000000
00000001
00000000
00000000
00001001
00000000
,  // measure 4
00000001
00000000
00000000
00000010
00001000
00000000
00000000
00001000
,  // measure 5
00010000
00000000
00000000
00000000
00011000
00000000
00000000
00010000
00001000
00000000
00100000
00000000
00010000
00000000
01000000
00000000
,  // measure 6
00100000
00000000
00000000
01000000
00000000
00010000
00000000
10000000
,  // measure 7
00000000
00100000
00010000
00001000
,  // measure 8
00000100
00000010
00000100
00000001
00000010
00000100
00010000
00002000
,  // measure 9
00000000
00000000
00200000
00303000
,  // measure 10
00001000
00100000
00001000
00010000
00001000
00001000
00010000
00000100
,  // measure 11
00001000
00000100
00001000
00000100
00000001
00000100
00001000
00000010
,  // measure 12
00000100
00001000
00000100
00001000
00010000
00010000
00001000
00100000
,  // measure 13
00010000
00100000
00010000
01000000
00100000
10000000
01000000
10000000
,  // measure 14
00010000
01000000
00010000
10000000
01000000
01000000
10000000
00100000
,  // measure 15
00010000
00001000
00010000
00001000
00000100
00000010
00000100
00000010
,  // measure 16
00001000
00001000
00000000
00001100
00000000
00000000
00000001
00000001
,  // measure 17
00001000
00000000
00001000
00000000
00000100
00000000
00010000
00001000
00010000
00001000
00010000
00000000
00011000
00000000
00000000
00000000
,  // measure 18
00000200
00000000
00000000
00000010
00000000
00001000
00000000
00010000
,  // measure 19
00020300
00000000
00000000
00000100
00000000
00001000
00000000
00001000
,  // measure 20
00032000
00000000
00000000
00000100
00000000
00010000
00000000
00100000
,  // measure 21
00203000
00000000
00010000
00310000
,  // measure 22
10000000
10000000
10000000
10010000
,  // measure 23
00001000
00001000
00001000
00011000
,  // measure 24
00020000
00000000
00031000
00000100
00000020
00000000
00001030
00000100
,  // measure 25
00010000
00000000
00010000
00000000
00000100
00000000
00010000
00001000
00010000
00001000
00010000
00000000
00001000
00000000
00010000
00000000
,  // measure 26
00100000
10000000
00010000
10000000
00100000
10000000
00010000
01000000
,  // measure 27
00100000
00010000
00100000
01000000
00010000
00100000
00010000
01000000
,  // measure 28
00001000
00010000
00001000
00100000
00001000
00010000
00001000
00000100
,  // measure 29
00000010
00001000
00000001
00000010
00001000
00010000
01000000
10000000
,  // measure 30
00010000
00100000
00010000
10000000
00010000
01000000
00100000
00010000
,  // measure 31
00001000
00010000
00000100
00010000
00001000
00000100
00000010
00001000
,  // measure 32
00000001
00000010
00000001
00000010
00000100
00001000
00000100
00001000
,  // measure 33
00000010
00010000
00000010
00010000
00001000
00010000
00100000
10000000
,  // measure 34
10010000
00011000
00001001
00000110
,  // measure 35
00022000
00000000
00033000
00000000
00010000
00001000
00000100
00000010
,  // measure 36
00001001
00011000
10010000
01100000
,  // measure 37
00022000
00000000
00033000
00000000
00010000
00010000
00010000
00010000
,  // measure 38
00000010
00001000
00000000
00000100
00010000
00000000
00001000
00100000
,  // measure 39
00000000
00010000
01000000
00000000
00100000
10000000
01000000
00100000
,  // measure 40
00020000
00230000
00320000
00030020
,  // measure 41
00001030
00000000
00001000
00000000
00010000
00000000
00001000
00010000
00001000
00010000
00001000
00000000
00011000
00000000
00000000
00000000
,  // measure 42
00020000
00230000
20300000
32000000
,  // measure 43
03020000
00032000
00003200
00000302
,  // measure 44
00000013
00000000
00001000
00010000
00000000
00011000
00000000
00101000
,  // measure 45
00000000
00100000
00001000
00010000
00002000
00000000
00003100
00000000
,  // measure 46
00000001
00000010
00000100
00001000
00000100
00000000
00010000
00001000
,  // measure 47
00100000
00010000
01000000
00000000
00100000
10000000
01000000
00100000
,  // measure 48
00110000
00000000
00010000
01000000
00000000
01001000
00000000
00011000
,  // measure 49
00000000
00001000
00010000
00100000
01000000
00010000
00100000
01000000
,  // measure 50
20000000
32000000
03200000
00302000
,  // measure 51
00023000
00030020
00000230
00002300
,  // measure 52
00013000
00000000
00000100
00001000
00000000
00001100
00000000
00010100
,  // measure 53
00000000
00000100
00001000
00000100
00010000
00000000
00001000
00000000
,  // measure 54
00010000
00100000
10000000
01000000
00010000
00000000
00001000
00000100
,  // measure 55
00000001
00000010
00001000
00000000
00010000
00001000
00000100
00000010
,  // measure 56
00001001
00000000
00000001
00000100
00000000
00000101
00000000
00001010
,  // measure 57
00000000
00001000
00000010
00000001
00000010
00001000
00000100
00010000
,  // measure 58
00001000
00000000
00011000
00000000
00101000
00000000
00100000
00001000
,  // measure 59
00010000
00000000
00011000
00000000
00010100
00000000
00000100
00001000
,  // measure 60
00000020
00000000
00000000
00000100
00000200
00000000
00000330
00000000
,  // measure 61
00000010
00000000
00000000
00001000
00000000
00000000
00010000
00000000
00000000
01000000
00000000
00000000
00000000
00000000
00000000
00100000
00000000
00000000
00000000
00000000
10000000
00000000
00000000
00000000
,  // measure 62
01000000
00000000
00010000
00000000
00001000
00000000
00000100
00000000
00000001
00000000
00000010
00000000
,  // measure 63
00000200
00000000
00020000
00030300
,  // measure 64
00010000
00001000
00000000
00000100
00000001
00000000
00000010
00001000
,  // measure 65
00000000
00010000
01000000
00000000
10000000
01000000
00100000
00010000
,  // measure 66
10000000
01000000
10000000
00010000
00100000
00010000
01000000
00100000
01000000
00001000
00010000
00001000
,  // measure 67
00100000
00001000
00010000
00001000
00010000
00000100
00001000
00000100
00001000
00000010
00001000
00000010
,  // measure 68
00000100
00001000
00000100
00001000
00010000
00010000
00001000
00100000
,  // measure 69
00010000
01000000
00010000
01000000
00100000
10000000
00100000
10000000
,  // measure 70
00010000
00100000
00010000
00100000
00001000
00001000
00010000
00000100
,  // measure 71
00010000
00000010
00010000
00000010
00000100
00001000
00000100
00001000
,  // measure 72
00010000
00100000
00010000
00100000
01000000
01000000
00100000
00010000
,  // measure 73
00001000
00100000
00001000
00100000
00010000
10000000
00010000
10000000
,  // measure 74
01000000
00100000
00010000
10000000
01000000
00100000
00001000
00000100
,  // measure 75
00000010
00001000
00000100
00000010
00000001
00000100
00001000
00010000
,  // measure 76
00100000
00100000
10000000
10000000
01000000
01000000
00010000
00010000
,  // measure 77
00001000
00000010
00000001
00000100
00001000
00010000
00100000
10000000
,  // measure 78
20020000
00000000
00000000
00000000
,  // measure 79
00000000
00000000
00000000
30030000
;
