#TITLE:μ9;
#SUBTITLE:;
#ARTIST:PAXA;
#TITLETRANSLIT:u9;
#SUBTITLETRANSLIT:;
#ARTISTTRANSLIT:;
#CREDIT:;
#BANNER:;
#BACKGROUND:;
#LYRICSPATH:;
#CDTITLE:;
#MUSIC:[ROUND 3] - u9.mp3;
#OFFSET:-12.020;
#SAMPLESTART:41.799;
#SAMPLELENGTH:12.000;
#SELECTABLE:YES;
#BPMS:0.000=180.008;
#STOPS:;
#BGCHANGES:;

//---------------dance-single - ----------------
#NOTES:
     dance-single:
     :
     Beginner:
     1:
     0.100,0.126,0.017,0.000,0.000: // measure 1
1000
0000
0000
0000
,  // measure 2
0010
0000
0000
0000
,  // measure 3
0100
0000
0000
0000
,  // measure 4
0001
0000
0000
0000
,  // measure 5
0010
0000
0000
0000
,  // measure 6
0100
0000
0000
0000
,  // measure 7
1000
0000
0000
0000
,  // measure 8
0001
0000
0000
0000
,  // measure 9
0100
0000
0000
0000
,  // measure 10
0010
0000
0000
0000
,  // measure 11
0100
0000
0000
0000
,  // measure 12
0010
0000
0000
0000
,  // measure 13
1000
0000
0000
0000
,  // measure 14
0001
0000
0000
0000
,  // measure 15
1000
0000
0000
0000
,  // measure 16
0001
0000
0000
0000
,  // measure 17
1001
0000
0000
0000
,  // measure 18
0000
0000
0000
0000
,  // measure 19
0110
0000
0000
0000
,  // measure 20
0000
0000
0000
0000
,  // measure 21
0010
0000
0000
0000
,  // measure 22
1000
0000
0000
0000
,  // measure 23
0100
0000
0000
0000
,  // measure 24
0010
0000
0000
0000
,  // measure 25
0001
0000
0000
0000
,  // measure 26
0100
0000
0000
0000
,  // measure 27
0010
0000
0000
0000
,  // measure 28
1000
0000
0000
0000
,  // measure 29
0100
0000
0000
0000
,  // measure 30
1000
0000
0000
0000
,  // measure 31
0010
0000
0000
0000
,  // measure 32
0100
0000
0000
0000
,  // measure 33
0001
0000
0000
0000
,  // measure 34
0010
0000
0000
0000
,  // measure 35
0100
0000
0000
0000
,  // measure 36
1000
0000
0000
0000
,  // measure 37
0010
0000
0000
0000
,  // measure 38
0100
0000
0000
0000
,  // measure 39
0010
0000
0000
0000
,  // measure 40
0000
0000
0000
0000
,  // measure 41
1000
0000
0000
0000
,  // measure 42
0001
0000
0000
0000
,  // measure 43
1000
0000
0000
0000
,  // measure 44
0001
0000
0000
0000
,  // measure 45
0100
0000
0000
0000
,  // measure 46
0010
0000
0000
0000
,  // measure 47
0100
0000
0000
0000
,  // measure 48
0010
0000
0000
0000
,  // measure 49
1000
0000
0000
0000
,  // measure 50
0001
0000
0000
0000
,  // measure 51
1000
0000
0000
0000
,  // measure 52
0001
0000
0000
0000
,  // measure 53
0010
0000
0100
0000
,  // measure 54
0010
0000
0000
0000
,  // measure 55
0001
0000
1000
0000
,  // measure 56
0001
0000
0000
0000
,  // measure 57
0100
0000
0010
0000
,  // measure 58
0100
0000
0000
0000
,  // measure 59
0001
0000
1000
0000
,  // measure 60
0001
0000
0000
0000
,  // measure 61
0010
0000
0100
0000
,  // measure 62
0010
0000
0000
0000
,  // measure 63
0001
0000
1000
0000
,  // measure 64
0001
0000
0000
0000
,  // measure 65
1000
0000
0100
0000
,  // measure 66
1000
0000
0000
0000
,  // measure 67
0001
0000
0010
0000
,  // measure 68
0001
0000
0000
0000
,  // measure 69
0100
0000
0000
0000
,  // measure 70
0010
0000
0000
0000
,  // measure 71
1000
0000
0000
0000
,  // measure 72
0001
0000
0000
0000
,  // measure 73
0010
0000
0000
0000
,  // measure 74
0100
0000
0000
0000
;

//---------------dance-single - ----------------
#NOTES:
     dance-single:
     :
     Easy:
     4:
     0.290,0.285,0.000,0.052,0.000: // measure 1
0010
0000
1000
0000
,  // measure 2
0100
0000
0010
0000
,  // measure 3
0001
0000
0100
0000
,  // measure 4
0010
0000
1000
0000
,  // measure 5
0100
0000
0010
0000
,  // measure 6
0001
0000
1000
0000
,  // measure 7
0010
0000
0100
0000
,  // measure 8
0001
0000
1000
0000
,  // measure 9
0100
0010
0100
0010
,  // measure 10
0001
0100
0010
0000
,  // measure 11
0010
1000
0010
1000
,  // measure 12
0100
0010
0001
0000
,  // measure 13
0100
0010
0100
0001
,  // measure 14
1000
0001
0100
0000
,  // measure 15
0010
1000
0010
0100
,  // measure 16
0001
0100
0010
0000
,  // measure 17
1000
0000
0000
0001
0000
0000
0000
0010
,  // measure 18
0000
0200
0000
0300
,  // measure 19
1000
0000
0000
0010
0000
0000
0000
0100
,  // measure 20
0000
0002
0000
0003
,  // measure 21
0010
0010
0100
0100
,  // measure 22
1000
0010
0100
0001
,  // measure 23
1000
1000
0001
0001
,  // measure 24
0010
0100
1000
0010
,  // measure 25
0100
0100
1000
1000
,  // measure 26
0100
0010
1000
0001
,  // measure 27
0010
0010
0100
0100
,  // measure 28
0001
0100
1000
0010
,  // measure 29
0100
0100
0010
0010
,  // measure 30
1000
0001
0010
0100
,  // measure 31
1000
1000
0001
0001
,  // measure 32
0100
0010
1000
0100
,  // measure 33
0010
0010
0100
0100
,  // measure 34
1000
0010
0001
0010
,  // measure 35
1000
1000
0001
0001
,  // measure 36
1000
0100
0010
0001
,  // measure 37
1000
0000
0010
0000
0000
0100
0000
0010
,  // measure 38
0000
1000
0100
0010
,  // measure 39
0001
0000
0100
0000
0000
0010
0000
0100
,  // measure 40
0000
0001
0010
0100
,  // measure 41
1000
0000
0010
0000
0000
0001
0000
0010
,  // measure 42
0000
0100
0001
0010
,  // measure 43
0200
0000
0300
2000
0000
0000
3000
0000
,  // measure 44
0002
0000
0003
0200
0000
0000
0300
0000
,  // measure 45
0010
1000
0100
0000
,  // measure 46
0010
0001
0100
0000
,  // measure 47
0010
1000
0100
0001
,  // measure 48
0100
0010
0001
0000
,  // measure 49
1000
0010
0001
0000
,  // measure 50
1000
0100
0001
0000
,  // measure 51
0010
0100
1000
0001
,  // measure 52
0100
0010
1000
0000
,  // measure 53
0001
0010
0100
0000
,  // measure 54
1000
0010
0100
0001
,  // measure 55
1000
0100
0010
0000
,  // measure 56
0010
0001
0100
1000
,  // measure 57
0100
0001
1000
0000
,  // measure 58
0100
0010
0001
1000
,  // measure 59
0010
0000
0000
0100
0000
0000
0000
0000
,  // measure 60
0001
0000
0000
0010
0000
0000
0000
0000
,  // measure 61
0100
1000
0010
0100
,  // measure 62
0001
1000
0100
0000
,  // measure 63
0010
0001
0100
0010
,  // measure 64
0100
0001
1000
0000
,  // measure 65
0100
0010
0001
0000
,  // measure 66
1000
0010
0100
0001
,  // measure 67
1000
0000
0000
0001
0000
0000
0000
0000
,  // measure 68
0100
0000
0000
0010
0000
0000
0010
0000
,  // measure 69
1000
0000
0100
0000
,  // measure 70
0010
0000
0001
0000
,  // measure 71
0100
0000
0010
0000
,  // measure 72
1000
0000
0100
0000
,  // measure 73
0010
0000
0001
0000
,  // measure 74
1000
0000
0010
0000
;

//---------------dance-single - ----------------
#NOTES:
     dance-single:
     :
     Medium:
     6:
     0.422,0.413,0.000,0.121,0.000:
1000
0100
1000
0010
,
0100
0000
0001
0000
0010
0100
0010
0000
,
0001
0100
0010
1000
,
0001
0000
0010
0000
0100
1000
0100
0000
,
0010
0001
0100
1000
,
0100
0000
0010
0000
1000
0001
1000
0000
,
0001
0010
0100
1000
,
0001
0000
0100
0000
0010
0100
0010
0000
,
1000
0100
0010
0001
,
0100
0010
0000
0000
0100
0000
0001
0000
,
0010
0100
1000
0001
,
0100
0010
0000
0000
0100
0000
0001
0000
,
0010
0100
0001
0100
,
1000
0001
0000
0000
0100
0000
0010
0000
,
0100
0001
0010
0100
,
1000
0001
0000
0000
0100
0000
0010
0000
,
0100
0000
0000
0001
0000
1000
0000
0001
,
0000
0010
0200
0000
0000
0000
1300
0000
,
0010
0000
0000
0100
0000
0001
0000
0100
,
0000
0010
2000
0000
0000
0000
0000
0000
,
3100
0000
0010
0000
0001
0100
0010
0000
,
1000
0000
0100
0000
0010
0001
1000
0000
,
0010
0000
0100
0000
0001
1000
0100
0000
,
0010
0000
0100
0000
1000
0010
0100
0000
,
0001
0000
0010
0000
0100
1000
0001
0000
,
0100
0000
0010
0000
0100
0001
0010
0000
,
0100
0000
1000
0000
0001
0100
0010
0000
,
1000
0000
0100
0000
0010
0001
0100
0001
,
0010
0000
0100
0000
1000
0001
0100
0000
,
1000
0000
0100
0000
0001
0010
1000
0000
,
0010
0000
0100
0000
1000
0010
0100
0000
,
0001
0000
0010
0000
0100
1000
0001
0000
,
0100
0000
0010
0000
1000
0001
0010
0000
,
0100
0000
0001
0000
1000
0010
0100
0000
,
1000
0000
0010
0000
0100
0001
1000
0000
,
0100
0000
0010
0001
0000
0001
1000
0000
,
0010
0000
0100
0000
1000
0100
0000
0001
,
0000
0010
0000
0000
0100
0000
1000
0000
,
0100
0000
0010
0000
0001
0100
0000
0010
,
0000
0100
0001
0000
0010
0000
0100
0000
,
1000
0000
0001
0000
0100
0010
0000
0100
,
0000
0001
1000
0100
,
0020
0000
0030
0002
0000
0000
1003
0000
,
2000
0000
3000
0020
0000
0000
0130
0000
,
0001
0000
0010
0001
0000
0010
0001
0000
,
0100
0000
0010
1000
0000
0010
1000
0000
,
0100
0000
0010
0100
0000
0010
0100
0000
,
1000
0000
0010
0100
0000
0001
0010
0000
,
0100
0000
1000
0001
0000
1000
0001
0000
,
0100
0000
0010
1000
0000
0010
0100
0000
,
0001
0000
0010
0100
0000
1000
0010
0000
,
0100
0000
0001
1000
0000
0100
0010
0000
,
0001
0000
0100
0000
0010
0100
0010
0000
,
1000
0100
0010
0001
,
1000
0000
0010
0000
0100
0001
0100
0000
,
0010
0000
1000
0000
0001
0010
0001
0010
,
0100
0000
1000
0000
0001
0100
0010
0000
,
0100
0001
1000
0100
,
0020
0000
0031
0200
0000
0000
0310
0000
,
2000
0000
3100
0002
0000
0000
0103
0000
,
0010
0000
0001
0000
0100
0010
0100
0000
,
0001
0010
0100
1000
,
0010
0000
0100
0000
0001
0010
1000
0000
,
0010
0000
0100
0000
1000
0010
1000
0010
,
0100
0000
0001
0000
1000
0100
1000
0000
,
0010
0100
0001
1000
,
0200
0000
0300
0020
0000
0000
0031
0000
,
0200
0000
0300
0020
0000
0000
1030
0000
,
0100
0010
0001
0100
,
0010
1000
0001
0010
,
0100
1000
0010
0100
,
1000
0001
0010
1000
,
0100
0001
0100
0010
,
0001
1000
0010
0100
;

//---------------dance-single - ----------------
#NOTES:
     dance-single:
     :
     Hard:
     8:
     0.583,0.540,0.052,0.121,0.034:
0010
0100
0010
0100
0001
1000
0001
0000
,
0001
0010
0001
0010
0100
1000
0100
0000
,
1000
0010
1000
0010
0100
0001
0100
0000
,
0001
0010
0100
1000
0100
0010
0001
0100
,
0010
1000
0010
1000
0010
0100
0010
0000
,
0100
0001
0100
0001
0010
0001
0010
0000
,
0100
1000
0100
1000
0001
1000
0001
0000
,
0001
0100
0010
1000
0100
0010
0001
1000
,
0010
1000
0100
0010
0100
1000
0010
0100
,
0001
0100
0010
0000
1000
0100
0010
0000
,
0001
0100
0010
0100
0001
0010
0100
1000
,
0001
0100
0010
0000
0010
1000
0100
0000
,
0100
0010
0001
0100
0010
0100
0001
0010
,
0100
1000
0010
0000
0010
0100
0001
0000
,
0010
0001
0100
1000
0100
0001
0010
0100
,
1000
0010
0100
0000
0100
0001
0010
0100
,
1000
0001
0000
0100
0000
0110
0000
0100
,
0000
0001
2000
0000
0000
0000
3100
0000
,
0010
0001
0000
0100
0000
0110
0000
0100
,
0000
0001
0020
0000
0000
0000
0030
0000
,
0100
0000
0000
0100
1000
0000
0010
0000
0100
0000
0001
0000
0100
0000
0010
0000
,
1000
0000
0000
1000
0100
0000
0010
0000
0001
0000
0100
0000
0010
0000
0100
0000
,
0001
0000
0000
0001
0010
0000
0100
0000
1000
0000
0001
0000
0100
0000
0010
0000
,
1000
0000
0000
1000
0100
0000
0010
0000
0100
0000
1000
0000
0010
0000
0100
0000
,
0001
0000
0000
0001
0010
0000
0100
0000
1000
0000
0001
0000
0100
0000
0010
0000
,
0100
0000
0000
0100
0001
0000
0010
0000
0100
0000
1000
0000
0010
0000
0100
0000
,
0001
0000
0000
0001
1000
0000
0100
0000
0010
0000
0100
0000
1000
0000
0010
0000
,
0100
0000
0000
0100
0010
0000
1000
0000
0100
0000
0010
0000
0001
0000
0100
0000
,
1000
0100
0001
0010
0100
1000
0100
0010
,
0001
1000
0010
0100
0001
0010
0100
0000
,
0010
0001
0100
1000
0100
0010
1000
0100
,
0010
0001
0100
0010
1000
0100
0010
0000
,
0010
0001
0100
0010
0100
0001
0010
0100
,
0010
0001
0100
0010
1000
0100
0010
0000
,
0010
0100
1000
0100
0010
0100
0001
0100
,
0010
0001
0100
0010
0100
0001
1000
0000
,
0010
0000
0110
0000
0100
0001
0100
0010
,
0000
0010
1000
0000
0100
0000
0010
0000
,
0001
0000
1001
0000
1000
0010
0100
0010
,
0000
1000
0100
0000
0010
0000
0001
0000
,
0100
0000
0110
0000
0010
0100
0001
0010
,
0000
0100
1000
0000
0001
0000
1001
0000
,
2000
0000
3010
0200
0000
0000
0301
0000
,
0020
0000
0130
2000
0000
0000
3001
0000
,
0010
0000
0001
0100
0010
0100
0001
0000
,
1000
0000
0100
0010
0000
0010
0100
0000
,
1000
0000
0010
0100
0010
1000
0001
0000
,
0010
0000
0100
1000
0000
1000
0001
0000
,
0100
0000
0010
0100
0001
1000
0100
0000
,
0010
0000
0001
0100
0000
0100
1000
0000
,
0100
0000
0010
1000
0100
0010
0001
0000
,
1000
0000
0010
0001
0000
0010
0100
0000
,
0001
0010
0001
0010
0100
1000
0100
1000
,
0001
0100
0001
0100
0010
1000
0010
0000
,
1000
0100
1000
0100
0010
0001
0010
0001
,
0100
0010
0100
0010
1000
0001
1000
0000
,
0001
0010
0001
0010
0100
0001
0100
0001
,
0100
1000
0100
1000
0010
1000
0010
0000
,
0100
0010
0100
0000
0001
0100
0001
0000
,
1000
0100
1000
1000
0010
0100
0010
0000
,
2000
0000
3100
0000
0020
0000
0030
0001
,
0000
0100
0010
0000
0100
0000
0001
0000
,
0020
0000
0130
0000
2000
0000
3000
0001
,
0000
0100
0010
0000
0100
0001
0010
0000
,
0200
0000
1300
0000
0020
0000
0030
0100
,
0000
0001
0010
0000
0001
0000
0100
0000
,
2000
0000
3100
0020
0000
0000
1030
0000
,
0100
0000
0010
0001
0100
0010
0100
0001
,
0010
0100
1000
0010
,
0100
0001
1000
0100
,
0001
0100
0010
0001
,
1000
0010
0100
0010
,
1000
0100
0001
1000
,
0010
0001
0100
0010
;
