#TITLE:naughty girl@Queen's Palace;
#SUBTITLE:;
#ARTIST:DJ Mass MAD Izm*;
#TITLETRANSLIT:;
#SUBTITLETRANSLIT:;
#ARTISTTRANSLIT:;
#GENRE:;
#CREDIT:;
#BANNER:[Round 1] - naughty girl@Queen's Palace.png;
#BACKGROUND:[Round 1] - naughty girl@Queen's Palace-bg.png;
#LYRICSPATH:;
#CDTITLE:cdtitle.png;
#MUSIC:[Round 1] - naughty girl@Queen's Palace.mp3;
#OFFSET:-0.363;
#SAMPLESTART:26.824;
#SAMPLELENGTH:13.000;
#SELECTABLE:YES;
#BPMS:0.000=145.000
;
#STOPS:
;
#BGCHANGES:;
#KEYSOUNDS:;
#ATTACKS:;

//---------------dance-single - ----------------
#NOTES:
     dance-single:
     :
     Hard:
     9:
     0.643,0.673,0.198,0.104,0.384,487.000,23.000,12.000,0.000,0.000,0.000,0.643,0.673,0.198,0.104,0.384,487.000,23.000,12.000,0.000,0.000,0.000: // measure 0
0000
0000
0000
0000
,  // measure 1
0000
0000
0000
0000
,  // measure 2
0000
0000
0000
0000
,  // measure 3
0000
0000
0000
0000
,  // measure 4
0001
1000
0100
1000
0000
1000
0000
0010
,  // measure 5
0100
0001
1000
0100
0000
0100
0000
1000
,  // measure 6
0010
0100
0001
0010
0000
0010
0000
0001
,  // measure 7
1000
0000
0000
0100
0010
0000
0100
0000
1000
0000
0010
0000
0100
0000
0000
0000
,  // measure 8
0101
0000
0000
0100
0010
0000
1000
0000
0100
0000
0001
0000
0100
0000
1000
0000
,  // measure 9
0010
0000
0000
0100
0001
0000
1000
0000
0000
0000
1001
0000
0000
0000
0001
0000
,  // measure 10
1000
0000
0000
0001
0010
0000
0100
0000
1000
0000
0100
0000
0001
0000
0100
0000
,  // measure 11
0010
0000
0000
0001
1000
0000
0010
0000
0000
0000
0101
0000
0001
0000
1000
0000
,  // measure 12
0100
0000
0000
1000
0010
0000
0100
0000
0001
0000
0010
0000
1000
0000
0010
0000
,  // measure 13
0001
0000
0000
0100
0010
0000
0100
0000
0000
0000
1010
0000
0000
0000
1000
0000
,  // measure 14
0001
0000
0000
0010
0100
0000
0010
0000
0001
0000
1000
0000
0010
0000
0100
0000
,  // measure 15
0010
1000
0001
0010
0100
0000
1000
0000
1100
0000
0000
0000
1001
0000
0000
0000
,  // measure 16
0001
0000
0000
0100
0010
0000
1000
0000
0000
0000
1100
0000
0000
0000
1000
0000
,  // measure 17
0010
0100
0001
0010
0000
0110
0000
0100
,  // measure 18
1000
0000
0000
0001
0100
0000
0010
0000
0000
0000
1010
0000
0000
0000
1000
0000
,  // measure 19
0001
0010
0100
0010
0000
0011
0000
0001
,  // measure 20
1000
0000
0000
0010
0100
0000
0010
0000
0000
0000
1010
0000
0000
0000
1000
0000
,  // measure 21
0001
0010
0100
0010
0000
0110
0000
1000
,  // measure 22
0010
0000
0000
0100
0001
0000
0010
0000
0000
0000
1100
0000
0000
0000
1000
0000
,  // measure 23
0010
0000
1000
0000
0001
0000
0010
0100
1000
0000
0010
0000
0100
0000
0010
0000
,  // measure 24
1000
0000
0000
1000
0000
0000
0010
0000
0000
0010
0000
0000
0100
0000
0001
1000
,  // measure 25
0001
0000
0000
0001
0000
0000
0010
0000
0000
0010
0000
0000
0100
0000
1000
0010
,  // measure 26
1000
0000
0000
1000
0000
0000
0100
0000
0000
0100
0000
0000
0010
0000
0001
0100
,  // measure 27
0001
0000
0000
0001
0000
0000
1000
0000
0100
0000
0001
0000
0100
0000
1000
0000
,  // measure 28
0001
0000
0000
0001
0000
0000
0100
0000
0000
0100
0000
0000
0010
0000
1000
0001
,  // measure 29
1000
0000
0000
1000
0000
0000
0100
0000
0000
0100
0000
0000
0010
0000
0100
1000
,  // measure 30
0001
0000
0000
0001
0000
0000
1000
0000
0000
1000
0000
0000
0010
0000
0100
0000
,  // measure 31
0010
1000
0100
0001
0100
0010
0001
1000
,  // measure 32
0010
0000
0100
0010
0100
0000
0001
0000
0000
0000
1001
0000
0000
0000
1000
0000
,  // measure 33
0100
0001
0100
1000
0000
0011
0000
0001
,  // measure 34
1000
0000
0010
0100
0010
0000
0100
0000
0000
0000
0101
0000
0000
0000
0001
0000
,  // measure 35
0010
0000
1000
0000
0010
0000
0100
0000
1000
0000
0001
0000
0100
0010
0100
0001
,  // measure 36
0010
0000
0100
1000
0100
0000
1000
0000
0000
0000
1001
0000
0000
0000
0001
0000
,  // measure 37
0100
0010
1000
0001
0000
1100
0000
1000
,  // measure 38
0001
0000
1000
0010
1000
0000
0010
0000
0000
0000
0110
0000
0000
0000
0100
0000
,  // measure 39
0001
0010
0001
1000
0010
0100
0020
0000
,  // measure 40
1030
0100
0010
0100
1000
0000
0010
0000
0001
0000
0010
0000
0100
0000
0001
0000
,  // measure 41
0010
0100
1000
0100
0010
0000
0001
0000
1000
0000
0010
0000
0200
0000
0000
0000
,  // measure 42
0310
0000
1000
0001
1000
0100
0010
0000
1000
0000
0010
0000
0001
0000
0100
0000
,  // measure 43
0010
0000
1000
0100
1000
0001
0100
0010
0100
0000
0001
0000
2000
0000
0000
0000
,  // measure 44
3001
0000
0010
0001
0010
0100
1000
0000
0010
0000
0100
0000
0010
0000
1000
0000
,  // measure 45
0001
0010
0100
0010
0001
1000
0010
0000
0100
0010
1000
0001
1000
0000
0100
0000
,  // measure 46
1000
0000
0010
0100
0010
0000
1000
0000
0001
0000
0010
0000
0100
1000
0100
0010
,  // measure 47
0001
0100
1000
0100
0001
0010
0100
1000
,  // measure 48
0010
0000
0010
0000
0100
0001
0000
0100
0001
0000
1000
0000
0100
0000
0010
0100
,  // measure 49
1000
0000
0001
0000
0001
0000
1000
0010
1000
0010
0100
0001
0100
0000
0001
0000
,  // measure 50
0010
0000
0010
0000
0100
1000
0000
0100
1000
0000
0001
0000
0100
0000
0010
0000
,  // measure 51
0200
0000
0301
0010
0001
0000
0200
0000
0301
0010
0001
0000
0100
0000
0010
0000
,  // measure 52
1000
0000
1000
0000
0001
0010
0000
0001
0010
0000
0100
0000
1000
0000
0010
0000
,  // measure 53
0100
0001
0100
0010
0100
0000
0010
1000
0010
0100
0010
0000
0100
0000
0001
0000
,  // measure 54
1000
0000
1000
0000
0100
0010
0000
0100
0010
0000
0001
0000
1000
0000
0001
0000
,  // measure 55
0100
0000
0010
0100
0010
0000
0100
0000
0001
0000
0010
0000
0100
0010
0100
0000
,  // measure 56
1000
0000
0000
0001
0100
0000
1000
0000
0100
0000
0001
0000
1000
0000
0100
0000
,  // measure 57
0010
0000
0000
0010
0001
0000
0100
0000
0000
0000
1010
0000
0000
0000
0101
0000
,  // measure 58
0001
0000
0000
0010
0100
0000
1000
0000
0100
0000
0001
0000
0100
0000
1000
0000
,  // measure 59
0010
0000
0000
0010
0100
0000
0001
0000
0010
0100
0010
0100
0010
0000
0001
0000
,  // measure 60
1000
0000
0000
0010
0100
0000
0001
0000
0010
0000
1000
0000
0010
0000
0001
0000
,  // measure 61
0100
0000
0000
0100
0010
0000
1000
0000
0000
0000
0101
0000
0000
0000
0011
0000
,  // measure 62
0001
0000
0000
0100
0010
0000
0100
0000
0001
0000
0010
0000
1000
0000
0010
0000
,  // measure 63
0002
0000
1003
0010
1000
0000
0002
0000
1003
0100
1000
0000
0001
0000
0100
0000
,  // measure 64
0020
0000
0000
0100
0000
0100
0030
0100
,  // measure 65
0002
0000
0000
1000
0000
1000
0003
1000
,  // measure 66
0200
0000
0000
0010
0000
0010
0300
0010
,  // measure 67
0002
0000
0000
2000
0000
0000
0000
3003
;

//---------------dance-single - ----------------
#NOTES:
     dance-single:
     :
     Challenge:
     10:
     0.849,0.937,0.233,0.293,0.759,628.000,27.000,34.000,0.000,0.000,0.000,0.849,0.937,0.233,0.293,0.759,628.000,27.000,34.000,0.000,0.000,0.000:
0000
0000
0000
0000
,
0000
0000
0000
0000
,
0000
0000
0000
0000
,
0000
0000
0000
0000
,
0001
1000
0010
0100
0000
0101
0000
0001
,
1000
0100
0010
0100
0000
1100
0000
1000
,
0001
0010
0100
0010
0001
1000
0010
0100
,
0010
1000
0100
0010
0100
0000
1000
0000
0010
0000
0100
0000
0001
0000
1000
0000
,
0001
0000
0010
0100
0010
0000
0001
0000
1000
0000
0010
0000
1000
0000
0100
0000
,
0010
0000
0000
0100
1000
0000
1001
0000
0000
0000
0101
0000
0000
0000
1010
0000
,
1000
0000
0001
0010
0001
0000
0010
0000
1000
0000
0010
0000
0001
0000
0100
0000
,
0010
0000
0000
1000
0001
0000
0011
0000
0000
0000
1100
0000
0000
0000
1010
0000
,
0010
0000
0100
0001
0100
0000
0001
0000
1000
0000
0100
0000
0001
0000
0100
0000
,
0010
0000
0000
0001
0100
0000
0110
0000
0000
0000
1010
0000
0000
0000
0101
0000
,
0001
0000
1000
0100
1000
0000
0010
0000
0001
0000
0010
0000
1000
0000
0001
0000
,
0010
0100
0010
0001
1000
0100
0010
0100
2000
0000
0000
0000
3002
0000
0000
0000
,
0103
0000
0010
1000
0001
0000
0010
0000
1000
0000
0010
0000
0100
0000
1000
0000
,
0001
0000
0100
0010
1000
0000
0100
0000
0000
0000
0011
0000
0000
0000
0101
0000
,
0100
0000
0010
0100
0010
0000
1000
0000
0100
0000
0001
0000
0100
0000
0010
0000
,
0100
0000
1000
0001
0100
0000
0001
0000
0000
0000
1010
0000
0000
0000
1001
0000
,
0001
0000
0010
0100
1000
0000
0010
0000
0001
0000
0010
0000
0100
0000
0010
0000
,
1000
0000
0001
0010
0100
0000
0010
0000
0000
0000
0011
0000
0000
0000
1100
0000
,
1000
0000
0100
1000
0001
0000
0100
0000
1000
0000
0100
0000
0010
0000
0100
0000
,
0001
0000
0010
0100
1000
0000
0010
0100
0001
1000
0100
0010
0200
0000
0000
0000
,
1300
0000
1000
0010
0000
0010
0100
0000
0010
1000
0000
1000
0001
0000
0010
0100
,
1000
0000
1000
0001
0000
0001
0100
0000
0010
1000
0000
1000
0001
0000
0010
0001
,
0100
0000
0100
0010
0000
0010
1000
0000
0001
0010
0000
0010
0100
0000
1000
0001
,
0100
0000
0100
0001
0000
0001
0010
0000
0100
0010
0001
1000
0010
0100
0010
1000
,
0001
0000
0001
0010
0000
0010
0100
0000
0010
0001
0000
0001
1000
0000
0010
0100
,
0001
0000
0001
1000
0000
1000
0100
0000
0010
0001
0000
0001
0100
0000
0010
1000
,
0100
0000
0100
0010
0000
0010
0001
0000
1000
0010
0000
0010
0100
0000
0010
0000
,
1000
0100
0010
0001
1000
0010
0100
0001
0010
1000
0010
0100
1000
0000
0100
0000
,
0010
0000
0100
0010
0001
0000
1000
0000
0010
0000
0001
0000
0010
0000
0100
0000
,
0010
0000
1000
0001
0010
0000
0100
0000
0000
0000
1100
0000
0000
0000
0011
0000
,
0001
0000
0010
0100
1000
0000
0010
0000
0001
0000
0010
0000
0100
0000
0001
0000
,
1000
0000
0100
0010
0001
0000
0100
0000
0000
0000
0110
0000
0010
0100
0010
1000
,
0100
0000
0010
0001
1000
0000
0001
0000
0100
0000
1000
0000
0100
0000
0001
0000
,
0010
0000
0100
1000
0001
0000
0100
0000
0000
0000
1010
0000
0000
0000
1001
0000
,
1000
0000
0001
0010
0100
0000
0010
0000
1000
0000
0010
0000
0001
0000
0100
0000
,
0010
1000
0010
0100
0001
1000
0200
0000
,
0310
0001
0010
0100
1000
0001
0100
1000
0100
0001
0010
0100
1000
0010
0100
0010
,
0100
0001
0010
0100
1000
0010
0100
0010
1000
0001
0100
0001
0020
0000
0230
0000
,
0310
0001
1000
0010
0100
0010
1000
0001
0010
0100
0010
0001
1000
0100
1000
0010
,
0100
0001
0010
0100
1000
0010
0001
0010
0100
0001
1000
0100
0020
0000
0000
0000
,
0230
0000
0310
0001
0010
0001
1000
0010
1000
0100
0010
0100
2000
0000
3002
0000
,
0103
0010
1000
0001
0010
0100
1000
0100
1000
0010
0100
0001
2000
0000
3200
0000
,
0320
0000
0130
1000
0200
0000
2300
0000
3001
0100
1000
0100
0010
1000
0100
0010
,
0100
1000
0100
0001
0100
0010
0100
1000
,
0010
0000
0010
0000
1000
0100
1000
0100
0010
0000
0100
0000
1000
0000
0001
0100
,
0010
0000
0110
0000
1001
0000
0001
0010
0001
0010
0100
1000
0020
0000
1030
0100
,
0010
0000
0010
0000
0001
0100
0001
0100
0010
0000
0100
0000
0001
0000
0010
0100
,
2000
0000
3010
0100
0010
0000
2000
0000
3100
0010
0100
0000
0011
0000
1100
0000
,
0001
0000
0001
0000
1000
0010
1000
0010
0100
0000
0010
0000
1000
0000
0001
0010
,
0100
1000
0010
0100
0001
0010
1000
0010
0001
0100
0020
0000
0130
0010
0100
0001
,
1000
0000
1000
0000
0001
0010
0001
0010
0100
0000
0010
0000
0001
0100
1000
0100
,
0010
1000
0010
1000
0010
0000
1001
0000
1000
0100
1000
0100
0010
0001
1000
0010
,
0100
0000
0001
1000
0100
0000
0010
0000
0100
0000
0010
0000
0001
0000
1000
0010
,
0200
0000
0320
0000
1030
0100
0020
0000
0031
0100
1000
0100
0010
0100
0001
1000
,
0100
0000
0010
0001
0100
0000
1000
0000
0100
0000
0001
0000
1000
0000
0100
0010
,
0002
0000
2003
0000
3010
0100
0002
0000
1003
0100
0010
0100
0001
0100
0010
0001
,
0100
0000
0010
0100
1000
0000
0100
0000
0001
0000
0010
0000
0100
0000
0010
0001
,
2000
0000
3010
0100
0010
1000
0200
0000
0310
0001
0100
0010
1000
0100
0010
0001
,
0100
0000
0010
1000
0001
0000
0010
0000
1000
0000
0010
0000
0100
0000
1000
0000
,
0002
0000
1003
0010
1000
0000
0002
0000
1003
0100
1000
0010
0100
0000
0001
0000
,
2000
0000
0000
0100
0000
0100
3000
1000
,
0002
0000
0000
0100
0000
0100
0003
0001
,
2000
0000
0000
0010
0000
0010
3000
1000
,
0200
0000
0000
0020
0000
0000
0000
0330
;

//---------------dance-single - ----------------
#NOTES:
     dance-single:
     :
     Medium:
     7:
     0.472,0.468,0.060,0.086,0.000,366.000,7.000,10.000,0.000,0.000,0.000,0.472,0.468,0.060,0.086,0.000,366.000,7.000,10.000,0.000,0.000,0.000:
0000
0000
0000
0000
,
0000
0000
0000
0000
,
0000
0000
0000
0000
,
0000
0000
0000
0000
,
1000
0010
0100
0010
0000
0100
0000
0010
,
1000
0001
0010
0100
0000
0010
0000
0100
,
1000
0001
1000
0010
0000
0100
0000
0010
,
1000
0100
0010
0000
0001
0100
0010
0000
,
1000
0000
0100
0000
1000
0010
0100
0000
,
0010
0000
0100
0001
0000
1000
0000
0001
,
0010
0000
0100
0000
1000
0001
0100
0000
,
0010
0000
1000
0001
0000
0010
0000
0001
,
0100
0000
0010
0000
1000
0001
0010
0000
,
0100
0000
0010
0001
0000
0100
0000
0001
,
1000
0000
0100
0000
0010
0100
1000
0000
,
0010
0100
0010
0100
0020
0000
0230
0000
,
0301
0000
0010
0100
1000
0010
0100
0000
,
0010
0000
1000
0100
0000
1100
0000
0000
,
1000
0000
0010
0100
0001
0010
0100
0000
,
0010
0000
0001
0100
0000
0101
0000
0000
,
0001
0000
1000
0100
0010
0100
1000
0000
,
0010
0000
0100
0001
0000
0011
0000
0000
,
1000
0000
0001
0100
0010
0100
0001
0000
,
1000
0000
0100
0010
0100
0010
0100
0000
,
1000
0000
1000
0000
0001
0000
0001
0010
,
0100
0000
0100
0000
0010
0000
0010
0001
,
1000
0000
1000
0000
0001
0000
0001
0100
,
0010
0000
0010
0000
0100
0010
1000
0001
,
0010
0000
0010
0000
0100
0000
0100
1000
,
0001
0000
0001
0000
1000
0000
1000
0010
,
0100
0000
0100
0000
0010
0000
0010
1000
,
0001
0010
0100
1000
,
0001
1000
0010
0100
0000
0010
0000
0100
,
0001
1000
0100
0010
0000
0100
0000
0010
,
0001
1000
0010
0100
0000
0010
0000
0100
,
0001
1000
0100
1000
0000
0010
0100
0010
,
1000
0001
0010
0100
0000
0010
0000
0100
,
1000
0001
0100
0010
0000
0100
0000
0010
,
1000
0001
0010
0100
0000
0010
0000
0100
,
1000
0001
0100
0000
0001
1000
0200
0000
,
0310
0001
1000
0001
0100
0001
0100
0010
,
1000
0100
0010
0100
1000
0010
0200
0000
,
0310
1000
0001
0010
0100
0010
0001
0100
,
0001
0100
0010
1000
0001
1000
0200
0000
,
0310
0001
0010
0100
1000
0010
0100
0001
,
0010
0100
0010
0001
1000
0010
1000
0000
,
0001
0100
0001
1000
0100
0010
0100
1000
,
0010
0001
0100
1000
,
0010
0100
0010
0100
0010
1000
0001
0000
,
1000
0100
1000
0000
0001
0100
0001
0000
,
1000
0100
1000
0100
0010
0001
1000
0000
,
0001
0010
0010
0100
0010
0010
0001
1000
,
0100
0010
0100
0010
0100
1000
0001
0000
,
1000
0010
1000
0010
0100
0001
0010
0100
,
0010
0001
0010
0001
1000
0010
0100
0000
,
0010
0000
1000
0100
0010
0000
0011
0000
,
0001
0000
0100
0010
0100
0001
1000
0000
,
0100
0000
1000
0010
0000
0110
0000
0010
,
1000
0000
0100
0010
0100
1000
0001
0000
,
0100
0000
0001
0010
0000
0110
0000
0010
,
0100
0000
1000
0001
1000
0010
0100
0000
,
0010
0000
1000
0100
0000
0110
0000
0100
,
0010
0000
0001
1000
0001
0100
0010
0000
,
1000
0100
0100
1000
0010
0010
0100
0001
,
2000
0000
0000
0100
0000
0100
3000
0000
,
0002
0000
0000
0100
0000
0100
0003
0000
,
2000
0000
0000
0100
0000
0100
3000
0000
,
0002
0000
0000
0200
0000
0000
0000
0303
;

//---------------dance-single - ----------------
#NOTES:
     dance-single:
     :
     Easy:
     4:
     0.292,0.293,0.026,0.035,0.000,230.000,3.000,4.000,0.000,0.000,0.000,0.292,0.293,0.026,0.035,0.000,230.000,3.000,4.000,0.000,0.000,0.000:
0000
0000
0000
0000
,
0000
0000
0000
0000
,
0000
0000
0000
0000
,
0000
0000
0000
0000
,
1000
0000
0000
1000
0000
1000
0000
0000
,
0001
0000
0000
0001
0000
0001
0000
0000
,
0100
0000
0000
0100
0000
0100
0000
0000
,
0010
0010
0010
0100
,
0001
0000
0001
0010
,
0100
0000
0100
1000
,
0001
0000
0001
0100
,
0010
1000
0100
0010
,
0001
0000
0001
1000
,
0010
0000
0010
0100
,
0001
0000
0001
1000
,
0100
0010
0100
0000
0010
0000
0001
0000
,
1000
0000
1000
0001
,
0100
0000
0100
0010
,
1000
0000
1000
0100
,
0010
0001
0100
0010
,
1000
0000
1000
0001
,
0010
0000
0010
0100
,
1000
0000
1000
0010
,
0100
0000
0001
0100
0001
0000
1000
0000
,
0001
0000
0001
0000
0001
0000
1000
0100
,
1000
0000
1000
0000
1000
0000
0001
0100
,
0001
0000
0001
0000
0001
0000
1000
0100
,
1000
1000
0001
0001
,
1000
0000
1000
0000
1000
0000
0001
0010
,
0001
0000
0001
0000
0001
0000
1000
0010
,
1000
0000
1000
0000
1000
0000
0001
0010
,
0001
0010
0100
1000
,
0010
0010
0100
0010
,
1000
1000
0001
1000
,
0100
0100
0010
0100
,
1000
1000
0001
0001
,
0100
0100
0010
1000
,
0001
0001
1000
0001
,
0010
0010
0100
0010
,
0001
0001
0002
0003
,
1000
0100
1000
0100
,
0010
0001
0010
0100
,
1000
0010
1000
0010
,
0100
0001
0200
0300
,
0001
0010
0001
0010
,
0100
1000
0100
0010
,
0001
0100
0001
0100
,
0010
1000
0010
0100
,
0001
0000
0000
0001
0000
0001
0000
0000
,
1000
0000
0000
1000
0000
1000
0000
0000
,
0100
0000
0000
0100
0000
0100
0000
0000
,
0010
0000
0000
0010
0000
0010
0000
0000
,
0001
0000
0101
0000
,
1000
0000
1100
0000
,
0001
0000
0011
0000
,
1000
0000
0010
1000
0010
0000
1000
0000
,
0001
1000
0001
0100
,
0001
1000
0001
0000
,
1000
0001
1000
0100
,
1000
0001
1000
0000
,
0010
0100
0010
1000
,
0010
0100
0010
0000
,
0100
0010
0100
0001
,
0100
0010
0100
0001
,
1000
0000
0000
1000
0000
1000
0000
0000
,
0001
0000
0000
0001
0000
0001
0000
0000
,
0100
0000
0000
0100
0000
0100
0000
0000
,
0020
0000
0000
0200
0000
0000
0000
0330
;
