#TITLE:Your Love Is My Drug;
#SUBTITLE:;
#ARTIST:Ke$ha;
#TITLETRANSLIT:;
#SUBTITLETRANSLIT:;
#ARTISTTRANSLIT:;
#GENRE:;
#CREDIT:hooky;
#BANNER:[Round 1] - Your Love Is My Drug.png;
#BACKGROUND:[Round 1] - Your Love Is My Drug-bg.png;
#LYRICSPATH:;
#CDTITLE:cdtitle.png;
#MUSIC:Your Love Is My Drug.ogg;
#OFFSET:-0.380;
#SAMPLESTART:35.840;
#SAMPLELENGTH:16.460;
#SELECTABLE:YES;
#DISPLAYBPM:120.000;
#BPMS:0.000=120.000
;
#STOPS:132.000=2.000
;
#BGCHANGES:;
#KEYSOUNDS:;
#ATTACKS:;

//---------------dance-single - hooky----------------
#NOTES:
     dance-single:
     :
     Beginner:
     1:
     0.092,0.103,0.068,0.000,0.000,67.000,8.000,0.000,0.000,0.000,0.000,0.092,0.103,0.068,0.000,0.000,67.000,8.000,0.000,0.000,0.000,0.000:
0000
0000
0000
0000
,
0000
0000
0000
0000
,
1000
0000
1000
0000
,
1000
0000
0000
0000
,
0001
0000
0001
0000
,
0001
0000
0000
0000
,
0100
0000
0100
0000
,
0100
0000
0000
0000
,
0010
0000
0010
0000
,
0010
0000
0000
0000
,
1001
0000
0000
0000
,
1000
0000
0000
0000
,
0110
0000
0000
0000
,
0010
0000
0000
0000
,
1001
0000
0000
0000
,
0001
0000
0000
0000
,
0110
0000
0000
0000
,
0100
0000
0000
0000
,
1001
0000
0000
0000
,
0001
0000
1000
0000
,
0001
0000
0000
0000
,
0100
0000
0010
0000
,
0100
0000
0000
0000
,
0001
0000
0010
0000
,
0001
0000
0000
0000
,
1000
0000
0100
0000
,
1001
0000
0000
0000
,
1000
0000
0000
0000
,
0010
0000
0010
0000
,
0100
0000
0001
0001
,
0001
0000
0000
0000
,
0100
0000
0000
0000
,
1000
0000
0010
0000
,
1001
0000
1000
0000
,
0010
0000
0000
0000
,
1000
0000
1000
0000
,
0100
0000
0000
0000
,
0010
0000
0010
0000
,
0001
0000
0000
0000
,
0001
0000
0001
0000
,
0100
0000
0000
0000
,
1001
0000
1000
0000
,
1000
0000
0000
0000
,
0010
0000
0010
0000
,
0010
0000
0000
0000
,
0001
0000
0001
0000
,
0001
0000
0000
0000
,
0100
0000
0100
0000
,
0100
0000
0000
0000
;

//---------------dance-single - hooky----------------
#NOTES:
     dance-single:
     :
     Easy:
     3:
     0.178,0.167,0.085,0.000,0.000,136.000,10.000,0.000,0.000,0.000,0.000,0.178,0.167,0.085,0.000,0.000,136.000,10.000,0.000,0.000,0.000,0.000:
0000
0000
0000
0000
,
0000
0000
0000
0000
,
1000
0000
1000
0000
,
0001
0001
0001
0000
,
0100
0000
0100
0000
,
0010
0010
0010
0000
,
1000
0100
0010
0000
,
0010
0001
0100
0000
,
0001
0001
1000
1000
,
0010
0010
0100
0100
,
1001
0000
1000
0000
,
1000
1000
1000
0000
,
0011
0000
0001
0000
,
0100
0100
0100
0000
,
0110
0000
1000
0000
,
0010
0010
0010
0000
,
1100
0000
0001
0000
,
0001
0001
0001
0000
,
1001
0100
0010
0000
,
0010
1000
0100
0000
,
0100
1000
0010
0000
,
0100
0001
0010
0000
,
0010
0001
1000
0000
,
1000
0010
0100
0000
,
0100
0001
0010
0000
,
0010
0001
1000
0000
,
0000
1000
0000
1001
,
0001
0010
1000
0000
,
0010
0100
1000
0000
,
1000
1000
0001
0001
,
1001
0000
0100
0000
,
0010
0000
0100
0000
,
0001
1000
0010
0000
,
1001
1000
1000
0000
,
0010
0010
0010
0000
,
0100
0001
0010
0000
,
0010
0001
0100
0000
,
0010
0010
0010
0000
,
1000
0100
1000
0000
,
0001
0001
1000
0000
,
0001
0100
0100
0000
,
1001
0010
1000
0000
,
0100
1000
0010
0000
,
0100
0001
0100
0000
,
0100
0001
0010
0000
,
0010
0100
0010
0000
,
0010
0001
0100
0000
,
0100
0010
1000
0000
,
0100
0010
0001
0000
,
1001
0000
0000
0000
;

//---------------dance-single - hooky----------------
#NOTES:
     dance-single:
     :
     Medium:
     4:
     0.251,0.209,0.060,0.085,0.000,189.000,7.000,10.000,0.000,0.000,0.000,0.251,0.209,0.060,0.085,0.000,189.000,7.000,10.000,0.000,0.000,0.000:
0000
0000
0000
0000
,
0000
0000
0000
0000
,
1000
1000
0100
0100
,
1000
0010
0100
0100
,
0001
0010
0001
0001
,
0010
0001
0010
0010
,
0001
1000
0010
0010
,
0010
1000
0100
0100
,
1000
0010
0100
0001
,
0010
0001
0000
0001
1000
0000
1010
0000
,
0101
0001
0010
0001
,
0100
0100
0020
0030
,
1000
0100
1000
0010
,
0100
0100
0002
0003
,
1000
0100
1000
0010
,
1000
1000
0200
0300
,
1000
0010
0100
0001
,
0010
0010
2002
3003
,
1000
0000
0010
0000
0100
0001
0010
0000
,
0001
0001
2000
3000
,
0010
0000
0100
0000
0001
0100
1000
0000
,
1000
0100
0001
0000
0001
0000
0010
0000
,
0010
0100
0010
0000
0010
0000
0001
0000
,
0100
0100
0001
0000
,
1000
0000
0100
0000
0010
0001
0010
0000
,
0001
0001
0100
0000
,
0100
0001
0000
1001
,
1000
0010
0100
0001
,
0001
1000
0010
1000
,
0100
1000
0100
0000
0010
0001
0010
0000
,
1001
0100
0010
0010
,
0010
1000
0100
0100
,
1000
0000
0010
0000
0100
0001
0010
0000
,
1001
1000
1000
0100
,
1000
1000
0020
0030
,
0100
0001
0010
0010
,
0001
0100
0020
0030
,
1000
0100
1000
0010
,
0100
0100
0002
0003
,
0010
0001
0100
0100
,
0010
0100
0020
0030
,
0010
1000
0100
0100
,
1000
0010
0100
0100
,
0001
0010
0001
0000
0001
0000
0100
0000
,
0010
1000
0100
0000
1000
0000
0000
0000
,
1000
0010
0100
0001
,
0100
0000
0010
1000
0100
0000
0000
0000
,
0100
1000
0010
0000
0100
0000
0100
0000
,
0001
0010
0001
0000
0100
0000
0010
0000
,
1001
0000
0000
0000
;

//---------------dance-single - hooky----------------
#NOTES:
     dance-single:
     :
     Hard:
     6:
     0.360,0.312,0.239,0.205,0.000,243.000,28.000,24.000,0.000,0.000,0.000,0.360,0.312,0.239,0.205,0.000,243.000,28.000,24.000,0.000,0.000,0.000: // measure 0
0000
0000
0000
0000
,  // measure 1
0000
0000
0000
0000
,  // measure 2
1000
0000
1100
0000
1000
0100
1000
0000
,  // measure 3
0010
0000
0110
0000
0100
0001
0010
0000
,  // measure 4
0010
0000
0010
0000
0100
0010
0100
0000
,  // measure 5
1000
0000
1000
0000
0001
0100
0010
0000
,  // measure 6
1000
0000
1100
0000
1000
0100
1000
0000
,  // measure 7
0001
0000
0011
0000
0010
0001
0010
0000
,  // measure 8
0100
0100
1000
0000
1000
1000
0100
0000
,  // measure 9
0010
0001
0100
0010
0000
0000
0010
0000
,  // measure 10
1000
0100
1000
0000
1000
0000
0010
0000
,  // measure 11
0100
0001
0010
0020
0000
0000
0031
0000
,  // measure 12
0100
0010
1000
0100
0000
0010
0010
0000
,  // measure 13
0002
0103
2000
3010
,  // measure 14
0001
0100
0001
0000
1000
0010
1000
0000
,  // measure 15
0100
0010
0200
0020
0000
0000
0330
0000
,  // measure 16
0002
0000
0013
0000
0001
0100
0010
0000
,  // measure 17
1000
0100
2000
0020
0000
0000
3030
0000
,  // measure 18
1001
0000
1000
0100
0010
0100
1000
0000
,  // measure 19
0001
0100
0010
0100
0000
0100
0110
0000
,  // measure 20
1000
0100
0010
0001
0100
0010
1000
0000
,  // measure 21
1100
0011
0220
0330
,  // measure 22
0110
0000
0001
0010
0100
0010
0001
0000
,  // measure 23
1000
0010
0100
0010
0000
0010
1001
0000
,  // measure 24
0001
0010
0100
1000
0010
0100
0001
0000
,  // measure 25
0101
1010
2002
3003
,  // measure 26
0000
1000
0000
1001
,  // measure 27
0100
0000
0010
0000
1000
0010
0100
0000
,  // measure 28
0001
1000
0100
0000
0100
0010
1000
0000
,  // measure 29
0010
0001
0100
0001
0001
0100
0010
0000
,  // measure 30
1000
0000
0010
0000
0001
0010
1000
0100
,  // measure 31
0001
0000
0001
0100
1000
0010
0100
0000
,  // measure 32
0110
0000
0011
0000
1000
0100
1000
0000
,  // measure 33
1001
0010
0001
0100
,  // measure 34
0010
1000
0100
0200
0000
0000
1300
0000
,  // measure 35
0010
0100
0001
0010
0000
0100
0100
0000
,  // measure 36
2000
3010
0002
0103
,  // measure 37
1000
0010
1000
0000
0001
0100
0001
0000
,  // measure 38
0010
0100
0020
0200
0000
0000
0330
0000
,  // measure 39
2000
0000
3100
0000
1000
0010
0100
0000
,  // measure 40
0001
0010
0002
0200
0000
0000
0303
0000
,  // measure 41
1001
0000
0001
0010
0100
0010
0001
0000
,  // measure 42
1000
0010
0100
0010
0000
0010
0110
0000
,  // measure 43
0001
0010
0100
1000
0010
0100
0001
0000
,  // measure 44
0011
1100
0220
0330
,  // measure 45
0110
0000
1000
0100
0010
0100
1000
0000
,  // measure 46
0001
0100
0010
0100
0000
0100
1001
0000
,  // measure 47
1000
0100
0010
0001
0100
0010
1000
0000
,  // measure 48
1010
0101
2002
3003
;
