#TITLE:Valanga;
#SUBTITLE:;
#ARTIST:DJ TOTTO;
#TITLETRANSLIT:;
#SUBTITLETRANSLIT:;
#ARTISTTRANSLIT:;
#GENRE:;
#CREDIT:;
#MENUCOLOR:;
#METERTYPE:DDR;
#BANNER:[Round 1] - Valanga.png;
#BACKGROUND:[Round 1] - Valanga-bg.png;
#LYRICSPATH:;
#CDTITLE:cdtitle.png;
#MUSIC:[Round 1] - Valanga.mp3;
#OFFSET:-0.025;
#SAMPLESTART:20.663;
#SAMPLELENGTH:15.000;
#SELECTABLE:YES;
#LISTSORT:;
#BPMS:0.000=186.000,63.000=744.000,64.000=186.000;
#DISPLAYBPM:186;
#STOPS:63.000=0.242
;
#BGCHANGES:;
#ATTACKS:;

//---------------dance-single - ----------------
#NOTES:
     dance-single:
     :
     Hard:
     10:
     0.833,0.869,0.775,0.291,0.291:
0000
0000
0000
0000
,
0000
0000
0000
0000
,
0000
0000
0000
0000
,
0000
0000
0000
0000
,
0010
0000
0000
0001
0000
0000
0100
0000
,
0000
0010
0000
0000
1000
0000
0000
0100
,
0000
0000
0010
0000
0000
0001
0000
0000
,
0100
0000
0000
0010
0000
0000
1000
0000
,
0001
0000
0001
0010
0000
0010
0100
0000
,
0100
1000
0000
1000
0010
0000
0010
0001
,
0000
0001
0010
0000
0010
0100
0000
0100
,
0001
0000
0001
0010
0000
0010
0001
0100
,
0010
0000
0010
0001
0000
0001
1000
0000
,
1000
0100
0000
0100
0001
0000
0001
1000
,
0100
0001
0100
1000
0010
0001
0010
1000
,
0100
0000
0010
0000
0100
0000
0000
0000
0010
0000
0001
0000
0010
0000
0000
0000
0001
0000
1000
0000
0001
0000
1000
0000
0020
0030
0000
0000
0000
0000
0000
0000
,
1000
0001
0101
0000
0001
1000
1100
0000
,
1000
0010
0110
0000
0001
0010
0110
0100
,
1000
0001
0101
0000
0100
0010
1010
0000
,
1000
0001
0011
0000
0010
0100
1100
1000
,
0001
0010
0110
0000
0100
1000
1001
0000
,
0001
0100
0110
0000
0010
0100
0101
0001
,
1000
0100
0001
0100
0010
0100
1000
0100
,
0010
0001
0100
1000
0100
0001
0010
0100
,
1000
0000
0001
0000
1010
0000
0000
0000
0001
0000
1000
0000
0101
0000
1000
0001
,
1000
0001
1100
0000
0001
1000
0011
0100
,
1000
0000
0010
0000
0101
0000
0000
0000
0001
0000
0010
0000
1100
0000
1000
0001
,
1000
0010
1100
0000
0001
0010
0101
1000
,
0010
0000
0100
0000
0011
0000
0000
0000
0100
0000
0010
0000
1100
0000
0001
1000
,
0001
0010
0101
0000
1000
0010
1100
0001
,
0100
0000
1000
0000
0100
0000
0010
0000
0100
0000
0001
0000
0010
0000
0100
1000
,
0100
0000
0010
0000
0001
0000
0100
0010
0100
0000
0010
1000
0010
0000
1000
0100
,
1000
1010
0000
0001
0011
0000
1000
1100
,
0000
0000
0001
0000
0101
0000
0000
0000
1000
0100
1000
0000
0001
0100
0001
0000
,
1000
1001
0000
0010
0110
0000
0100
0101
,
0000
0000
0000
0010
0000
0000
1010
0000
0000
0000
0000
0000
1000
0000
0100
0000
0010
0000
0001
0000
0010
0000
0100
0000
,
1000
0101
0000
0001
1100
0000
1000
0011
,
0000
0000
0001
0000
1010
0000
0000
0000
0001
0010
0001
0000
1000
0010
1000
0000
,
0001
0110
0000
1000
0110
0000
0100
1001
,
0000
0000
0000
0010
0000
0000
1001
0000
0000
0000
0000
0000
0001
0000
0010
0000
0100
0000
1000
0000
0010
0000
0100
0000
,
0001
0011
0000
1000
1010
0000
0001
0101
,
0010
0000
1000
0000
1200
0000
0000
0000
0310
0001
0010
0001
1000
0100
1000
0100
,
0010
0011
0000
0001
0101
0000
0010
1010
,
0100
0000
0000
0001
0000
0000
2001
0000
0000
0000
0000
0000
3100
0000
0010
0000
0001
0000
0100
0000
0010
0000
1000
0000
,
0100
0011
0000
0100
1010
0000
0010
0101
,
1000
0000
0010
0000
1002
0000
0000
0000
1003
0010
1000
0010
0100
0001
0100
0001
,
0010
0100
1000
0100
0001
0100
0010
0001
,
1001
0000
0100
0000
1001
0000
0000
0000
1000
0010
0100
0000
0001
0010
0100
0000
,
2002
0000
0000
0000
,
0000
0000
0000
0000
3003
0000
0001
0100
0001
0000
0010
0000
0110
0000
0100
0000
,
1000
0000
0000
0001
0100
0000
0000
0001
1000
0000
0001
0000
0010
0000
0200
0000
,
1000
0000
0320
0000
0001
0000
0130
1000
0100
0000
0010
0000
0001
0000
0100
0000
,
0020
0000
0000
2030
0000
0000
3002
0000
0000
0023
0000
0000
0130
0000
1000
0000
,
2002
0000
0000
0000
3003
0000
1000
0010
1000
0000
0001
0000
0010
0000
0100
0000
,
2000
0010
3002
0100
1003
0100
0010
0110
,
0000
0000
1001
0000
0000
0000
0010
0100
0010
0000
0000
1000
0000
0000
0001
0000
,
0020
0000
0000
0000
0130
0000
1000
0000
1100
0000
0000
0110
0000
0000
0011
0000
,
2002
0000
0000
0000
3003
0000
0001
0010
0001
0000
0100
0000
0010
0000
1000
0000
,
0001
0000
0000
1000
0100
0000
0000
1000
0010
0000
0100
0000
0001
0000
0020
0000
,
0100
0000
0032
0000
0100
0000
1003
0010
1000
0000
0001
0000
0010
0000
0100
0000
,
2000
0000
0000
3020
0000
0000
0230
0000
0000
0302
0000
0000
1003
0000
0100
0000
,
0220
0000
0000
0000
0330
0000
1000
0001
1000
0000
0010
0000
0100
0000
0001
0000
,
2000
0100
3002
0010
1003
0010
0100
0101
,
0000
0000
1010
0000
0001
1000
0100
0000
0001
0000
0100
0000
2000
0000
0000
0000
,
3020
0000
0000
0200
0000
0000
0300
0000
,
1000
0000
0000
0000
0001
0000
0000
0000
1030
0100
0010
0001
0010
0100
1000
0001
,
1000
1100
0010
0000
0001
0101
0010
0000
,
1000
1100
0010
0000
0001
0101
0010
1000
,
0100
0110
0001
0000
0100
0110
1000
0000
,
0100
0000
0110
0000
0001
0000
0000
0000
1000
0000
0000
0010
1000
0000
0001
0000
,
0010
0110
1000
0000
0010
0110
0001
0000
,
1000
1100
0001
0000
0001
0101
1000
0001
,
1000
0100
0001
0100
1000
0010
0001
0010
,
0100
0000
1000
0000
0100
0000
0001
0000
0010
0000
0100
1000
0001
0000
0100
0000
,
0010
0101
1000
0000
0010
1001
0100
0000
,
0001
0110
1000
0000
0001
1010
0100
0010
,
1000
0101
1000
0000
0001
1100
0001
0000
,
1000
0000
0011
0000
1000
0000
0000
0000
0001
0000
0000
1000
0001
0000
0010
0000
,
0100
1000
0100
1000
0001
0100
0001
0100
,
0010
1000
0100
0001
0100
1000
0010
0100
,
0001
1100
0000
1000
0011
0000
0001
1010
,
0000
0000
1000
0000
0101
0000
0010
1000
0001
0010
0100
1000
0001
0100
0020
0000
,
0000
0000
0000
0000
,
0000
0000
0000
0000
,
0000
0000
0000
0000
,
0000
0000
0000
0000
0000
0000
0000
0030
;

//---------------dance-single - ----------------
#NOTES:
     dance-single:
     :
     Medium:
     8:
     0.657,0.680,0.273,0.335,0.048:
0000
0000
0000
0000
,
0000
0000
0000
0000
,
0000
0000
0000
0000
,
0000
0000
0000
0000
,
2010
0000
0000
3000
,
0012
0000
0000
0003
,
2100
0000
0000
3000
,
0102
0000
0000
0003
,
0210
0010
0010
0310
,
1002
1000
1000
1003
,
0012
0010
0010
0013
,
2100
0100
0100
3100
,
0012
1000
0100
1003
,
2010
0001
0100
3001
,
1000
0100
0001
0010
,
1000
0000
0000
0000
0100
0000
0000
0000
0010
0000
0000
0000
0001
0000
0000
0000
1000
0000
0000
0000
0010
0000
0000
0000
0200
0300
0000
0000
0000
0000
0000
0000
,
0010
1000
0100
0000
0010
1000
0100
0000
,
0010
0001
0100
0000
0010
0001
0100
0010
,
1000
0100
0010
0000
1000
0100
0010
0000
,
0001
0100
0010
0000
0001
0100
0010
1000
,
0001
0010
0100
0000
0001
0010
0100
0000
,
1000
0010
0100
0000
1000
0010
0100
0001
,
1000
0100
0001
0000
0001
0100
1000
0000
,
1000
0010
0100
0001
1000
0100
0010
0000
,
0001
1000
0100
0000
0001
1000
0100
0010
,
0001
0100
0010
0000
0001
0100
0010
1000
,
0100
0010
0001
0000
0100
0010
0001
0010
,
0100
1000
0010
0000
0100
1000
0010
0100
,
0001
0010
0100
0000
0001
0010
0100
1000
,
0010
0100
0001
0000
0010
0100
0001
1000
,
0100
0001
0100
0001
0100
1000
0100
1000
,
0010
0100
0001
0010
0100
1000
1001
0000
,
0010
0010
0000
1000
1000
0000
0001
0001
,
0000
0010
0010
0000
0100
1000
0010
1000
,
0100
0100
0000
0010
0010
0000
0001
0001
,
0000
0000
0000
1000
0000
0000
1000
0000
0000
0000
0000
0000
0001
0000
0000
0000
0001
0000
0100
0000
0000
0000
0100
0000
,
0010
0010
0000
1000
1000
0000
0001
0001
,
0000
0010
0010
0000
1000
0010
0001
0100
,
1000
1000
0000
0100
0100
0000
0010
0010
,
0000
0000
0000
1000
0000
0000
1000
0000
0000
0000
0000
0000
0001
0000
1000
0000
0001
0000
1000
0000
0000
0000
0010
0000
,
0200
0000
0001
0000
0310
1000
0100
0000
,
0020
0000
0031
0100
1000
0100
0002
0000
,
2003
0000
0010
0000
3001
0100
1000
0000
,
0200
0000
0310
1000
0100
1000
0002
0000
,
0023
0000
0100
0000
1030
0010
0001
0000
,
0200
0000
0310
1000
0001
0010
0100
0000
,
1000
0001
1000
0001
0100
0010
0100
0010
,
1000
0100
0001
0100
1000
0010
0001
0010
,
0220
0000
0000
0000
,
0000
0000
0330
0010
1000
0001
0110
0000
,
1000
0100
1000
0100
0010
0100
1000
0002
,
0000
0203
0000
0310
1000
0001
0010
0100
,
1000
0000
0000
0001
0000
0000
0100
0000
0000
0010
0000
0000
1000
0000
0100
0000
,
0020
0000
0030
0001
0100
1000
0100
0001
,
0020
0000
0230
0000
1300
0010
0100
0002
,
0000
0000
0013
0000
0000
0000
0010
0000
0010
0000
0000
0100
0000
0000
1000
0000
,
2000
0000
0000
0000
3000
0000
0001
0000
0100
0000
0000
1000
0000
0000
0100
0000
,
0020
0000
0030
0100
0001
0010
0100
0010
,
0001
0100
0001
0100
0010
0100
0001
2000
,
0000
3200
0000
0310
0001
1000
0010
0100
,
0001
0000
0000
1000
0000
0000
0100
0000
0000
0010
0000
0000
0001
0000
0100
0000
,
0020
0000
0030
1000
0100
0001
0100
1000
,
0020
0000
0230
0000
0301
0010
0100
2000
,
0000
3010
1000
0010
0100
0001
0010
0000
,
0200
0000
0000
0020
0000
0000
0330
0000
,
1001
0110
1001
0110
,
0001
1000
0100
0000
0001
1000
1100
0000
,
1000
0001
0100
0000
1000
0001
0101
0100
,
0010
1000
0100
0000
0010
1000
1100
0000
,
0010
0001
0100
0000
0010
0001
0101
0100
,
0010
1000
0001
0000
0010
1000
1001
0000
,
0010
0001
1000
0000
0010
0001
1001
1000
,
0100
0010
0001
0010
0100
1000
0010
1000
,
0100
0001
0010
0001
0100
1000
0010
1000
,
0001
0010
0100
0000
0001
0010
0110
0000
,
1000
0010
0100
0000
1000
0010
0110
0100
,
0001
1000
0100
0000
0001
1000
1100
0000
,
1000
0001
0100
0000
1000
0001
0101
0100
,
0010
1000
0010
1000
0001
0010
0001
0010
,
0100
1000
0010
0001
1000
0100
0001
0010
,
0100
1100
0000
0010
0011
0000
0001
0101
,
0000
1000
1010
0100
0001
0010
1000
0200
,
0000
0000
0000
0000
,
0000
0000
0000
0000
,
0000
0000
0000
0000
,
0000
0000
0000
0000
0000
0000
0000
0300
;

//---------------dance-single - ----------------
#NOTES:
     dance-single:
     :
     Easy:
     5:
     0.503,0.567,0.220,0.387,0.000:
0000
0000
0000
0000
,
0000
0000
0000
0000
,
0000
0000
0000
0000
,
0000
0000
0000
0000
,
2000
0000
0000
3000
,
0002
0000
0000
0003
,
0020
0000
0000
0030
,
0200
0000
0000
0300
,
2000
0000
0000
3000
,
0020
0000
0000
0030
,
0002
0000
0000
0003
,
0200
0000
0000
0300
,
1000
0000
0010
0000
,
0001
0000
0100
0000
,
1000
0010
0100
0001
,
0010
0000
0000
0000
0100
0000
0000
0000
1000
0000
0000
0000
0000
0000
0000
0000
0010
0000
0000
0000
0100
0000
0000
0000
0002
0003
0000
0000
0000
0000
0000
0000
,
1000
0000
1001
0000
0001
0100
0010
0000
,
0100
0000
0001
0000
1000
0100
0010
0000
,
0001
0000
1001
0000
1000
0100
0010
0000
,
0100
0000
1000
0000
0010
0100
0001
0100
,
0010
0000
0110
0000
1000
0100
0010
0000
,
0100
0000
1000
0000
0010
0100
0001
0000
,
1000
0100
1000
0000
0001
0000
0100
0000
,
0001
0010
0001
0000
1000
0000
0001
0000
,
0100
0110
0010
1000
,
0100
0100
0100
0000
1000
0000
0010
0000
,
0100
0110
0010
1000
,
0100
0100
0100
0000
0010
0000
0001
0000
,
0100
0110
0010
1000
,
0100
0100
0100
0000
1000
0000
0010
0000
,
0100
0001
0010
0000
0100
1000
0010
0000
,
0100
0001
0100
0000
0002
0000
2003
0000
,
3010
0010
0000
1000
1000
0000
0001
0001
,
0000
1000
1000
0000
1001
0000
1001
0000
,
0001
0001
0000
0100
0100
0000
0001
0001
,
0000
1000
1000
0000
1001
0000
1001
0000
,
1000
1000
0000
0100
0100
0000
0010
0010
,
0000
0100
0100
0000
0110
0000
0110
0000
,
0010
0010
0000
0001
0001
0000
1000
1000
,
0000
0010
0010
0000
0110
0000
0110
0000
,
2000
3100
0002
0103
,
1000
0010
0001
0010
,
2000
3010
0002
0103
,
0002
0023
0230
2300
,
3002
0013
2000
3100
,
1000
0010
0100
0001
,
1000
0001
1000
0001
,
1001
0000
1001
0000
0010
0100
0010
0000
,
2002
0000
0000
0000
,
0000
3003
2000
3001
,
0001
0000
0010
0000
0100
1000
0010
0000
,
0100
0000
0001
0000
1000
0001
1000
0000
,
0002
0023
0230
2300
,
3001
0000
1001
1001
,
1000
0000
0100
0000
0010
0100
1000
0000
,
0010
0100
0001
0010
,
0200
0000
0310
0001
,
0200
0000
0310
0010
,
1000
0000
0100
0000
1000
0100
0010
0000
,
0001
0000
0100
0000
0001
0010
0100
1000
,
0002
2003
3020
0230
,
0301
0000
1001
1001
,
0001
0000
0100
0000
0010
0100
0001
0000
,
1000
0100
1000
0000
0001
0100
0001
0000
,
1000
0000
0000
0002
0000
0000
0003
0000
,
0100
0000
0100
0000
0100
0010
0100
0000
,
0020
1030
0002
0013
,
0100
1000
0100
0000
0010
0001
0010
0000
,
0002
0013
0200
1300
,
0001
0010
0001
0000
1000
0010
1000
0000
,
0002
0103
2000
3100
,
1000
0010
1000
0000
0001
0010
0001
0000
,
2000
3010
0002
0103
,
0001
0010
0100
0000
1000
0100
0010
0000
,
0001
0100
0001
0000
0100
0000
0101
0000
,
1000
0100
1000
0000
0100
0000
1100
0000
,
1000
0010
1000
0000
0010
0000
1010
0000
,
0001
0010
0001
0000
0010
0000
0011
0000
,
0001
0010
0100
0000
1000
0001
0010
0000
,
0100
1000
0001
0000
0010
0100
1000
0001
,
0010
0100
0000
0010
0001
0000
1000
0100
,
0000
0010
0001
1000
0100
0010
0001
0200
,
0000
0000
0000
0000
,
0000
0000
0000
0000
,
0000
0000
0000
0000
,
0000
0000
0000
0000
0000
0000
0000
0300
;

//---------------dance-single - ----------------
#NOTES:
     dance-single:
     :
     Beginner:
     2:
     0.194,0.227,0.009,0.079,0.000:
0000
0000
0000
0000
,
0000
0000
0000
0000
,
0000
0000
0000
0000
,
0000
0000
0000
0000
,
0001
0000
0000
0000
,
0001
0000
0000
0000
,
1000
0000
0000
0000
,
1000
0000
0000
0000
,
0001
0000
0000
0000
,
0010
0000
0000
0000
,
0100
0000
0000
0000
,
1000
0000
0000
0000
,
0001
0000
0001
0000
,
0010
0000
0010
0000
,
0100
0000
0100
0000
,
1000
1000
1000
0000
,
0000
0001
0000
0001
,
0000
1000
0000
1000
,
0000
0001
0000
0001
,
0000
1000
0000
1000
,
0000
0010
0000
0010
,
0000
0100
0000
0100
,
0100
0000
0100
0000
,
0010
0000
0010
0000
,
1000
0000
1000
0000
,
0001
0000
0001
0000
,
0100
0000
0100
0000
,
0010
0000
0010
0000
,
1000
0000
1000
0000
,
0001
0000
0001
0000
,
0010
0000
0010
0000
,
0100
0000
0100
0000
,
1000
0000
0000
1000
0000
0000
1000
0000
,
0000
1000
0000
0000
1000
0000
0000
0000
,
0001
0000
0000
0001
0000
0000
0001
0000
,
0000
0001
0000
0000
0001
0000
0000
0000
,
1000
0000
0000
1000
0000
0000
1000
0000
,
0000
1000
0000
0000
1000
0000
0000
0000
,
0001
0000
0000
0001
0000
0000
0001
0000
,
0000
0001
0000
0000
0001
0000
0000
0000
,
0200
0000
0300
0000
,
0010
0000
0010
0000
,
0020
0000
0030
0000
,
1000
1000
1000
0000
,
2000
0000
3000
0000
,
0001
0000
0001
0000
,
0002
0000
0003
0000
,
0020
0000
0030
0000
,
0110
0000
0000
0000
,
0000
0000
0000
0100
,
0100
0000
0100
0000
,
0010
0000
0010
0000
,
1000
0000
1000
0000
,
0002
0000
0003
0000
,
0001
0000
0001
0000
,
1000
0000
1000
0000
,
0010
0000
0010
0000
,
0200
0000
0300
0000
,
0100
0000
0100
0000
,
0001
0000
0001
0000
,
1000
0000
1000
0000
,
0200
0000
0300
0000
,
0010
0000
0010
0000
,
0001
0000
0001
0000
,
1000
0000
0000
1000
0000
0000
0000
0000
,
0000
0000
0000
0000
,
1000
0000
1000
0000
,
0001
0000
0001
0000
,
1000
0000
1000
0000
,
0010
0000
0010
0000
,
0100
0000
0100
0000
,
0010
0000
0010
0000
,
1000
0000
1000
0000
,
0001
0000
0001
0000
,
0010
0000
0010
0000
,
0100
0000
0100
0000
,
1000
0000
1000
0000
,
0001
0000
0001
0000
,
1000
0000
1000
0000
,
0100
0000
0001
0000
,
0100
0000
0000
0100
0000
0000
0100
0000
,
0000
0100
0000
0100
0000
0000
0000
0020
,
0000
0000
0000
0000
,
0000
0000
0000
0000
,
0000
0000
0000
0000
,
0000
0000
0000
0000
0000
0000
0000
0030
;

//---------------dance-double - ----------------
#NOTES:
     dance-double:
     :
     Hard:
     10:
     0.791,0.869,0.220,0.343,0.291:
00000000
00000000
00000000
00000000
,
00000000
00000000
00000000
00000000
,
00000000
00000000
00000000
00000000
,
00000000
00000000
00000000
00000000
,
12000000
00000000
00000000
00000000
,
03020000
00000000
00000000
00000000
,
00032000
00000000
00000000
00000000
,
00003020
00000000
00000000
00000000
,
00000031
00000100
00000001
00001000
00000100
00001000
00000010
00000100
,
00000010
00010000
00000100
00010000
00001000
01000000
00001000
00100000
,
01000000
00100000
00010000
01000000
00010000
10000000
01000000
10000000
,
00100000
01000000
00100000
10000000
01000000
00100000
00001000
00010000
,
01000000
10000000
01000000
00100000
00010000
00100000
10000000
00100000
,
00010000
00001000
00000100
00000001
00001000
00000010
00000001
00000010
,
00000100
00010000
00001000
01000000
00010000
00100000
01000000
10000000
,
00010000
00000000
01000000
00000000
00010000
00000000
00000000
00000000
01000000
00000000
00001000
00000000
01000000
00000000
00000000
00000000
00001000
00000000
00010000
00000000
00001000
00000000
00010000
00000000
00000200
00000300
00000000
00000000
00000000
00000000
00000000
00000000
,
00000010
00000001
00000100
00000000
00000010
00001000
00001100
00000000
,
00000100
00010000
00001000
00000000
01000000
00001000
00011000
00010000
,
01000000
10000000
00100000
00000000
01000000
00010000
00110000
00000000
,
00100000
00001000
00010000
00000000
00001000
00010000
00010100
00000100
,
00000010
00000001
00000100
00000000
00000010
00001000
00001100
00000000
,
00000100
00010000
00001000
00000000
00010000
00001000
01001000
01000000
,
00100000
10000000
00100000
00010000
00100000
01000000
00100000
00001000
,
00000010
00000000
00000100
00000000
00000010
00000000
00001000
00000000
00000100
00000000
00000010
00000000
00000001
00000000
00000100
00000100
,
00000100
00000000
00000010
00000000
00001000
00000000
00000000
00000000
00000100
00000000
00010000
00000000
00001000
00000000
01000000
00001000
,
00010000
00000000
00100000
00000000
01000000
00000000
00000000
00000000
00010000
00000000
00100000
00000000
01000000
00000000
00010000
00010000
,
00010000
00000000
00001000
00000000
01000000
00000000
00000000
00000000
00100000
00000000
10000000
00000000
01000000
00000000
00100000
00001000
,
00010000
00000000
00000100
00000000
00001000
00000000
00000000
00000000
00000010
00000000
00000100
00000000
00000001
00000000
00001000
00001000
,
00001000
00000000
00000100
00000000
00010000
00000000
00000000
00000000
00001000
00000000
01000000
00000000
00100000
00000000
10000000
01000000
,
00100000
00000000
00001000
00000000
01000000
00000000
00000000
00000000
00001000
00000000
00010000
00000000
00001000
00000000
01000000
01000000
,
01000000
00000000
00100000
00000000
01000000
00000000
00000000
00000000
00001000
00000000
00010000
00000000
00000100
00000000
00001000
00001000
,
00001000
00000000
00000010
00000000
00001000
00000000
00000100
00010000
00000100
00000000
00010000
00001000
00010000
00000000
00001000
01000000
,
00001000
00001000
00000000
01000000
01000000
00000000
10000000
10000000
,
00000000
01000000
01000000
00000000
00001000
01000000
10000000
01000000
,
00001000
00010000
00000000
00000100
00000100
00000000
00000001
00000001
,
00000000
00000000
00000000
00000100
00000000
00000000
00000100
00000000
00000000
00000000
00000000
00000000
00010000
00000000
00000000
00000000
00000100
00000000
00000001
00000000
00000000
00000000
00000100
00000000
,
00010000
00001000
00000000
01000000
01000000
00000000
10000000
10000000
,
00000000
01000000
01000000
00000000
00001000
01000000
10000000
01000000
,
00001000
00010000
00000000
00000100
00000100
00000000
00000001
00000001
,
00000000
00000000
00000000
00000100
00000000
00000000
00000100
00000000
00000000
00000000
00000000
00000000
00010000
00000000
00001000
00000000
01000000
00000000
00001000
00000000
00010000
00000000
00000100
00000000
,
00001000
00001000
00000100
00000001
00000001
00000100
00001000
00001000
,
00000010
00000000
00000100
00000000
00000001
00000000
00000010
00000000
00000100
00001000
00000100
00000000
00010000
00001000
00010000
00000000
,
00001000
00001000
01000000
00100000
00100000
01000000
10000000
10000000
,
01000000
00000000
00000000
00010000
00000000
00000000
00010000
00000000
00000000
00100000
00000000
00000000
01000000
00000000
10000000
00000000
00010000
00000000
01000000
00000000
00001000
00000000
00010000
00000000
,
00000100
00000100
00001000
00000010
00000010
00000100
00001000
00001000
,
00000100
00000000
00000001
00000000
00000001
00000000
00000010
00000000
00000100
00001000
00000100
00000000
00001000
00000001
00001000
00000000
,
00000001
00000001
00000100
00001000
00001000
00010000
01000000
01000000
,
01100000
00000000
00000000
00000000
10010000
00000000
00000000
00000000
10000000
01000000
00100000
01000000
10000000
00010000
00100000
00001000
,
00020000
00000000
00000000
00000000
,
00000000
00000000
00000000
00000000
00000000
00000000
00031000
00010000
00001000
00000000
00010000
00000000
00010100
00000000
00000100
00000000
,
00000010
00000000
00000000
00000010
00000001
00000000
00000000
00000001
00001000
00000000
00000010
00000000
00010000
00000000
00002000
00000000
,
00000000
00000000
02003000
00000000
00000000
00000000
03010000
00100000
00010000
00000000
01000000
00000000
00100000
00000000
10000000
00000000
,
01000000
00000000
00000000
00010000
00000000
00000000
00000100
00000000
00000000
00001000
00000000
00000000
00000010
00000000
00000100
00000000
,
00000002
00000000
00000000
00000000
00000000
00000000
00001003
00000100
00001000
00000000
00000010
00000000
00010000
00000000
00001000
00000000
,
01001000
00000000
01010000
00010000
00100000
01000000
10000000
10100000
,
00000000
00000000
01010000
00000000
00000000
00000000
01000000
00001000
01000000
00000000
00000000
00001000
00000000
00000000
00010000
00000000
,
00000020
00000000
00000000
00000000
00001030
00000000
00000100
00000000
00001100
00000000
00000000
00011000
00000000
00000000
00110000
00000000
,
20000000
00000000
00000000
00000000
00000000
00000000
30010000
01000000
00010000
00000000
00100000
00000000
00001000
00000000
00010000
00000000
,
00000100
00000000
00000000
00000100
00001000
00000000
00000000
00001000
00000010
00000000
00000100
00000000
00001000
00000000
00020000
00000000
,
00000000
00000000
02030000
00000000
00000000
00000000
13000000
00100000
10000000
00000000
00010000
00000000
00100000
00000000
00001000
00000000
,
00010000
00000000
00000000
00000010
00000000
00000000
00000100
00000000
00000000
00001000
00000000
00000000
01000000
00000000
00010000
00000000
,
00200000
00000000
00000000
00000000
00000000
00000000
01300000
10000000
01000000
00000000
00100000
00000000
00001000
00000000
00010000
00000000
,
00010100
00000000
00001100
00001000
00000010
00000100
00000001
00000020
,
00000000
00000000
00000130
00000000
00001000
00000001
00001000
00000000
00000010
00000000
00000100
00000000
00000020
00000000
00000000
00000000
,
00020030
00000000
00000000
00002000
00000000
00000000
00033000
00000000
,
00011000
00000000
00000000
00000000
00011000
00000000
00000000
00000000
00010000
00000100
00001000
00000000
00000100
00010000
00001000
00000000
,
02000000
00010000
03100000
10000000
01000000
00100000
00001000
00010000
,
00000200
00001000
00000310
00000001
00000200
00000010
00000301
00001000
,
00000200
00001000
00010300
00001000
01000000
00010000
00100000
01000000
,
20000000
01000000
30010000
00100000
00002000
00023000
00030200
00002300
,
00003002
00000010
00001003
00000100
00010000
00001000
00100000
00010000
,
02000000
00100000
03010000
10000000
02000000
10000000
03100000
00001000
,
00020000
00001000
00030100
00000010
00000100
00000001
00000100
00000010
,
00000200
00000000
00001000
00000000
00010300
00000000
01000000
00000000
10000000
00000000
01000000
00100000
00010000
00000000
10000000
00000000
,
00200000
01000000
10300000
01000000
00100000
00001000
00010000
00001000
,
00000200
00000010
00000301
00001000
00000200
00000010
00001300
00000001
,
00002000
00000100
00003001
00001000
00000100
00010000
00001000
00010000
,
01000000
00000000
10000000
01000000
00000000
10000000
00010000
00000000
10000000
00100000
00000000
10000000
01000000
00000000
00100000
00000000
,
00020000
01000000
10030000
01000000
00010000
00001000
00000100
00000010
,
00002000
00000000
00000100
00000000
00003001
00000000
00000010
00000000
00000100
00001000
00000100
00000010
00000001
00000010
00000100
00001000
,
00000010
00000110
00000000
00010000
00011000
00000000
01000000
01100000
,
00000000
00000000
10000000
00000000
10010000
00000000
00010000
01000000
00001000
00010000
00000100
00001000
00000010
00000100
00000002
00000000
,
00000000
00000000
00000000
00000000
,
00000000
00000000
00000000
00000000
,
00000000
00000000
00000000
00000000
,
00000000
00000000
00000000
00000000
00000000
00000000
00000000
00000003
;

//---------------dance-double - ----------------
#NOTES:
     dance-double:
     :
     Medium:
     8:
     0.646,0.643,0.299,0.273,0.101:
00000000
00000000
00000000
00000000
,
00000000
00000000
00000000
00000000
,
00000000
00000000
00000000
00000000
,
00000000
00000000
00000000
00000000
,
00000002
00000000
00000000
00000000
,
00002003
00000000
00000000
00000000
,
00023000
00000000
00000000
00000000
,
20030000
00000000
00000000
00000000
,
30010000
00000000
00000000
10000000
00000000
00010000
01000000
00000000
,
01000000
00001000
00000000
00001000
00010000
00000000
00010000
00000100
,
00000000
00000100
00001000
00000000
00001000
00000010
00000000
00000010
,
00000100
00000000
00000100
00000001
00000000
00000001
00000100
00000001
,
00000010
00000000
00000100
00001000
00000000
00001000
00000100
00000000
,
00000100
00010000
00000000
00010000
00001000
00000000
00001000
01000000
,
00100000
10000000
01000000
00000000
00010000
00001000
00000100
00000000
,
00000001
00000000
00000000
00000000
00000010
00000000
00000000
00000000
00000100
00000000
00000000
00000000
00001000
00000000
00000000
00000000
00000010
00000000
00000100
00000000
00000010
00000000
00000000
00000000
00002000
00003000
00000000
00000000
00000000
00000000
00000000
00000000
,
00000001
00000100
00001000
00000000
00001000
00000100
00000001
00000000
,
00000001
00000100
00001000
00000000
00010000
01000000
10000000
00010000
,
10000000
01000000
00010000
00000000
00010000
01000000
10000000
00000000
,
10000000
01000000
00010000
00000000
00001000
00000100
00000001
00001000
,
00000001
00000010
00001000
00000000
00001000
00000010
00000001
00000000
,
00000001
00000010
00001000
00000000
00010000
00100000
10000000
00010000
,
10000000
10000000
01000000
00000000
00100000
00100000
00001000
00000000
,
00010000
00010000
00000100
00000000
00000010
00000010
00000001
00000000
,
00000100
00000000
00000010
00000000
00001000
00000000
00000000
00000000
00000100
00000000
00010000
00000000
00000010
00000000
00000000
00000010
,
00001000
00000200
00010000
00010300
00001000
01000000
00100000
00000000
,
01000000
00000000
00001000
00000000
00100000
00000000
00000000
00000000
00010000
00000000
00100000
00000000
00001000
00000000
00000000
00001000
,
00010000
00000200
00001000
00001300
00000010
00000100
00000001
00000000
,
00000010
00000000
00000100
00000000
00010000
00000000
00000000
00000000
00000010
00000000
00000100
00000000
00001000
00000000
00000000
00001000
,
00000100
00000020
00010000
00010030
00001000
01000000
00100000
00000000
,
10000000
00000000
01000000
00000000
00010000
00000000
00000000
00000000
00001000
00000000
00000100
00000000
00000001
00000000
00000000
00001000
,
00000001
00000010
00001000
00010000
01000000
10000000
01000000
00100000
,
00010000
00010000
00000000
01000000
01000000
00000000
00001000
00001000
,
00000000
00010000
00010100
00000000
00001100
00000000
00000011
00000000
,
00000001
00000001
00000000
00000100
00000100
00000000
00000010
00000010
,
00000000
00010000
00011000
00000000
01001000
00000000
01010000
00000000
,
10000000
10000000
00000000
01000000
01000000
00000000
00100000
00100000
,
00000000
00001000
00011000
00000000
00010010
00000000
00001010
00000000
,
00000100
00000100
00000000
00000001
00000001
00000000
00001000
00001000
,
00000000
00000100
00010100
00000000
00011000
00000000
01001000
00000000
,
02000000
00000000
03010000
00000000
00100000
01000000
00010000
00000000
,
00002000
00000000
00103000
00000000
00010000
01000000
10000000
01000000
,
00020000
00000000
10030000
00000000
00100000
10000000
01000000
00000000
,
02000000
00000000
00000000
13000000
00000000
00000000
00100000
00000000
00010000
00001000
00000000
00000100
,
00000002
00000000
00000013
00000000
00000100
00010000
00001000
00000000
,
02000000
00000000
03010000
00000000
10000000
00100000
00010000
00100000
,
20000000
00000000
31000000
00000000
00100000
00001000
00010000
00000000
,
00000100
00001000
00000100
00001000
00000010
00000100
00000010
00000100
,
00000002
00000000
00000000
00000000
,
00000000
00000000
00000000
00000000
00000000
00000000
00001003
00000100
00001000
00000000
00000001
00000000
00001001
00000000
00000000
00000000
,
00000001
00000000
00000000
00000001
00000100
00000000
00000000
00000100
00001000
00000000
00010000
00000000
00100000
00000000
20000000
00000000
,
00000000
30020000
00000000
10030000
01000000
00100000
00010000
00000000
,
01000000
00000000
00000000
00001000
00000000
00000000
00010000
00000000
00000000
00001000
00000000
00000000
01000000
00000000
00100000
00000000
,
20000000
00000000
00000000
00000000
30000000
00000000
01000000
00100000
01000000
00000000
10000000
00000000
10010000
00000000
00000000
00000000
,
20000000
00000000
32000000
00000000
03010000
00001000
00000100
00000001
,
00000000
00000000
00000001
00000000
00000000
00000000
00000001
00001000
00000001
00000000
00000000
00000100
00000000
00000000
00000010
00000000
,
00000020
00000000
00000000
00000000
00000030
00000000
00001000
00000000
00000100
00000000
00000000
00010000
00000000
00000000
00001000
00000000
,
02000000
00000000
00000000
00000000
03000000
00000000
00100000
01000000
00100000
00000000
10000000
00000000
10010000
00000000
00000000
00000000
,
10000000
00000000
00000000
10000000
01000000
00000000
00000000
01000000
00010000
00000000
00001000
00000000
00000010
00000000
00000002
00000000
,
00000000
00002003
00000000
00003001
00000100
00000010
00001000
00000000
,
00000100
00000000
00000000
00010000
00000000
00000000
00001000
00000000
00000000
00010000
00000000
00000000
00000100
00000000
00000010
00000000
,
00000002
00000000
00000000
00000000
00000003
00000000
00000100
00000010
00000100
00000000
00000001
00000000
00001001
00000000
00000000
00000000
,
00000002
00000000
00000203
00000000
00001300
00010000
01000000
10000000
,
00000000
00000000
00010000
00000000
10000000
00010000
10000000
00000000
00100000
00000000
10000000
00000000
01000000
00000000
00000000
00000000
,
00020000
00000000
00000000
00002000
00000000
00000000
00033000
00000000
,
00011000
00110000
00011000
00001010
,
00001000
00000001
00000100
00000000
00000001
00001000
00001100
00000000
,
00000100
00010000
00001000
00000000
01000000
00001000
00011000
00000000
,
00100000
00010000
01000000
00000000
00100000
10000000
11000000
00000000
,
00100000
00001000
01000000
00000000
00001000
00100000
00110000
00000000
,
00100000
00001000
00010000
00000000
00000100
00010000
00011000
00000000
,
00010000
00000010
00001000
00000000
00000010
00001000
00001100
00000100
,
00000010
00000001
00000100
00000010
00001000
00000100
00010000
00001000
,
00100000
00010000
01000000
10000000
01000000
00010000
00100000
01000000
,
10000000
00010000
01000000
00000000
00010000
10000000
11000000
00000000
,
00100000
00001000
00010000
00000000
00001000
00010000
00010100
00000000
,
00000100
00001000
00000010
00000000
00000100
00000001
00000011
00000000
,
00000010
00000100
00010000
00000000
00001000
01000000
01010000
00010000
,
00100000
01000000
10000000
01000000
00100000
00001000
00010000
00001000
,
00000010
00000001
00000100
00000001
00000010
00000100
00001000
00000010
,
00000100
00000110
00000000
00001000
00011000
00000000
01000000
01100000
,
00000000
10000000
10010000
01000000
00010000
00001000
00000100
00000002
,
00000000
00000000
00000000
00000000
,
00000000
00000000
00000000
00000000
,
00000000
00000000
00000000
00000000
,
00000000
00000000
00000000
00000000
00000000
00000000
00000000
00000003
;

//---------------dance-double - ----------------
#NOTES:
     dance-double:
     :
     Easy:
     7:
     0.491,0.529,0.141,0.387,0.000:
00000000
00000000
00000000
00000000
,
00000000
00000000
00000000
00000000
,
00000000
00000000
00000000
00000000
,
00000000
00000000
00000000
00000000
,
20000000
00000000
00000000
30000000
,
02000000
00000000
00000000
03000000
,
00200000
00000000
00000000
00300000
,
00002000
00000000
00000000
00003000
,
00010000
00000000
00000000
00000100
00000000
00000000
00001000
00000000
,
00000000
00000010
00000000
00000000
00000100
00000000
00000000
00000001
,
00000000
00000000
00000010
00000000
00000000
00000100
00000000
00000000
,
00010000
00000000
00000000
00001000
00000000
00000000
01000000
00000000
,
00010000
00000000
00000000
00100000
00000000
00000000
01000000
00000000
,
00000000
10000000
00000000
00000000
00010000
00000000
01000000
00000000
,
00001000
00001000
00010000
00010000
,
00000100
00000000
00000000
00000000
00001000
00000000
00000000
00000000
00000010
00000000
00000000
00000000
00000000
00000000
00000000
00000000
00000100
00000000
00000000
00000000
00000001
00000000
00000000
00000000
00000020
00000030
00000000
00000000
00000000
00000000
00000000
00000000
,
00000100
00000100
00010000
00011000
,
00001000
00001000
01000000
01010000
,
00010000
00010000
00100000
01100000
,
01000000
01000000
10000000
10010000
,
00010000
01000000
00001000
00011000
,
00010000
00000100
00001000
00001100
,
00000100
00000010
00000001
00000100
,
00000010
00010000
00001000
00000000
00001000
00010000
00000010
00000000
,
00001000
00000100
00010000
00011000
,
00001000
01000000
00001000
00000000
00100000
00000000
00010000
00000000
,
01000000
00100000
10000000
11000000
,
01000000
00100000
01000000
00000000
10000000
00000000
00010000
00000000
,
01000000
00001000
00010000
00010100
,
00000100
00001000
00000100
00000000
00001000
00000000
00000010
00000000
,
00000100
00000000
00000100
00000000
00000001
00001000
00000001
00000000
,
00000010
00000100
00000010
00000000
00000100
00010000
00000100
00000000
,
00010000
00010000
00000000
00010000
00010000
00000000
00010000
00010000
,
00000000
00010000
00010000
00000000
01000000
10000000
01000000
00000000
,
00100000
00100000
00000000
00100000
00100000
00000000
00100000
00100000
,
00000000
00100000
00100000
00000000
00001000
00010000
00000100
00000000
,
00000010
00000010
00000000
00000010
00000010
00000000
00000010
00000010
,
00000000
00000010
00000010
00000000
00000001
00000100
00000010
00000000
,
00001000
00001000
00000000
00001000
00001000
00000000
00001000
00001000
,
00000000
00001000
00001000
00000000
00000100
00010000
00001000
00000000
,
02000000
00010000
00100000
00010000
,
03200000
10000000
02300000
00010000
,
03002000
00100000
00010000
00100000
,
00023000
00030200
00002300
00003020
,
00000230
00000001
00000010
00000001
,
00000320
00001000
00020030
00001000
,
00030200
00000010
00001000
00000010
,
00002300
00000001
00000001
00003001
,
00002002
00000000
00000000
00000000
,
00003003
00000000
00000000
00000110
,
00001000
00000100
00010000
00001000
,
01000000
00010000
00100000
00000000
01000000
10000000
00100000
00000000
,
01000000
00000000
00010000
00100000
00001000
00010000
00000100
00000000
,
00001000
00000010
00000100
00000001
,
00000010
00000100
00001000
00000000
00001000
00000100
00000010
00000001
,
00000000
00000001
00000000
00000001
00000100
00000000
00000010
00000000
,
00001000
00000000
00000100
00010000
00001000
00000000
01000000
00000000
,
00010000
00100000
01000000
10000000
00010000
00000000
10010000
00000000
,
10000000
00000000
01000000
00000000
00100000
00000000
00001000
00010000
,
00000000
00000100
00000000
00010000
00000010
00000000
00001000
00000000
,
00000100
00000000
00000010
00000001
00000100
00000010
00001000
00000000
,
00000100
00000000
00010000
00001000
00010000
00000000
00001000
00000000
,
01000000
00000000
01000000
00010000
00100000
01000000
10000000
00010000
,
00000000
10000000
00010000
00000000
00100000
01000000
00100000
00000000
,
00001000
00000000
00000000
00020000
00000000
00000000
00000000
00000000
,
00001000
00001000
00001000
00031000
,
00020000
00031000
01000000
00010000
,
00200000
01300000
20000000
30100000
,
02000000
03010000
00100000
00001000
,
00020000
00030200
00002300
00003020
,
00000230
00000301
00001000
00000100
,
00020000
00031000
02000000
03010000
,
00100000
00110000
01000000
11000000
,
00010000
00110000
10000000
11000000
,
00020000
00130000
01000000
00100000
,
00002000
00013000
00000200
00001300
,
00000020
00000130
00000001
00001000
,
00000200
00020300
00032000
02003000
,
03020000
00130000
01000000
10000000
,
00020000
01030000
00002000
00013000
,
00000010
00000010
00000000
00000100
00000100
00000000
00000001
00000001
,
00000000
00001000
00001000
00000001
00000010
00000100
00010000
00002000
,
00000000
00000000
00000000
00000000
,
00000000
00000000
00000000
00000000
,
00000000
00000000
00000000
00000000
,
00000000
00000000
00000000
00000000
00000000
00000000
00000000
00003000
;
