#TITLE:This Kiss;
#SUBTITLE:;
#ARTIST:Carly Rae Jepsen;
#TITLETRANSLIT:;
#SUBTITLETRANSLIT:;
#ARTISTTRANSLIT:;
#CREDIT:;
#BANNER:this kiss-bn.png;
#BACKGROUND:this kiss-bg.png;
#LYRICSPATH:;
#CDTITLE:;
#MUSIC:02 This Kiss.mp3;
#OFFSET:-0.252;
#SAMPLESTART:60.060;
#SAMPLELENGTH:15.000;
#SELECTABLE:YES;
#BPMS:0.000=128.000;
#STOPS:;
#BGCHANGES:;

//---------------dance-single - ----------------
#NOTES:
     dance-single:
     :
     Hard:
     8:
     0.436,0.434,0.236,0.049,0.000: // measure 1
0000
0000
0000
0000
,  // measure 2
0000
0000
0000
0000
,  // measure 3
0000
0000
0000
0000
,  // measure 4
0000
0000
0000
0000
,  // measure 5
0000
0000
0000
0000
,  // measure 6
0000
0000
0000
0000
,  // measure 7
0000
0000
0000
0000
,  // measure 8
0000
0000
0000
0000
0001
0001
1000
0100
,  // measure 9
1000
0010
0100
0001
0010
0001
1000
0100
,  // measure 10
0010
0001
0000
0100
0010
0010
1000
0100
,  // measure 11
0010
0100
1000
0001
0100
0010
1000
0100
,  // measure 12
1000
0100
0000
1000
0010
0100
0001
0010
,  // measure 13
0100
0000
0010
0001
0010
0000
0010
0001
,  // measure 14
1000
0001
0010
0001
1000
0000
0100
0010
,  // measure 15
0100
0000
1000
0001
1000
0000
0001
0010
,  // measure 16
0100
1000
0000
0100
0010
0001
1000
0100
,  // measure 17
0001
0100
1000
0010
0100
0001
1000
0100
,  // measure 18
0010
0001
0000
0100
0001
1000
0001
0010
,  // measure 19
1000
0010
0001
0001
0100
0010
1000
0001
,  // measure 20
0010
0100
0000
1000
0001
0100
0010
1000
,  // measure 21
0100
0000
0010
0100
0010
0000
0001
0010
,  // measure 22
1000
0010
0100
1000
0010
0100
0001
0000
,  // measure 23
0101
0000
1000
1000
0010
0000
0100
0010
,  // measure 24
1000
0001
0000
0001
0100
0010
2000
0000
,  // measure 25
0010
0000
3001
0000
0100
0001
0010
1000
,  // measure 26
0010
0001
1000
0100
0010
0001
0200
0000
,  // measure 27
1000
0000
1300
0000
0100
0001
1000
0100
,  // measure 28
0001
0100
0100
1000
0010
0100
0020
0000
,  // measure 29
0100
0000
1030
0000
0100
0010
1000
0001
,  // measure 30
0001
0100
0010
1000
0100
0010
0001
1000
,  // measure 31
0001
0000
0100
0010
1000
0000
0100
0100
,  // measure 32
0010
0001
1000
0100
1000
1000
0001
0000
,  // measure 33
0101
0000
1001
0000
0001
0100
1000
0100
,  // measure 34
0010
0100
0000
0110
0000
1001
0000
0001
,  // measure 35
1000
0100
1000
0000
1010
0000
0010
1000
,  // measure 36
0100
1000
0001
0100
0010
0010
0100
0000
,  // measure 37
0110
0000
1010
0000
1000
0010
0100
0010
,  // measure 38
0001
0010
0000
0101
0000
1010
0000
0010
,  // measure 39
0100
0001
0001
1000
0001
0000
0001
0010
,  // measure 40
0001
0100
0001
1000
0100
0100
0010
0000
,  // measure 41
0101
0000
1001
0000
1010
0000
1000
0100
,  // measure 42
0001
0100
0010
0001
1000
0001
1000
0000
,  // measure 43
1010
0000
0110
0000
0101
0000
0001
0010
,  // measure 44
1000
0010
0100
1000
0010
1000
0010
0000
,  // measure 45
0110
0000
1001
0000
0010
0100
0010
0010
,  // measure 46
1000
0001
0000
0011
0000
0101
0000
0001
,  // measure 47
0001
0100
0010
1000
0100
1000
0010
0100
,  // measure 48
0001
1000
0000
1100
0000
1001
0000
0000
,  // measure 49
0001
0000
0010
0000
0001
0000
0100
0010
,  // measure 50
0000
1000
0000
0100
0000
0010
0000
0000
,  // measure 51
0001
0000
0010
0000
0100
0000
1000
0100
,  // measure 52
0010
0001
0000
1001
0000
0220
0000
0330
;

//---------------dance-single - ----------------
#NOTES:
     dance-single:
     :
     Medium:
     6:
     0.357,0.409,0.315,0.118,0.000:
0000
0000
0000
0000
,
0000
0000
0000
0000
,
0000
0000
0000
0000
,
0000
0000
0000
0000
,
0000
0000
0000
0000
,
0000
0000
0000
0000
,
0000
0000
0000
0000
,
0000
0000
0000
0000
1000
1000
0001
0000
,
0101
0000
0002
0000
0103
0000
0010
0100
,
0010
0100
0000
0100
0001
1000
0100
0000
,
0100
1000
0000
1000
0020
0000
0130
0001
,
0100
0001
0000
1000
0100
0001
0100
0000
,
1100
0000
1000
0000
0010
0000
0100
0001
,
0100
0000
0010
1000
0010
0000
1000
0100
,
0010
0000
0001
0000
1001
0000
0001
1000
,
0001
1000
0000
0100
0010
0001
0100
0000
,
0101
0000
2001
0000
3001
0000
0001
0100
,
0001
0100
0000
1000
0100
0001
1000
0000
,
1100
0000
0001
0000
0101
0000
1000
0010
,
0100
0001
0000
0000
0001
0000
1000
0000
,
0100
0000
0010
0100
0010
0000
0001
0100
,
0001
0000
1000
0100
1000
0000
0010
0000
,
0110
0000
0001
0000
1001
0000
1000
0100
,
1000
0100
0000
0000
0010
0000
0002
0000
,
0100
0103
1000
0100
,
0010
1000
0001
2000
,
0100
3100
0001
0100
,
0100
0010
0001
2000
,
0010
3010
0001
0010
,
0100
0001
1000
0100
,
0001
1000
0010
0001
,
0100
0000
0010
0000
1000
1000
0001
0000
,
0101
0000
1001
0000
0001
1000
0001
0100
,
0010
1000
0000
1100
0000
1001
0000
0000
,
0001
0100
0010
1000
,
1000
0100
0000
0100
0001
0000
0100
0000
,
1100
0000
1010
0000
0010
1000
0001
0100
,
0010
1000
0000
1100
0000
1001
0000
0000
,
0001
0110
0100
1000
,
1000
0100
0000
0100
0001
0000
0001
0000
,
0110
1100
1001
1000
,
1000
0010
0000
0010
0000
2002
0000
3003
,
1100
1010
0101
0001
,
1000
0100
0000
0001
0000
2200
0000
3300
,
0110
0000
1001
0000
0001
0000
0001
0010
,
0000
1000
0000
0010
0000
0001
0000
0000
,
1000
0000
1000
0000
0100
1000
0100
0010
,
0001
1000
0000
1001
0000
0110
0000
0000
,
1000
0000
0100
0000
1000
0000
0100
0100
,
0000
0001
0000
0100
0000
0010
0000
0000
,
0001
0000
0100
0000
1000
0000
0100
0001
,
0010
0100
0000
1100
0000
2002
0000
3003
;

//---------------dance-single - ----------------
#NOTES:
     dance-single:
     :
     Easy:
     4:
     0.220,0.229,0.039,0.049,0.000:
0000
0000
0000
0000
,
0000
0000
0000
0000
,
0000
0000
0000
0000
,
0000
0000
0000
0000
,
0000
0000
0000
0000
,
0000
0000
0000
0000
,
0000
0000
0000
0000
,
0000
0000
0000
1000
,
0001
0100
0010
1000
,
1000
1000
0001
0010
,
0001
0100
0010
0100
,
0100
0100
0001
1000
,
0100
0010
0000
0010
,
0001
1000
0000
0001
,
0100
0010
0000
0010
,
0010
0010
0000
1000
,
0100
0010
0001
1000
,
1000
1000
0001
0010
,
0001
0100
1000
0100
,
0100
0100
0001
0010
,
0100
0010
0000
0001
,
0100
0010
0000
1000
,
0100
0010
0000
0001
,
0001
0001
0000
2000
,
0000
3001
1000
0001
,
1000
0001
1000
0002
,
0000
0103
0010
0100
,
0010
0100
0010
0200
,
0000
0300
0010
1000
,
0010
1000
0100
0001
,
0100
1000
1000
0010
,
0100
0001
1000
0000
,
0001
0001
0000
1000
,
0100
0010
0001
1001
,
0001
0100
0010
2000
,
0000
0001
3001
0001
,
0100
1000
0000
1000
,
0100
0001
0010
1001
,
1000
0100
1000
0020
,
0000
0100
0130
0001
,
1000
0100
0010
0001
,
0000
0100
0000
0001
0000
0100
0000
0000
,
0010
1000
0010
1000
,
0000
0100
0000
0000
0001
0000
0100
0000
,
1000
0010
1000
0100
,
0010
0001
1000
1001
,
0000
0000
0001
0100
,
0010
1000
0100
1000
,
0000
0001
1000
0000
,
1000
0000
0001
0000
,
0001
0000
0100
0000
,
0000
0000
0000
0000
0000
1001
0000
0000
;
