#TITLE:Take My Life;
#SUBTITLE:;
#ARTIST:Y&Co.;
#TITLETRANSLIT:;
#SUBTITLETRANSLIT:;
#ARTISTTRANSLIT:;
#CREDIT:;
#BANNER:[Round 1] - Take My Life.png;
#BACKGROUND:[Round 1] - Take My Life-bg.png;
#LYRICSPATH:;
#CDTITLE:;
#MUSIC:[Round 1] - Take My Life.mp3;
#OFFSET:1.311;
#SAMPLESTART:39.070;
#SAMPLELENGTH:17.220;
#SELECTABLE:YES;
#BPMS:0.000=175.000;
#STOPS:;
#BGCHANGES:;

//---------------dance-single - ----------------
#NOTES:
     dance-single:
     :
     Hard:
     9:
     0.825,0.844,0.232,0.422,0.675: // measure 1
0000
0000
0000
0000
,  // measure 2
0000
0000
0000
0000
,  // measure 3
0000
0000
0000
0000
,  // measure 4
0000
0000
0000
0000
,  // measure 5
0000
0000
0000
0000
,  // measure 6
1000
0100
0001
0100
0010
1000
0010
0001
,  // measure 7
0010
0100
1000
0100
0010
0001
0100
0010
,  // measure 8
1000
0001
0000
1000
0001
0000
1000
0001
0000
1000
0001
0000
1000
0001
0000
1000
,  // measure 9
0010
0000
0100
0010
0000
0100
0010
0000
1000
0000
0002
0000
0000
0000
0003
0000
,  // measure 10
1000
0010
0100
0010
0001
0010
0100
0001
,  // measure 11
0010
0100
1000
0100
0010
1000
0010
0001
,  // measure 12
0100
0001
0000
0100
0001
0000
0100
0001
0000
0100
0001
0000
0100
0001
0000
0100
,  // measure 13
0010
1000
0000
0001
1000
0000
0001
1000
0000
0001
1000
0000
0001
0010
0100
1000
,  // measure 14
0001
0000
1000
0010
0100
1000
0100
0002
,  // measure 15
0000
0000
0023
0000
0000
0000
0130
0000
0000
0000
1000
0001
1000
0000
0000
0000
,  // measure 16
0001
0000
0010
0100
0001
0100
0010
0002
,  // measure 17
0000
0000
0203
0000
0000
0000
0320
0000
0000
0000
0130
0000
0001
0010
0100
1000
,  // measure 18
0010
0100
0010
0000
0001
0000
0010
0000
0100
0000
0010
0000
1000
0000
0020
0000
,  // measure 19
0000
0001
0031
0000
0010
1000
0100
0002
,  // measure 20
0000
0203
0000
2300
0000
3001
0000
0011
,  // measure 21
0000
1010
0000
0110
0000
2002
0000
3003
,  // measure 22
1100
2000
3200
0302
,  // measure 23
0203
0000
0310
0020
0000
1030
1000
0001
,  // measure 24
0100
2000
3020
0032
,  // measure 25
0023
0000
0000
0000
0100
0000
0130
0000
0000
0000
0010
0000
1000
0001
1000
0001
,  // measure 26
0100
0002
0203
2300
,  // measure 27
3020
0000
0001
0031
0000
1000
0100
0001
,  // measure 28
0000
1000
0010
0001
0100
0010
1000
0001
,  // measure 29
1000
1000
1000
1000
1000
1000
1000
1000
,  // measure 30
0102
0000
0023
0130
,  // measure 31
2100
0000
3010
0000
1001
1001
0000
0102
,  // measure 32
0000
1000
1003
0000
0001
0100
0010
1000
,  // measure 33
1010
0000
0101
0000
0001
0010
0100
2000
,  // measure 34
0000
0000
0001
0000
3001
0000
0000
0000
1000
0000
0010
0000
0100
0001
0010
0100
,  // measure 35
2000
0000
3001
0000
1100
1100
0000
0012
,  // measure 36
0000
0100
0103
0000
0001
0010
0100
1000
,  // measure 37
1100
0000
0110
0000
0011
0000
0001
1000
,  // measure 38
0020
0000
0130
0000
0010
1000
0100
0001
,  // measure 39
0102
0000
0103
0200
0000
1300
2000
0000
,  // measure 40
3010
0020
0000
0031
0011
0000
1010
0000
,  // measure 41
1002
0000
0103
0200
0000
1000
1300
0000
,  // measure 42
0100
0010
1000
0010
0100
0001
1000
0010
,  // measure 43
0220
0330
0000
0000
,  // measure 44
1000
0100
0001
0100
0010
1000
0010
0001
,  // measure 45
0010
0100
1000
0100
0010
0001
0100
0010
,  // measure 46
1000
0001
0000
1000
0001
0000
1000
0001
0000
1000
0001
0000
1000
0001
0000
1000
,  // measure 47
0010
0000
0100
0010
0000
0100
0010
0000
1000
0000
0002
0000
0000
0000
0003
0000
,  // measure 48
1000
0010
0100
0010
0001
0010
0100
0001
,  // measure 49
0010
0100
1000
0100
0010
1000
0010
0001
,  // measure 50
0100
0001
0000
0100
0001
0000
0100
0001
0000
0100
0001
0000
0100
0001
0000
0100
,  // measure 51
0010
1000
0000
0001
1000
0000
0001
1000
0000
0001
1000
0000
0001
0010
0100
1000
,  // measure 52
0002
0003
1100
0101
,  // measure 53
1001
0000
0001
0100
0000
0100
0010
0000
0010
1000
0000
1000
,  // measure 54
0100
0000
0100
0010
0000
0010
0001
0000
0001
1000
0100
1000
,  // measure 55
0001
0000
0001
0100
0000
0100
1000
0000
1000
0100
0000
0100
,  // measure 56
0010
0000
0010
0001
0000
0001
0010
1000
0010
0100
0001
0100
,  // measure 57
0010
0000
0010
1000
0000
1000
0100
0000
0100
0001
0000
0001
,  // measure 58
0100
0000
0100
0010
0000
0010
1000
0000
1000
0001
0100
0001
,  // measure 59
0100
0000
0100
1000
0000
1000
0010
0000
0010
0100
0000
0100
,  // measure 60
0001
0000
0001
1000
0000
1000
0001
0100
0010
1000
0010
0100
,  // measure 61
0001
0000
0001
0100
0000
0100
1000
0000
1000
0100
0001
0100
,  // measure 62
0001
0000
0001
0010
0000
0010
1000
0010
1000
0010
0001
0010
,  // measure 63
0001
0000
0001
0100
0000
0100
1000
0000
1000
0010
0001
0010
,  // measure 64
0001
0000
0001
0100
0000
0100
0010
1000
0001
0100
0010
1000
,  // measure 65
0002
0000
0000
0000
,  // measure 66
0000
0003
0000
0000
0000
0000
0000
0000
,  // measure 67
1000
0100
0001
0100
0010
1000
0010
0001
,  // measure 68
0010
0100
1000
0100
0010
0001
0100
0010
,  // measure 69
1000
0001
0000
1000
0001
0000
1000
0001
0000
1000
0001
0000
1000
0001
0000
1000
,  // measure 70
0010
0000
0100
0010
0000
0100
0010
0000
1000
0000
0002
0000
0000
0000
0003
0000
,  // measure 71
1000
0010
0100
0010
0001
0010
0100
0001
,  // measure 72
0010
0100
1000
0100
0010
1000
0010
0001
,  // measure 73
0100
0001
0000
0100
0001
0000
0100
0001
0000
0100
0001
0000
0100
0001
0000
0100
,  // measure 74
0010
1000
0000
0001
1000
0000
0001
1000
0000
0001
1000
0000
0001
1000
0000
0001
,  // measure 75
0100
0010
0000
0100
0010
0000
0100
0010
0000
0100
0010
0000
0100
0010
0000
0100
,  // measure 76
0001
0010
1000
0010
0100
0001
0100
0010
,  // measure 77
0001
0100
0010
0100
1000
0100
0010
1000
,  // measure 78
0001
0100
0000
0100
0010
0000
0010
1000
0000
1000
0001
0000
0001
0010
0000
0010
,  // measure 79
0100
0000
0100
1000
0000
1000
0001
0000
0100
0000
0020
0000
0000
0000
0030
0000
,  // measure 80
0100
0001
0010
0100
0001
0100
0010
0001
,  // measure 81
0100
0010
1000
0100
0010
1000
0010
0100
,  // measure 82
1000
0001
0000
0001
0100
0000
0100
1000
0000
1000
0100
0000
0100
0001
0000
0001
,  // measure 83
0010
1000
0000
1000
0010
0000
0010
0001
0000
0001
0100
0000
0100
0010
1000
0001
,  // measure 84
0100
0000
0001
0000
0010
0000
0100
0000
0000
1000
0001
0000
0100
0010
0100
0010
,  // measure 85
2000
0000
0000
3000
,  // measure 86
0202
0303
0000
0000
;

//---------------dance-single - ----------------
#NOTES:
     dance-single:
     :
     Easy:
     6:
     0.452,0.512,0.318,0.112,0.022:
0000
0000
0000
0000
,
0000
0000
0000
0000
,
0000
0000
0000
0000
,
0000
0000
0000
0000
,
0000
0000
0000
0000
,
1000
0100
0010
0001
,
0010
0100
1000
0001
,
1000
1000
1000
1000
,
0001
0000
0100
0000
0010
1000
0000
0000
,
0001
0010
0100
1000
,
0100
0010
0001
1000
,
0001
0001
0001
0001
,
1000
1000
1000
1000
,
1001
1000
0100
0001
,
0100
0000
0010
0000
0001
1000
0001
0000
,
1000
0010
0001
0010
,
0100
0000
0001
0000
1000
0100
1000
0100
,
0010
0001
1000
0010
,
0100
0000
0001
0000
1000
0001
1000
0000
,
0100
0010
0001
1000
,
1100
0101
1100
0101
,
1002
1000
0100
0010
,
0100
1000
0100
0013
,
2001
0001
0010
0100
,
0010
0001
0100
3010
,
0102
0100
1000
0100
,
0010
0100
1000
0103
,
0001
0100
0010
1000
,
0001
1000
0001
1000
0001
1000
0001
1000
,
0020
0030
0200
0300
,
0101
0001
1001
1000
,
1100
0000
1000
0000
0001
1000
0001
0000
,
0011
0001
1001
1000
,
1010
0000
0010
0000
0100
0001
0100
0000
,
1001
1000
1010
0010
,
0110
0000
0100
0000
0001
1000
0001
0000
,
0011
0001
1001
1000
,
1100
0000
1000
0000
0001
1000
0001
0000
,
1000
1000
0010
0010
,
0001
0001
0010
0010
,
1000
1000
0100
0100
,
0001
0001
0100
0100
,
2002
3003
0000
0000
,
1000
0100
0010
0001
,
0010
0100
1000
0001
,
1000
1000
1000
1000
,
0001
0000
0100
0000
0010
1000
0000
0000
,
0001
0010
0100
1000
,
0100
0010
0001
1000
,
0001
0001
0001
0001
,
1000
1000
1000
1000
,
1001
0000
0000
0000
,
0101
0001
1001
1000
,
1100
0000
0000
1000
0000
0000
0001
0000
1000
0001
0000
0000
,
0011
0001
1001
1000
,
1010
0000
0000
0010
0000
0000
0100
0000
0001
0100
0000
0000
,
1001
1000
1010
0010
,
0110
0000
0000
0100
0000
0000
0001
0000
1000
0001
0000
0000
,
0011
0001
1001
1000
,
1100
0000
0000
1000
0000
0000
0001
0000
1000
0001
0000
0001
,
1000
1000
0010
0010
,
0001
0001
0010
0010
,
1000
1000
0100
0100
,
0001
0001
0100
0100
,
2002
0000
0000
0000
,
0000
3003
0000
0000
0000
0000
0000
0000
,
1000
0100
0010
0001
,
0010
0100
1000
0001
,
1000
1000
1000
1000
,
0001
0000
0100
0000
0010
1000
0000
0000
,
0001
0010
0100
1000
,
0100
0010
0001
1000
,
0001
0001
0001
0001
,
1000
1000
1000
1000
,
0010
0010
0010
0010
,
0100
0001
0010
1000
,
0010
0001
0100
0010
,
1000
1000
1000
1000
,
0001
0000
0010
0000
0100
1000
0000
0000
,
0001
0100
1000
0100
,
0010
1000
0001
0010
,
0100
0100
0100
0100
,
0010
0010
0010
0010
,
0002
0003
2000
3000
,
2002
0000
0000
3003
,
0110
0000
0000
0000
;

//---------------dance-double - ----------------
#NOTES:
     dance-double:
     :
     Hard:
     9:
     0.826,0.844,0.207,0.482,0.675:
00000000
00000000
00000000
00000000
,
00000000
00000000
00000000
00000000
,
00000000
00000000
00000000
00000000
,
00000000
00000000
00000000
00000000
,
00000000
00000000
00000000
00000000
,
10000000
01000000
00010000
00001000
00000010
00000001
00001000
00000010
,
00000001
00000010
00001000
00010000
01000000
10000000
00100000
01000000
,
10000000
01000000
00000000
01000000
00100000
00000000
00100000
00010000
00000000
00010000
01000000
00000000
01000000
00001000
00000000
00001000
,
00100000
00000000
00100000
00001000
00000000
00001000
00010000
00000000
00000100
00000000
00002000
00000000
00000000
00000000
00003000
00000000
,
00000001
00000100
00001000
00010000
00100000
10000000
00010000
00100000
,
10000000
00100000
00010000
00001000
00000100
00000001
00000100
00000010
,
00000001
00000100
00000000
00000100
00000010
00000000
00000010
00001000
00000000
00001000
00000100
00000000
00000100
00010000
00000000
00010000
,
00001000
00010000
00000000
00010000
00001000
00000000
00001000
00100000
00000000
00100000
00010000
00000000
10000000
00010000
10000000
00010000
,
10000000
00000000
00010000
01000000
10000000
01000000
00100000
20000000
,
00000000
00000000
32000000
00000000
00000000
00000000
03100000
00000000
00000000
00000000
00010000
10000000
00010000
00000000
00000000
00000000
,
01000000
00000000
00010000
00100000
00001000
00010000
00000100
00002000
,
00000000
00000000
00003020
00000000
00000000
00000000
00000230
00000000
00000000
00000000
00000301
00000000
00001000
00000100
00001000
00000001
,
00000100
00000001
00000100
00000000
00000001
00000000
00000100
00000000
00001000
00000000
00010000
00000000
00001000
00000000
02000000
00000000
,
00000000
00010000
03010000
00000000
10000000
01000000
00010000
00002000
,
00000000
00003020
00000000
00000032
00000000
00001003
00000000
00000101
,
00000000
00001010
00000000
00011000
00000000
02020000
00000000
03030000
,
10010000
20000000
32000000
03200000
,
00320000
00000000
01030000
02000000
00000000
03001000
00001000
00010000
,
00000100
00002000
00003020
00000230
,
00000302
00000000
00000000
00000000
00000013
00000000
00000020
00000000
00000000
00000000
00000130
00000000
00001000
00000001
00001000
00000001
,
00001000
00000200
00020300
02030000
,
23000000
00000000
00010000
30010000
00000000
10000000
00100000
00010000
,
00000000
10000000
01000000
00010000
00100000
01000000
10000000
00010000
,
01000000
01000000
00010000
00010000
00100000
00100000
00001000
00001000
,
00022000
00033000
00002100
00003001
,
00001002
00000000
00000103
00000000
00000110
00000110
00000000
00002010
,
00000000
00000100
00003100
00000000
00001000
00000010
00010000
00000100
,
00010100
00000000
00011000
00000000
00010000
00001000
00100000
00020000
,
00000000
00000000
10000000
00000000
10030000
00000000
00000000
00000000
00010000
00000000
01000000
00000000
00100000
10000000
00100000
10000000
,
00020000
00000000
01030000
00000000
01010000
01010000
00000000
01002000
,
00000000
00010000
00013000
00000000
00001000
00010000
00000100
00001000
,
00001100
00000000
00000110
00000000
00000011
00000000
00000001
00000100
,
00000020
00000000
00001000
00000000
00000130
00000010
00001000
00000100
,
00000020
00000000
00000031
00000002
00000000
00000103
00000200
00000000
,
00001300
00002000
00000000
00013000
00020000
00000000
00230000
00000000
,
20300000
00000000
31000000
02000000
00000000
03010000
00020000
00000000
,
00031000
00002000
00000000
00003010
00000020
00000000
00000031
00000000
,
00002002
00003003
00000000
00000000
,
00000001
00000010
00001000
00010000
01000000
10000000
00010000
01000000
,
10000000
01000000
00010000
00001000
00000010
00000001
00000100
00000010
,
00000001
00000010
00000000
00000010
00000100
00000000
00000100
00001000
00000000
00001000
00000010
00000000
00000010
00010000
00000000
00010000
,
00000100
00000000
00000100
00010000
00000000
00010000
00001000
00000000
00100000
00000000
00020000
00000000
00000000
00000000
00030000
00000000
,
10000000
00100000
00010000
00001000
00000100
00000001
00001000
00000100
,
00000001
00000100
00001000
00010000
00100000
10000000
00100000
01000000
,
10000000
00100000
00000000
00100000
01000000
00000000
01000000
00010000
00000000
00010000
00100000
00000000
00100000
00001000
00000000
00001000
,
00010000
00001000
00000000
00001000
00010000
00000000
00010000
00000100
00000000
00000100
00001000
00000000
00000001
00001000
00000001
00001000
,
00000002
00000003
00000101
00001010
,
00001001
00000000
00000001
00000100
00000000
00000100
00000010
00000000
00000010
00001000
00000000
00001000
,
00000100
00000000
00000100
00010000
00000000
00010000
00001000
00000000
00001000
00100000
00010000
00100000
,
00010000
00000000
00010000
01000000
00000000
01000000
00100000
00000000
00100000
10000000
00000000
10000000
,
01000000
00000000
01000000
00100000
00000000
00100000
00010000
10000000
01000000
00100000
00010000
01000000
,
00001000
00000000
00001000
00010000
00000000
00010000
00000100
00000000
00000100
00001000
00000000
00001000
,
00000010
00000000
00000010
00000100
00000000
00000100
00000001
00000000
00000001
00001000
00000100
00001000
,
00000100
00000000
00000100
00000010
00000000
00000010
00000001
00000000
00000001
00000100
00000000
00000100
,
00000010
00000000
00000010
00001000
00000000
00001000
00000100
00000010
00000001
00000010
00000100
00001000
,
00000001
00000000
00000001
00000100
00000000
00000100
00001000
00000000
00001000
00010000
00100000
00010000
,
00100000
00000000
00100000
10000000
00000000
10000000
01000000
00010000
01000000
00100000
00010000
00100000
,
00001000
00000000
00001000
00010000
00000000
00010000
00100000
00000000
00100000
10000000
00010000
10000000
,
01000000
00000000
01000000
00010000
00000000
00010000
00001000
00000010
00000001
00000100
00000010
00001000
,
00000002
00000000
00000000
00000000
,
00000000
00000003
00000000
00000000
00000000
00000000
00000000
00000000
,
00000001
00000010
00001000
00010000
01000000
10000000
00010000
01000000
,
10000000
01000000
00010000
00001000
00000010
00000001
00000100
00000010
,
00000001
00000010
00000000
00000010
00000100
00000000
00000100
00001000
00000000
00001000
00000010
00000000
00000010
00010000
00000000
00010000
,
00000100
00000000
00000100
00010000
00000000
00010000
00001000
00000000
00100000
00000000
00020000
00000000
00000000
00000000
00030000
00000000
,
10000000
00100000
00010000
00001000
00000100
00000001
00001000
00000100
,
00000001
00000100
00001000
00010000
00100000
10000000
00100000
01000000
,
10000000
00100000
00000000
00100000
01000000
00000000
01000000
00010000
00000000
00010000
00100000
00000000
00100000
00001000
00000000
00001000
,
00010000
00001000
00000000
00001000
00010000
00000000
00010000
00000100
00000000
00000100
00001000
00000000
00001000
00000001
00000000
00000001
,
00000100
00000001
00000000
00000001
00000010
00000000
00000010
00000100
00000000
00000100
00001000
00000000
00001000
00000010
00000000
00000010
,
00001000
00000100
00000001
00000100
00000010
00000001
00000100
00001000
,
00010000
00001000
00000100
00001000
00010000
00100000
10000000
00010000
,
10000000
01000000
00000000
01000000
00010000
00000000
00010000
00001000
00000000
00001000
00000100
00000000
00000100
00000001
00000000
00000001
,
00000010
00000000
00000010
00001000
00000000
00001000
00010000
00000000
01000000
00000000
20000000
00000000
00000000
00000000
30000000
00000000
,
00010000
01000000
10000000
01000000
00100000
10000000
01000000
00010000
,
00001000
00010000
01000000
10000000
00100000
00010000
00001000
00000100
,
00000001
00000010
00000000
00000010
00001000
00000000
00001000
00010000
00000000
00010000
01000000
00000000
01000000
10000000
00000000
10000000
,
00100000
00010000
00000000
00010000
00001000
00000000
00001000
00000100
00000000
00000100
00000001
00000000
00001000
00000001
00001000
00000001
,
00001000
00000000
00000100
00000000
00000001
00000000
00000100
00000000
00000000
00000100
00001000
00000000
00000010
00000100
00000010
00000100
,
00000002
00000000
00000000
00000003
,
00022000
00033000
00000000
00000000
;

//---------------dance-single - ----------------
#NOTES:
     dance-single:
     :
     Medium:
     8:
     0.624,0.660,0.447,0.422,0.379:
0000
0000
0000
0000
,
0000
0000
0000
0000
,
0000
0000
0000
0000
,
0000
0000
0000
0000
,
0000
0000
0000
0000
,
1000
0000
0000
0100
0000
0000
0010
0000
0000
0001
0000
0000
0010
0000
0100
0000
,
1000
0000
0000
0010
0000
0000
0100
0000
0000
0001
0000
0000
0100
0000
0010
0000
,
1000
0000
0000
1000
0000
0000
1000
0000
0000
1000
0000
0000
1000
0000
0000
1000
,
0001
0000
0000
0001
0000
0000
0001
0000
0100
0000
0020
0000
0000
0000
0030
0000
,
1000
0000
0000
0010
0000
0000
0001
0000
0000
0010
0000
0000
0100
0000
0001
0000
,
1000
0000
0000
0100
0000
0000
0001
0000
0000
0100
0000
0000
0010
0000
0001
0000
,
1000
0000
0000
1000
0000
0000
1000
0000
0000
1000
0000
0000
1000
0000
0000
1000
,
0010
0000
0000
0010
0000
0000
0010
0000
0000
0010
0000
0000
0010
0000
0000
0010
,
0100
0000
0001
0000
1000
0100
1000
0001
,
0000
0100
0001
0000
1000
0000
1001
0000
,
1000
0000
0010
0000
1000
0001
0010
0002
,
0000
0203
0000
0320
0000
2030
0000
3001
,
1001
0000
0001
0100
0010
0100
0001
0020
,
0000
0100
0130
0000
0010
0100
1000
0020
,
0000
2030
0000
3002
0000
0203
0000
0320
,
0000
2030
0000
3001
0000
2002
0000
3003
,
1100
0200
0302
0203
,
0320
0031
0200
0310
,
1010
0020
2030
3200
,
0320
0031
0200
0310
,
1001
0002
0203
2300
,
3200
0000
0010
0310
0000
0100
0010
1000
,
0000
0010
1000
0100
0010
0001
1000
0010
,
0110
0101
0011
0110
,
2200
3300
0202
0303
,
2001
0000
3001
0000
0001
0100
0000
0120
,
0000
1030
0000
0010
0200
0000
0301
0000
,
0101
0000
1100
0000
1000
0100
0010
0002
,
0000
1000
1003
0000
0101
0000
1100
0000
,
0120
0000
0031
0000
0100
0010
0000
2010
,
0000
3001
0000
1000
0200
0000
0310
0000
,
0011
0000
1100
0000
0101
0000
1000
0010
,
0200
0001
0010
1300
,
0100
0001
0100
0000
0001
0010
0001
0000
,
0010
1000
0010
0000
1000
0100
1000
0000
,
0100
0001
0100
0000
0001
0010
0001
0000
,
0010
1000
0010
0000
0001
0010
0001
0000
,
2002
3003
0000
0000
,
1000
0000
0000
0100
0000
0000
0010
0000
0000
0001
0000
0000
0010
0000
0100
0000
,
1000
0000
0000
0010
0000
0000
0100
0000
0000
0001
0000
0000
0100
0000
0010
0000
,
1000
0000
0000
1000
0000
0000
1000
0000
0000
1000
0000
0000
1000
0000
0000
1000
,
0001
0000
0000
0001
0000
0000
0001
0000
0100
0000
0020
0000
0000
0000
0030
0000
,
1000
0000
0000
0010
0000
0000
0001
0000
0000
0010
0000
0000
0100
0000
0001
0000
,
1000
0000
0000
0100
0000
0000
0001
0000
0000
0100
0000
0000
0010
0000
0001
0000
,
1000
0000
0000
1000
0000
0000
1000
0000
0000
1000
0000
0000
1000
0000
0000
1000
,
0010
0000
0000
0010
0000
0000
0010
0000
0000
0010
0000
0000
0010
0000
0000
0010
,
0100
0000
0000
0000
,
1001
1100
1001
0101
,
1001
1010
1001
0011
,
0101
0110
1010
1100
,
0110
0000
0000
0011
0000
0000
0001
0000
0001
1000
0000
1000
,
0001
0101
0110
1010
,
1100
0110
0011
0101
,
0110
1010
1100
1001
,
0101
0000
0000
0011
0000
0000
0001
0000
0001
1000
0000
1000
,
0001
0000
0001
0100
0000
0000
0010
0000
0010
1000
0000
0000
,
0100
0000
0100
1000
0000
0000
0001
0000
0001
0010
0000
0000
,
0001
0000
0001
0100
0000
0000
1000
0000
1000
0100
0000
0000
,
0001
0000
0001
0010
0000
0000
1000
0000
1000
0010
0000
0010
,
0002
0000
0000
0000
,
0000
0003
0000
0000
0000
0000
0000
0000
,
1000
0000
0000
0100
0000
0000
0010
0000
0000
0001
0000
0000
0010
0000
0100
0000
,
1000
0000
0000
0010
0000
0000
0100
0000
0000
0001
0000
0000
0100
0000
0010
0000
,
1000
0000
0000
1000
0000
0000
1000
0000
0000
1000
0000
0000
1000
0000
0000
1000
,
0001
0000
0000
0001
0000
0000
0001
0000
0100
0000
0020
0000
0000
0000
0030
0000
,
1000
0000
0000
0010
0000
0000
0001
0000
0000
0010
0000
0000
0100
0000
0001
0000
,
1000
0000
0000
0100
0000
0000
0001
0000
0000
0100
0000
0000
0010
0000
0001
0000
,
1000
0000
0000
1000
0000
0000
1000
0000
0000
1000
0000
0000
1000
0000
0000
1000
,
0010
0000
0000
0010
0000
0000
0010
0000
0000
0010
0000
0000
0010
0000
0000
0010
,
0100
0000
0000
0100
0000
0000
0100
0000
0000
0100
0000
0000
0100
0000
0000
0100
,
0001
0000
0000
0010
0000
0000
0100
0000
0000
1000
0000
0000
0100
0000
0010
0000
,
0001
0000
0000
0100
0000
0000
0010
0000
0000
1000
0000
0000
0010
0000
0100
0000
,
0001
0000
0000
0001
0000
0000
0001
0000
0000
0001
0000
0000
0001
0000
0000
0001
,
1000
0000
0000
1000
0000
0000
1000
0000
0010
0000
0200
0000
0000
0000
0300
0000
,
0001
0000
0000
0100
0000
0000
1000
0000
0000
0100
0000
0000
0010
0000
1000
0000
,
0001
0000
0000
0010
0000
0000
1000
0000
0000
0010
0000
0000
0100
0000
1000
0000
,
0001
0000
0000
0001
0000
0000
0001
0000
0000
0001
0000
0000
0001
0000
0000
0001
,
0100
0000
0000
0100
0000
0000
0100
0000
0000
0100
0000
0000
0100
0000
0000
0100
,
0010
1000
0001
0100
0000
0001
0010
0100
,
2000
0000
0000
3000
,
0202
0303
0000
0000
;
