#TITLE:Space Space Shooter;
#SUBTITLE:(AKBK 'DJ Command' Remix);
#ARTIST:Kick & Punch;
#TITLETRANSLIT:;
#SUBTITLETRANSLIT:;
#ARTISTTRANSLIT:;
#GENRE:;
#CREDIT:;
#BANNER:[Round 1] - Space Space Shooter (AKBK 'DJ Command' Remix)-bn.png;
#BACKGROUND:[Round 1] - Space Space Shooter (AKBK 'DJ Command' Remix)-bg.png;
#LYRICSPATH:;
#CDTITLE:;
#MUSIC:[Round 1] - Space Space Shooter (AKBK 'DJ Command' Remix).ogg;
#OFFSET:-1.462;
#SAMPLESTART:38.049;
#SAMPLELENGTH:11.769;
#SELECTABLE:YES;
#BPMS:0.000=163.985;
#STOPS:;
#BGCHANGES:;
#KEYSOUNDS:;
#ATTACKS:;

//---------------dance-single - ----------------
#NOTES:
     dance-single:
     :
     Hard:
     9:
     0.726,0.734,0.407,0.058,0.649,477.000,42.000,6.000,0.000,0.000,0.000,0.726,0.734,0.407,0.058,0.649,477.000,42.000,6.000,0.000,0.000,0.000:
0000
0000
0000
0000
,
1000
0010
1000
0010
0000
0100
0000
0001
0000
0010
0000
0100
0000
1000
0001
0000
,
0001
0010
0001
0010
0000
0100
0000
1000
0000
0010
0000
0100
0000
0001
1000
0000
,
0001
0100
0010
0100
0001
0000
1000
0000
0100
0000
0010
0001
0000
1000
0010
0000
,
1000
0100
0010
0100
1000
0000
0001
0000
0101
0000
0000
0110
0000
0000
1010
0000
,
1000
0010
1000
0010
0000
0100
0000
0001
0000
0010
0000
0100
0000
1000
0001
0000
,
0001
0010
0001
0010
0000
0100
0000
1000
0000
0010
0000
0100
0000
0001
1000
0000
,
0010
0100
0010
0100
0010
0000
1000
0000
0100
0010
0000
0010
0000
0001
0010
0100
,
1000
0001
0000
0100
0000
0100
0000
0010
0000
0000
1001
0000
0000
0000
0010
0000
,
0010
0001
0010
0100
0010
1000
0000
0010
,
0001
0100
0010
1000
0001
0000
1001
0000
,
0001
0100
1000
0001
1000
0100
0010
0100
,
0010
0100
0010
0000
1001
0000
0000
0100
,
1000
0010
0100
0001
1000
0100
0000
0010
,
0001
0010
1000
0010
0001
0000
0001
0100
,
0110
0000
0110
0000
1001
0000
0010
1000
,
0001
0010
0100
1000
1000
0100
0010
0001
,
0011
0000
0001
0000
0100
0000
0010
1000
,
0010
0100
0010
0000
0100
0001
1000
0000
,
0010
1000
0001
0010
0100
1000
0001
0100
,
1000
0100
0010
1000
0001
0010
0100
0001
,
0100
0000
1000
0000
0100
0010
0001
0100
,
0000
0000
0100
0000
0000
0000
0100
0000
0000
0000
0001
1000
0001
0000
0000
0000
,
0011
0000
1010
0000
0100
0001
1000
0100
,
0010
0000
0001
0010
0100
1000
0020
0000
0000
0031
0000
0000
,
1010
0000
0101
0000
0010
1000
0100
0000
,
0010
0001
0010
0100
0010
0001
0010
0000
,
0100
1000
0001
0100
0010
0000
0110
0000
,
0010
0000
1000
0000
0100
0000
0001
0000
0000
0000
0100
0010
0100
0000
0000
0000
,
0011
0000
1100
0000
0010
0001
0100
0000
,
0010
1000
0010
0100
0010
1000
0010
0000
,
0100
0001
1000
0100
0010
0001
1000
0000
,
0010
0001
0100
2000
0000
3000
0000
0000
,
0001
0010
0001
0010
0000
0100
0000
1000
0000
0010
0000
0100
0000
0001
1000
0000
,
1000
0010
1000
0010
0000
0100
0000
0001
0000
0010
0000
0100
0000
1000
0001
0000
,
1000
0100
0010
0100
1000
0000
0001
0000
0100
0000
0010
1000
0000
0001
0010
0000
,
0001
0100
0010
0100
0001
0000
1000
0000
1100
0000
0000
0110
0000
0000
0011
0000
,
0001
0010
0001
0010
0000
0100
0000
1000
0000
0010
0000
0100
0000
0001
1000
0000
,
1000
0010
1000
0010
0000
0100
0000
0001
0000
0010
0000
0100
0000
1000
0001
0000
,
0010
0100
0010
0100
0010
0000
0001
0000
0100
0010
0000
0010
0000
1000
0010
0100
,
0001
1000
0000
0100
0000
0100
0000
0010
0000
0000
1001
0000
0000
0000
0000
0000
,
1010
0000
0101
0000
0010
1000
0100
0000
,
0010
0001
0010
0100
0010
0001
0010
0000
,
0100
0100
1000
1000
,
0010
0010
0001
0001
,
0011
0000
1100
0000
0010
0001
0100
0000
,
0010
1000
0010
0100
0010
1000
0010
0000
,
0100
0100
0001
0001
,
1000
0000
0100
1000
0100
0010
0002
0000
0000
0003
0000
0000
,
0001
0000
0000
0001
0000
0000
0001
0000
0100
0000
1000
0000
0100
0000
0010
0000
,
1000
0000
0000
1000
0000
0000
1000
0000
0100
0000
0001
0000
0100
0000
1000
0000
,
0010
0000
0000
0010
0000
0000
0010
0000
1000
0000
0001
0000
0010
0000
0001
0000
,
0100
0000
0000
0100
0000
0000
0010
0000
0000
0010
0000
1000
0001
0000
1000
0000
,
0001
0000
0000
0001
0000
0000
0001
0000
0010
0000
0100
0000
1000
0000
0100
0000
,
1000
0000
0000
1000
0000
0000
1000
0000
0010
0000
0001
0000
0010
0000
0100
0000
,
0010
0000
0000
0010
0000
0000
0010
0000
0100
0000
0001
0000
1000
0000
0001
0000
,
0100
0000
0000
0100
0000
0001
0100
0000
0010
1000
0010
1000
0010
0000
1000
0000
,
1100
0000
0000
1100
0000
0000
0011
0000
0011
0000
0001
0000
0001
0000
0001
0000
,
1000
0001
1000
0000
0010
1000
0000
0001
0000
1000
0010
0000
0100
0000
0000
0000
,
0101
0000
0000
0101
0000
0000
1010
0000
1010
0000
0010
1000
0010
0000
0100
0000
,
0001
0100
0001
0100
0000
0001
0000
0001
1000
0100
0000
0100
1000
0000
0010
0000
,
1010
0000
0000
1010
0000
0000
0011
0000
0011
0000
0001
0000
0001
0000
0001
0000
,
1000
0100
1000
0000
0001
0100
0000
0010
0000
0100
0001
0000
1000
0000
0000
0000
,
1100
0000
0000
1100
0000
0000
0101
0000
0101
0000
0100
0001
0100
0000
0100
0000
,
0010
0000
1000
0010
0100
0001
0020
0000
0000
1030
0000
0000
,
2002
0000
0000
0000
,
0000
0000
0000
0000
,
0000
0000
0000
0000
,
0000
0000
0000
0000
0000
0000
0000
3003
;

//---------------dance-single - ----------------
#NOTES:
     dance-single:
     :
     Medium:
     7:
     0.530,0.467,0.349,0.039,0.102,343.000,36.000,4.000,0.000,0.000,0.000,0.530,0.467,0.349,0.039,0.102,343.000,36.000,4.000,0.000,0.000,0.000:
0000
0000
0000
0000
,
0010
1000
0010
1000
0100
0000
0100
0000
,
0010
0001
0010
0001
0100
0000
0100
0000
,
0001
0100
1000
0000
1000
0100
0001
0000
,
0001
0000
0010
0000
0100
0000
2000
0000
0001
0000
0000
0001
0000
0000
3001
0000
,
0010
0001
0010
0001
0100
0000
0100
0000
,
0010
1000
0010
1000
0100
0000
0100
0000
,
0001
0100
1000
0000
1000
0100
0001
0000
,
0100
0000
0000
0010
0000
0010
0000
0010
0000
0000
1001
0000
0000
0000
0000
0000
,
0001
0100
0010
0100
0001
0000
0100
0000
,
1000
0100
0010
0100
1000
0000
0100
0000
,
0010
0001
0100
0000
0010
1000
0100
0000
,
0010
0100
0010
0000
1001
0000
0000
0000
,
0001
1000
0100
1000
0001
0000
0010
0000
,
1000
0001
0100
0001
1000
0000
0010
0000
,
1000
0100
0010
0000
0001
0100
0010
0000
,
1000
0010
0100
0001
0001
0100
0010
1000
,
1010
0000
1000
0000
0100
0010
0001
0000
,
0011
0000
0001
0000
0100
0010
1000
0000
,
0010
1000
0010
0000
1000
0100
1000
0000
,
0100
0001
0100
0000
0001
0010
0001
0000
,
0110
0000
0100
0000
0001
0100
1000
0000
,
1001
0000
0100
0000
1000
0100
0001
0000
,
1000
0010
1000
0000
0001
0010
0001
0000
,
1010
0011
1001
0000
,
0100
0100
0101
0010
,
1000
0010
0001
0010
1000
0010
0000
1000
,
0100
0000
0010
0001
1000
0000
1001
0000
,
1000
0010
0100
0001
0000
0010
0110
0000
,
0010
0010
0011
0100
,
1000
0100
0001
0100
1000
0100
0000
0010
,
0001
0000
1000
0010
0100
0000
0110
0000
,
0010
1000
0001
0010
0000
0100
0110
0000
,
0001
0010
0001
0010
0100
0000
0100
0000
,
1000
0010
1000
0010
0100
0000
0100
0000
,
0001
0010
1000
0000
1000
0010
0001
0000
,
1000
0000
0010
0000
0100
0000
0002
0000
1000
0000
0000
1000
0000
0000
1003
0000
,
0010
1000
0010
1000
0100
0000
0100
0000
,
0010
0001
0010
0001
0100
0000
0100
0000
,
1000
0100
0001
0000
1000
0100
0001
0000
,
0100
0000
0000
0010
0000
0010
0000
0010
0000
0000
1001
0000
0000
0000
0000
0000
,
0010
0010
1010
0100
,
0001
0100
1000
0100
0001
0100
0000
0000
,
0010
1000
0100
0001
,
0010
0100
0000
1001
,
0010
0010
0011
0100
,
1000
0100
0001
0100
1000
0100
0000
0000
,
0010
0001
0100
1000
,
1010
0011
1001
0000
,
0001
0000
0000
0001
0000
0000
0100
0000
0010
0000
0000
0000
0110
0000
0000
0000
,
1000
0000
0000
1000
0000
0000
0100
0000
0010
0000
0000
0000
0110
0000
0000
0000
,
0001
0000
0000
1000
0000
0000
0100
0000
1000
0000
0000
0000
1100
0000
0000
0000
,
1000
0000
0000
0001
0000
0000
0100
0000
0000
0001
0000
0000
0101
0000
0000
0000
,
0010
0000
0000
0010
0000
0000
1000
0000
0100
0000
0000
0000
1100
0000
0000
0000
,
0010
0000
0000
0010
0000
0000
0001
0000
0100
0000
0000
0000
0101
0000
0000
0000
,
0010
0000
0000
1000
0000
0000
0001
0000
0010
0000
0000
0000
0110
0000
0000
0000
,
0100
0000
0000
0100
0000
0000
0100
0000
1000
0000
0001
0000
0100
0000
0000
0000
,
0010
0000
0000
1000
0000
0000
0001
0000
1001
0000
0000
0000
0100
0000
0000
0000
,
0001
0100
1000
0100
,
0010
0000
0000
0001
0000
0000
1000
0000
1001
0000
0000
0000
0100
0000
0000
0000
,
1000
0000
0100
0000
0001
0100
0010
1000
,
0001
0000
0000
0010
0000
0000
0100
0000
1100
0000
0000
0000
0010
0000
0000
0000
,
0001
0100
1000
0010
,
1000
0000
0000
0010
0000
0000
0100
0000
0101
0000
0000
0000
0001
0000
0000
0000
,
0010
0100
0011
1010
,
2002
0000
0000
0000
,
0000
0000
0000
0000
,
0000
0000
0000
0000
,
0000
0000
0000
0000
0000
0000
0000
3003
;

//---------------dance-single - ----------------
#NOTES:
     dance-single:
     :
     Easy:
     4:
     0.354,0.334,0.339,0.116,0.000,209.000,35.000,12.000,0.000,0.000,0.000,0.354,0.334,0.339,0.116,0.000,209.000,35.000,12.000,0.000,0.000,0.000:
0000
0000
0000
0000
,
0010
1000
0001
0001
,
0010
0001
1000
1000
,
0010
0010
0100
0100
,
0001
1000
1001
0000
,
0001
1000
0100
0100
,
1000
0001
0100
0100
,
0010
0010
0100
0100
,
2002
0000
0000
0000
0000
3003
0000
0000
,
0001
0001
0100
0000
,
1000
1000
0010
0000
,
1000
0100
0001
0100
,
1000
1000
0001
0000
,
0100
0001
0010
0000
,
0100
1000
0010
0000
,
0100
0100
0010
0010
,
2000
0000
3002
0000
,
1003
0010
0010
0100
,
0001
0010
0010
0100
,
1100
0000
0101
0000
,
0011
0000
1010
0000
,
1000
0100
1000
0010
,
0100
0100
0001
0000
,
0010
0010
0100
0100
,
2002
0000
3003
0000
,
1000
0100
0001
0100
,
1001
1001
1001
0000
,
0010
1000
0001
1000
,
0100
0100
0010
0000
,
0001
0100
1000
0100
,
1001
1001
1001
0000
,
0010
0001
1000
0001
,
0100
0100
0010
0000
,
0010
1000
0100
0001
,
0010
0001
0100
1000
,
0100
0100
0010
0010
,
1000
0001
1001
0000
,
0010
0001
0100
1000
,
0010
1000
0100
0001
,
0100
0100
0010
0010
,
2002
0000
0000
0000
0000
3003
0000
0000
,
0001
0010
1000
0010
,
1001
1001
1001
0000
,
1000
0000
0001
0000
,
0100
0100
0100
0000
,
1000
0010
0001
0010
,
1001
1001
1001
0000
,
0001
0000
1000
0000
,
0010
0010
0010
0000
,
1000
1000
0100
0010
,
0001
0001
0100
0010
,
1000
1000
0010
0100
,
0001
0001
1000
1000
,
0001
0001
0010
0100
,
1000
1000
0010
0100
,
0001
0001
0010
0100
,
1000
1000
0001
0001
,
1001
1001
1001
0000
,
0100
0000
0100
0000
,
1001
1001
1001
0000
,
0100
0000
0010
0000
,
1001
1001
1001
0000
,
0010
0000
0010
0000
,
1001
1001
1001
0000
,
0220
0000
0330
0000
,
2002
0000
0000
0000
,
0000
0000
0000
0000
,
0000
0000
0000
0000
,
0000
0000
0000
0000
0000
0000
0000
3003
;

//---------------dance-single - ----------------
#NOTES:
     dance-single:
     :
     Beginner:
     2:
     0.177,0.234,0.107,0.019,0.000,115.000,11.000,2.000,0.000,0.000,0.000,0.177,0.234,0.107,0.019,0.000,115.000,11.000,2.000,0.000,0.000,0.000:
0000
0000
0000
0000
,
0001
0000
0000
0000
,
1000
0000
0000
0000
,
0010
0000
0010
0000
,
0100
0000
0110
0000
,
1000
0000
0000
0000
,
0001
0000
0000
0000
,
0010
0000
0100
0000
,
0010
0000
0110
0000
,
0001
0000
0000
0000
,
0001
0000
0000
0000
,
1000
0000
1000
0000
,
0001
0000
1000
0000
,
1000
0000
0000
0000
,
1000
0000
0000
0000
,
0001
0000
0001
0000
,
1000
0000
0001
0000
,
0100
0000
0000
0000
,
0100
0000
0000
0000
,
0010
0000
0010
0000
,
0010
0000
0010
0000
,
0010
0000
0000
0000
,
0100
0000
0000
0000
,
0010
0000
0000
0000
,
1001
0000
0000
0000
,
1000
1000
1000
0000
,
0001
0001
0001
0000
,
0010
0000
0010
0000
,
0100
0000
0110
0000
,
1000
1000
1000
0000
,
0001
0001
0001
0000
,
0100
0000
0100
0000
,
0010
0000
0110
0000
,
1000
0000
0000
0000
,
0001
0000
0000
0000
,
0100
0000
0100
0000
,
0010
0000
0110
0000
,
1000
0000
0000
0000
,
0001
0000
0000
0000
,
0010
0000
0010
0000
,
0100
0000
0110
0000
,
0001
0001
0001
0000
,
1000
1000
1000
0000
,
0000
0000
0000
0000
,
0000
0000
0000
0000
,
0001
0001
0001
0000
,
1000
1000
1000
0000
,
0000
0000
0000
0000
,
0000
0000
0000
0000
,
0001
0000
0001
0000
,
1000
0000
1000
0000
,
0001
0000
1000
0000
,
0001
0000
1001
0000
,
0100
0000
0100
0000
,
0010
0000
0010
0000
,
0100
0000
0010
0000
,
0100
0000
0110
0000
,
1000
1000
1000
0000
,
0001
0000
0001
0000
,
0001
0001
0001
0000
,
1000
0000
1000
0000
,
0010
0010
0010
0000
,
0100
0000
0100
0000
,
0100
0100
0100
0000
,
0010
0000
0110
0000
,
2002
0000
0000
0000
,
0000
0000
0000
0000
,
0000
0000
0000
0000
,
0000
0000
0000
0000
0000
0000
0000
3003
;

//---------------dance-double - ----------------
#NOTES:
     dance-double:
     :
     Easy:
     4:
     0.382,0.400,0.475,0.019,0.000,225.000,49.000,2.000,0.000,0.000,0.000,0.382,0.400,0.475,0.019,0.000,225.000,49.000,2.000,0.000,0.000,0.000:
00000000
00000000
00000000
00000000
,
00100000
10000000
01000000
01000000
,
00100000
00010000
01000000
01000000
,
00001000
00100000
00010000
00000000
,
00001000
00000010
00010000
00000000
,
00000010
00000001
00000100
00000100
,
00000010
00001000
00000100
00000100
,
00010000
00000010
00001000
00000000
,
00000010
00000000
00000110
00000000
,
00000010
00001000
00000100
00001000
,
00000010
00010000
00001000
00000000
,
00100000
00100000
01000000
01000000
,
11000000
10010000
01010000
00000000
,
00100000
00010000
01000000
00010000
,
00100000
00001000
00010000
00000000
,
00000010
00000010
00000100
00000100
,
00000101
00001001
00001100
00000000
,
00000010
00000001
00000100
00000001
,
00001000
00000100
00001000
00000010
,
00010000
00011000
01000000
01010000
,
10000000
11000000
00010000
10010000
,
10000000
00100000
10000000
01000000
,
00100000
00100000
00010000
00000000
,
01000000
00001000
00010000
00000100
,
00000110
00000110
00001001
00000000
,
00001010
00001000
00000011
00000001
,
00001001
00000110
00001001
00000000
,
00000100
00000010
00010000
00100000
,
10000000
01000000
00100000
00000000
,
00110000
00010000
10100000
10000000
,
10010000
01100000
10010000
00000000
,
00100000
01000000
00001000
00000100
,
00000010
00000010
00000001
00000000
,
00000010
00000001
00000100
00000100
,
00000010
00001000
00000100
00000100
,
00010000
00000010
00001000
00000000
,
00010000
00100000
00001000
00000000
,
00100000
10000000
01000000
01000000
,
00100000
00010000
01000000
01000000
,
00001000
00100000
00010000
00000000
,
00100000
00000000
01100000
00000000
,
00110000
00010000
10100000
10000000
,
10010000
01100000
10010000
00000000
,
10000000
01000000
00010000
00000000
,
00001000
00000100
00000001
00000000
,
00000011
00000001
00001010
00001000
,
00001001
00000110
00001001
00000000
,
00000001
00000100
00001000
00000000
,
00010000
01000000
10000000
00000000
,
01000000
00010000
10000000
01000000
,
00001000
00000100
00010000
00001000
,
00000100
00000001
00001000
00000100
,
00000010
00000010
00000100
00001001
,
00000010
00000001
00001000
00000010
,
00010000
00001000
00100000
00010000
,
01000000
00010000
10000000
01000000
,
00100000
00100000
01000000
01000000
,
10010000
10010000
10010000
00000000
,
01000000
00010000
00001000
00000000
,
00011000
00011000
00011000
00000000
,
00000010
00000001
00000100
00000010
,
00000110
00000110
00000110
00000000
,
00000100
00001000
00010000
00000000
,
00011000
00011000
00011000
00000000
,
00100000
10000000
01000000
00100000
,
02200000
00000000
00000000
00000000
,
00000000
00000000
00000000
00000000
,
00000000
00000000
00000000
00000000
,
00000000
00000000
00000000
00000000
00000000
00000000
00000000
03300000
;

//---------------dance-double - ----------------
#NOTES:
     dance-double:
     :
     Medium:
     7:
     0.536,0.467,0.329,0.058,0.092,347.000,34.000,6.000,0.000,0.000,0.000,0.536,0.467,0.329,0.058,0.092,347.000,34.000,6.000,0.000,0.000,0.000:
00000000
00000000
00000000
00000000
,
00000001
00001000
00000010
00001000
00000001
00000000
00001001
00000000
,
00001000
00000001
00000100
00000001
00001000
00000000
00001001
00000000
,
00000100
00000000
00000010
00000000
00010000
00000000
00000000
00000000
00001000
00000000
00000000
00001000
00000000
00000000
00001000
00000000
,
00010000
00000000
00001000
00000000
01000000
00000000
00000000
00000000
00100000
00000000
00000000
00100000
00000000
00000000
00100000
00000000
,
10000000
00010000
01000000
00010000
10000000
00000000
10010000
00000000
,
00010000
10000000
00100000
10000000
00010000
00000000
10010000
00000000
,
00100000
00000000
01000000
00000000
00001000
00000000
00000000
00000000
00000100
00000000
00000000
00000100
00000000
00000000
00000100
00000000
,
00000010
00000001
00001001
00000000
,
00000001
00000100
00000010
00000100
00000001
00000000
00000000
00000000
,
00001000
00000010
00000100
00000010
00001000
00000000
00000000
00000000
,
00100000
01000000
00010000
00000000
00100000
01000000
10000000
00000000
,
00010000
10000000
01000000
00000000
01100000
00000000
00000000
00000000
,
00100000
01000000
10000000
01000000
00100000
00000000
00000000
00000000
,
01000000
00100000
00010000
00100000
01000000
00000000
00000000
00000000
,
00100000
00100000
01000000
01000000
,
10000000
01000000
00100000
01000000
00100000
00001000
00010000
00001000
,
00011000
00001000
00000100
00000001
,
00000101
00000001
00000010
00000100
,
00000010
00000001
00001000
00000000
00000010
00010000
00001000
00000000
,
01000000
00010000
00100000
00000000
01000000
10000000
00010000
00000000
,
01010000
00000000
00010000
00000000
01000000
00100000
10000000
00000000
,
10010000
00000000
01000000
00000000
00100000
00010000
00100000
00000000
,
00001000
00000000
00010000
00000000
00000010
00001000
00000100
00000000
,
00000011
00001001
00001100
00000000
,
00000011
00000000
00001100
00000000
00000010
00000001
00000100
00000000
,
00000010
00001000
00000010
00000100
00000010
00001000
00000010
00000000
,
00000100
00000001
00001000
00000001
00000100
00000000
00001000
00000000
,
00010000
00001000
00010000
00100000
00000000
00000000
00000000
00000000
,
10100000
00000000
01010000
00000000
00100000
10000000
01000000
00000000
,
00100000
00010000
00100000
01000000
00100000
00010000
00100000
00000000
,
01000000
10000000
00010000
10000000
01000000
00000000
00100000
00000000
,
01000000
00100000
00001000
00010000
00000000
00000000
00000000
00000000
,
00000010
00001000
00000100
00001000
00000010
00000000
00000110
00000000
,
00000100
00000001
00000010
00000001
00000100
00000000
00001001
00000000
,
00000001
00000000
00000100
00000000
00000010
00000000
00000000
00000000
00010000
00000000
00000000
00010000
00000000
00000000
00010000
00000000
,
00001000
00000000
00010000
00000000
00001000
00000000
00000000
00000000
01000000
00000000
00000000
01000000
00000000
00000000
01000000
00000000
,
00100000
10000000
01000000
10000000
00100000
00000000
01100000
00000000
,
01000000
00010000
00100000
00010000
01000000
00000000
10010000
00000000
,
01000000
00000000
00100000
00000000
00001000
00000000
00000000
00000000
00010000
00000000
00000000
00010000
00000000
00000000
00010000
00000000
,
00000100
00000010
00000110
00000000
,
00000011
00000000
00001100
00000000
00000010
00000001
00000100
00000000
,
00000010
00001000
00000010
00000100
00000010
00001000
00000010
00000000
,
00000100
00000001
00010000
00001000
,
01000000
00100000
10000000
00000000
,
10100000
00000000
01010000
00000000
00100000
10000000
01000000
00000000
,
00100000
00010000
00100000
01000000
00100000
00010000
00100000
00000000
,
01000000
00100000
00001000
00010000
,
00000010
00000010
00001000
00000000
,
00000001
00000000
00000000
00000001
00000000
00000000
00000001
00000000
00000100
00000000
00000010
00000000
00000100
00000000
00000010
00000000
,
00001000
00000000
00000000
00001000
00000000
00000000
00001000
00000000
00000010
00000000
00000100
00000000
00000010
00000000
00000100
00000000
,
00010000
00000000
00000000
00010000
00000000
00000000
00010000
00000000
00000100
00000000
00001000
00000000
00000100
00000000
00001000
00000000
,
00000100
00000000
00000000
00000100
00000000
00000000
00000010
00000000
00000000
00000010
00000000
00000000
00001010
00000000
00000000
00000000
,
00001000
00000000
00000000
00001000
00000000
00000000
00001000
00000000
00100000
00000000
00001000
00000000
00100000
00000000
00001000
00000000
,
10000000
00000000
00000000
10000000
00000000
00000000
10000000
00000000
01000000
00000000
00100000
00000000
01000000
00000000
00100000
00000000
,
00010000
00000000
00000000
00010000
00000000
00000000
00010000
00000000
10000000
00000000
01000000
00000000
10000000
00000000
01000000
00000000
,
00100000
00000000
00000000
00100000
00000000
00000000
00010000
00000000
00100000
00000000
00001000
00000000
00010000
00000000
00000100
00000000
,
00000210
00000000
00000000
00000010
00000000
00000000
00000010
00000000
00000310
00000000
00000000
00000000
00000100
00000000
00000000
00000000
,
00001000
00000000
00000001
00000000
00000100
00000010
00001000
00000000
,
00001020
00000000
00000000
00001000
00000000
00000000
00001000
00000000
00001030
00000000
00000000
00000000
00000010
00000000
00000000
00000000
,
00001000
00100000
01000000
00000000
00010000
10000000
01000000
00000000
,
01200000
00000000
00000000
01000000
00000000
00000000
01000000
00000000
01300000
00000000
00000000
00000000
00100000
00000000
00000000
00000000
,
01000000
00000000
00010000
00000000
00000100
00000010
00001000
00000000
,
00001020
00000000
00000000
00001000
00000000
00000000
00001000
00000000
00001030
00000000
00000000
00000000
00000010
00000000
00000000
00000000
,
00000001
00001000
00001010
00000110
,
00000202
00000000
00000000
00000000
,
00000000
00000000
00000000
00000000
,
00000000
00000000
00000000
00000000
,
00000000
00000000
00000000
00000000
00000000
00000000
00000000
00000303
;

//---------------dance-double - ----------------
#NOTES:
     dance-double:
     :
     Hard:
     9:
     0.744,0.701,0.242,0.058,0.542,507.000,25.000,6.000,0.000,0.000,0.000,0.744,0.701,0.242,0.058,0.542,507.000,25.000,6.000,0.000,0.000,0.000: // measure 0
00000000
00000000
00000000
00000000
,  // measure 1
00100000
10000000
00100000
10000000
00100000
00000000
10000000
00000000
00010000
00000000
00100000
00000000
01000000
00000000
10000000
00000000
,  // measure 2
01000000
00010000
01000000
00010000
01000000
00000000
00100000
00000000
00010000
00000000
00100000
00000000
00001000
00000000
00010000
00000000
,  // measure 3
00000100
00010000
00000100
00010000
00000100
00000000
00000010
00000000
00000001
00000000
00000100
00000010
00000000
00000100
00000010
00000000
,  // measure 4
00001000
00000010
00001000
00000010
00001000
00000000
00000001
00000000
00000010
00000000
00000000
00000010
00000000
00000000
00000100
00000000
,  // measure 5
00001000
00000100
00001000
00000100
00001000
00000000
00000100
00000000
00000010
00000000
00000001
00000000
00000100
00000000
00000010
00000000
,  // measure 6
00001000
00000010
00001000
00000010
00001000
00000000
00000010
00000000
00000100
00000000
00000001
00000000
00001000
00000000
00000100
00000000
,  // measure 7
00010000
00000100
00010000
00000100
00010000
00000000
00001000
00000000
01000000
00000000
00000000
00100000
00000000
00100000
00000000
10000000
,  // measure 8
00100000
10000000
00000000
01000000
00000000
01000000
00000000
01000000
00000000
00000000
01100000
00000000
00000000
00000000
00000000
00000000
,  // measure 9
10000000
01000000
00100000
01000000
10000000
00010000
01000000
00100000
,  // measure 10
01000000
00001000
00010000
00000100
00000010
00000000
00000110
00000000
,  // measure 11
00000001
00000010
00000001
00001000
00000010
00000100
00000001
00001000
,  // measure 12
00000100
00010000
00001000
00000000
00011000
00000000
00001000
01000000
,  // measure 13
00100000
01000000
00010000
01000000
00100000
10000000
00010000
00100000
,  // measure 14
01000000
00100000
00010000
10000000
00100000
00000000
10000000
01000000
,  // measure 15
00010000
00000000
00010000
00000000
01000000
10000000
01000000
00000000
,  // measure 16
10000000
01000000
00100000
00001000
00010000
00000010
00000100
00000001
,  // measure 17
00000101
00000000
00000100
00000000
00001000
00000000
00000100
00000001
,  // measure 18
00001000
00000100
00000010
00000000
00000001
00001000
00000010
00000000
,  // measure 19
00000001
00000010
00000100
00000001
00001000
00000010
00000100
00001000
,  // measure 20
01000000
00010000
10000000
01000000
00100000
00010000
10000000
00100000
,  // measure 21
01100000
00000000
00100000
00000000
10000000
01000000
00010000
01000000
,  // measure 22
00000000
00000000
10000000
00000000
00100000
00000000
01000000
00000000
00000000
00000000
00010000
01000000
00010000
00000000
00000000
00000000
,  // measure 23
10000000
00000000
11000000
00000000
00010000
00100000
00010000
00000000
,  // measure 24
01000000
00000000
00010000
01000000
00100000
10000000
02000000
00000000
00000000
03010000
00000000
00000000
,  // measure 25
10000000
01000000
10000000
00000000
00100000
00000000
01000000
00000000
00010000
01000000
00010000
00000000
00100000
00000000
01000000
00000000
,  // measure 26
10000000
00010000
00100000
00000000
00010000
10000000
00100000
00000000
01000000
00010000
00100000
00000000
00000000
00000000
00000000
00000000
,  // measure 27
01000000
00100000
00010000
00100000
00001000
00010000
00000100
00001000
,  // measure 28
00000010
00000000
00000100
00000000
00000001
00000000
00000100
00000000
00000000
00000000
00000010
00000100
00000010
00000000
00000000
00000000
,  // measure 29
00001000
00000100
00001000
00000000
00000100
00000000
00000010
00000000
00000001
00000100
00000001
00000000
00000100
00000000
00000010
00000000
,  // measure 30
00001000
00000001
00000010
00000000
00000001
00001000
00000010
00000000
00000100
00000001
00000010
00000000
00000000
00000000
00000000
00000000
,  // measure 31
00000100
00001000
00000010
00010000
00001000
01000000
00100000
00000000
,  // measure 32
10000000
00100000
01000000
00010000
00000000
00000000
00000000
00000000
,  // measure 33
10000000
01000000
10000000
01000000
10000000
00000000
01000000
00000000
00100000
00000000
00010000
00000000
01000000
00000000
00100000
00000000
,  // measure 34
01000000
00010000
01000000
00010000
01000000
00000000
00010000
00000000
10000000
00000000
01000000
00000000
00100000
00000000
00001000
00000000
,  // measure 35
00010000
00001000
00010000
00001000
00010000
00000000
00000010
00000000
00001000
00000000
00000001
00001000
00000000
00000001
00001000
00000000
,  // measure 36
00000100
00000010
00000100
00000010
00000100
00000000
00000010
00000000
00000001
00000000
00000000
00000001
00000000
00000000
00000100
00000000
,  // measure 37
00000010
00001000
00000010
00001000
00000010
00000000
00000100
00000000
00000001
00000000
00000010
00000000
00001000
00000000
00000010
00000000
,  // measure 38
00000001
00000010
00000001
00000010
00000001
00000000
00000100
00000000
00000010
00000000
00010000
00000000
00001000
00000000
01000000
00000000
,  // measure 39
00100000
01000000
00100000
01000000
00100000
00000000
01000000
00000000
00010000
00000000
00000000
10000000
00000000
10000000
00000000
00010000
,  // measure 40
00100000
00010000
00000000
01000000
00000000
01000000
00000000
01000000
00000000
00000000
10010000
00000000
00000000
00000000
00000000
00000000
,  // measure 41
10000000
00100000
10000000
00000000
01000000
00000000
00100000
00000000
00010000
00100000
00010000
00000000
01000000
00000000
00100000
00000000
,  // measure 42
10000000
00010000
01000000
00000000
00010000
10000000
01000000
00000000
00100000
00010000
01000000
00000000
00000000
00000000
00000000
00000000
,  // measure 43
01000000
00010000
00100000
00001000
00010000
00000000
00000100
00000000
,  // measure 44
00000010
00000001
00000100
00000010
00000000
00000110
00000000
00000000
,  // measure 45
00001000
00000010
00001000
00000000
00000010
00000000
00000100
00000000
00000001
00000010
00000001
00000000
00000010
00000000
00000100
00000000
,  // measure 46
00001000
00000001
00000100
00000000
00000001
00001000
00000100
00000000
00000010
00000001
00000100
00000000
00000000
00000000
00000000
00000000
,  // measure 47
00000010
00001000
00000100
00010000
00001000
00000000
01000000
00000000
,  // measure 48
00100000
00000000
01000000
00010000
00100000
00002000
00020000
00000000
00000000
00033000
00000000
00000000
,  // measure 49
00001000
00000000
00000000
00001000
00000000
00000000
00001000
00000000
01000000
00000000
00100000
00000000
01000000
00000000
00001000
00000000
,  // measure 50
00010000
00000000
00000000
00010000
00000000
00000000
00010000
00000000
00000100
00000000
00000010
00000000
00000100
00000000
00010000
00000000
,  // measure 51
00001000
00000000
00000000
01000000
00000000
00000000
00001000
00000000
00100000
00000000
00010000
00000000
00100000
00000000
00001000
00000000
,  // measure 52
00010000
00000000
00000000
00010000
00000000
00000000
00000010
00000000
00000000
00000010
00000000
00000100
00001000
00000000
00000100
00000000
,  // measure 53
00000010
00000000
00000000
00000010
00000000
00000000
00000010
00000000
00010000
00000000
00001000
00000000
00010000
00000000
00001000
00000000
,  // measure 54
01000000
00000000
00000000
01000000
00000000
00000000
01000000
00000000
00100000
00000000
01000000
00000000
00001000
00000000
00010000
00000000
,  // measure 55
00000100
00000000
00000000
00000100
00000000
00000000
00000100
00000000
00000010
00000000
00000100
00000000
00010000
00000000
00001000
00000000
,  // measure 56
01000000
00000000
00000000
01000000
00000000
00100000
01000000
00000000
00010000
01000000
00010000
01000000
00010000
00000000
00100000
00000000
,  // measure 57
10100000
00000000
00000000
10100000
00000000
00000000
01010000
00000000
01010000
00000000
00010000
00000000
00010000
00000000
00010000
00000000
,  // measure 58
10000000
01000000
00000000
00000000
00010000
01000000
00000000
10000000
00000000
01000000
00100000
00000000
00010000
00000000
00000000
00000000
,  // measure 59
00110000
00000000
00000000
00110000
00000000
00000000
11000000
00000000
11000000
00000000
10000000
01000000
10000000
00000000
00010000
00000000
,  // measure 60
01000000
00010000
01000000
00010000
00000000
00100000
00000000
00100000
00000000
00001000
00000000
00010000
00000010
00000000
00001000
00000000
,  // measure 61
00001010
00000000
00000000
00001010
00000000
00000000
00000101
00000000
00000101
00000000
00000001
00000000
00000001
00000000
00000001
00000000
,  // measure 62
00001000
00000100
00000000
00000000
00000001
00000100
00000000
00001000
00000000
00000100
00000010
00000000
00000001
00000000
00000000
00000000
,  // measure 63
00000011
00000000
00000000
00000011
00000000
00000000
00001100
00000000
00001100
00000000
00001000
00000100
00001000
00000000
00000001
00000000
,  // measure 64
00000100
00000000
00000001
00001000
00000010
00000100
00002000
00000000
00000000
00013000
00000000
00000000
,  // measure 65
00022000
00000000
00000000
00000000
,  // measure 66
00000000
00000000
00000000
00000000
,  // measure 67
00000000
00000000
00000000
00000000
,  // measure 68
00000000
00000000
00000000
00000000
00000000
00000000
00000000
00033000
;
