#TITLE:SON OF SUN;
#SUBTITLE:;
#ARTIST:Shinji Hosoe;
#TITLETRANSLIT:;
#SUBTITLETRANSLIT:;
#ARTISTTRANSLIT:;
#GENRE:;
#CREDIT:;
#BANNER:[Round 1] - SON OF SUN-bn.png;
#BACKGROUND:[Round 1] - SON OF SUN-bg.png;
#LYRICSPATH:;
#CDTITLE:;
#MUSIC:[Round 1] - SON OF SUN.ogg;
#OFFSET:-0.382;
#SAMPLESTART:14.780;
#SAMPLELENGTH:21.200;
#SELECTABLE:YES;
#BPMS:0.000=200.000;
#STOPS:;
#BGCHANGES:0.000=[Round 1] - SON OF SUN.avi=1.000=0=0=1=====,
342.500=[Round 1] - SON OF SUN-bg.png=1.000=1=0=0=StretchNoLoop==CrossFade==,
99999=-nosongbg-=1.000=0=0=0 // don't automatically add -songbackground-
;
#KEYSOUNDS:;

//---------------dance-single - TaroNuke----------------
#NOTES:
     dance-single:
     TaroNuke:
     Hard:
     8:
     0.664,0.746,0.494,0.649,0.000:
0000
0000
0000
0000
,
0000
0000
0000
0000
,
0000
0000
0000
0000
,
0000
0000
0000
0000
,
1000
0000
0000
1000
0100
0010
0001
0000
,
0000
0000
0000
0000
,
0000
0000
0000
0000
,
0000
0000
0000
0000
,
1000
0000
0000
1000
0100
0010
0001
0000
,
0000
0000
0000
0000
,
0000
0000
0000
0000
,
2000
3200
0320
0032
,
1003
0010
1000
0000
0001
0100
0001
0000
,
1000
0000
0001
0100
0010
0100
0001
0000
,
1000
0100
0010
0000
0001
0100
0010
0000
,
1000
0000
0001
0100
0010
1000
0100
0000
,
1000
0100
1000
0000
0001
0010
0001
0000
,
1000
0000
0001
0010
0100
0010
0001
0000
,
1000
0010
0100
0000
0001
1000
0001
0100
,
0020
0000
0230
0000
0302
0000
0203
0300
,
0101
0110
1010
0110
,
0102
0000
1000
2003
0000
0001
3002
0003
,
1100
0110
0011
0110
,
1100
0000
0001
1000
0010
1000
0001
0000
,
0101
1001
1010
1001
,
0101
0000
1000
2000
0000
3001
0002
0003
,
1100
1001
0011
1001
,
1000
0100
1000
0100
1000
0100
0020
0030
,
0001
0100
0001
0100
0010
0000
0110
0000
,
1000
0100
1000
0100
0010
0000
0110
0000
,
0001
1000
0001
1000
0010
0000
1010
0000
,
1000
0000
0000
1000
0100
0010
0001
0000
,
1000
0010
1000
0010
0100
0000
0110
0000
,
0001
0010
0001
0010
0100
0000
0110
0000
,
1000
0001
1000
0001
0010
0000
0110
0000
,
2002
0003
0000
0010
0010
0001
3001
0000
,
1000
0000
0000
0000
0000
0000
0000
0001
,
0001
0000
0000
0000
0000
0000
0000
1000
,
1000
0000
0000
0000
,
1100
1010
0011
0101
,
1001
0000
0000
0000
0000
0000
0000
0001
,
0001
0000
0000
0000
0000
0000
0000
1000
,
1000
0000
0000
0000
0000
0000
0000
1000
,
0001
0100
0010
0100
0001
0100
0010
0000
,
1001
0000
1000
0100
0010
0001
0010
0100
,
0000
1000
0010
0100
0001
0100
0010
1000
,
0001
0000
1000
0010
0100
0001
0100
0010
,
0000
1000
0100
0010
0001
0010
0100
1000
,
0001
0000
1000
0100
0010
0001
0010
0100
,
0000
1000
0010
0100
0001
0100
0010
1000
,
0001
0010
0100
1000
0100
0010
0001
1000
,
0000
0001
0100
0010
1000
0010
0100
0001
,
2000
0000
3200
0000
0320
0000
0032
0203
,
0000
0320
2030
0000
3002
0000
2003
0000
,
3002
0000
0023
0000
0230
0000
2300
3020
,
0000
0230
0302
0000
2003
0000
3002
0000
,
2003
0000
3200
0000
0320
0000
0032
0203
,
0000
0320
2030
0000
3002
0000
2003
0000
,
3002
0203
0320
0230
,
0302
1000
1000
1003
,
1000
0001
1000
0000
0020
0000
0130
0000
,
0001
1000
0001
0000
0020
0000
0130
0000
,
1000
0001
1000
0000
0020
0000
0130
0000
,
0001
1000
0001
0000
2000
0000
3001
0000
,
1000
0001
1000
0000
0020
0000
0130
0000
,
0001
1000
0001
0000
0020
0000
0130
0000
,
1000
0001
1000
0000
0020
0000
0130
0000
,
0001
0010
0001
0010
0200
0000
1300
0000
,
1100
0000
0000
0110
0000
0000
0011
0000
,
0000
1001
1001
0000
,
1010
0000
0000
0110
0000
0000
0101
0000
,
2002
0000
0000
3003
,
1000
0010
0000
0100
0001
0000
0101
0000
,
0000
0110
1100
0000
,
1100
0000
0000
1001
0000
0000
0011
0000
,
0101
0000
0000
0101
0000
0000
0202
0303
,
1000
0001
0000
0100
0000
0010
0000
1000
,
0000
0010
0000
0100
0000
0001
0020
0000
,
0031
0010
0000
0100
0000
1000
0000
0100
,
0000
0010
0002
0000
1003
0100
0002
0000
,
0103
0010
0000
0001
0000
0010
0000
0100
,
0000
1000
0000
0100
0000
0010
0002
0000
,
1003
0100
0010
0001
1000
0100
0010
0000
,
2020
0000
0030
0000
0001
0001
0002
0000
,
0000
0000
0000
0000
,
0000
0000
0000
0000
0000
3003
0000
0000
;

//---------------dance-single - TaroNuke----------------
#NOTES:
     dance-single:
     TaroNuke:
     Challenge:
     9:
     0.769,0.788,0.310,0.658,0.034:
0000
0000
0000
0000
,
0000
0000
0000
0000
,
0000
0000
0000
0000
,
0000
0000
0000
0000
,
1000
0000
0000
1000
0100
0010
0001
0000
,
0100
0010
0100
0010
1000
0001
1000
0000
,
0100
0010
0100
0010
0000
0001
0000
1000
,
0001
0100
0010
0100
0001
1000
0001
0000
,
1000
0000
0000
1000
0100
0010
0001
0000
,
0100
0010
0100
0010
1000
0001
1000
0000
,
0100
0010
0100
0010
0000
0001
0000
0001
,
2000
3200
0320
0032
,
1003
0010
0100
0001
1000
0100
0010
0001
,
1000
0000
0100
0000
1000
0000
0010
0000
0100
0000
0001
0000
0010
0000
0001
1000
,
0010
0100
0010
1000
0010
0100
0010
1000
,
0001
0000
0010
0000
0001
0000
0100
0000
0010
0000
1000
0000
0100
0000
1000
0001
,
1000
0100
0010
0001
1000
0010
0100
0001
,
1000
0000
0100
0000
1000
0000
0010
0000
0100
0000
0001
0000
0010
0000
0001
1000
,
0010
0100
0010
1000
0010
0100
0001
0100
,
0020
0000
0230
0000
2300
0M00
3200
0000
,
0301
0100
0010
0100
1000
0100
0010
0100
,
0002
0000
1000
2003
0000
0001
3002
0000
,
1003
0100
0010
0100
0001
0100
0010
0100
,
2000
0000
3001
0001
1000
0010
0010
1000
,
0001
0100
0010
0100
1000
0100
0010
0100
,
0002
0000
1003
2000
0000
3001
0002
0000
,
1003
0100
0010
0100
0001
0100
0010
0100
,
1000
0100
1000
0100
1000
0100
0020
0030
,
1001
0000
1000
0100
1000
0000
0010
0000
,
0110
0000
0001
0000
1000
0100
0010
0001
,
1001
0000
0001
0100
0001
0000
1000
0000
,
0110
0000
0000
1000
0100
0010
0001
0000
,
1001
0000
0001
0010
0001
0000
0100
0000
,
1010
0000
1000
0000
0001
0010
0100
1000
,
1001
0000
1000
0010
1000
0000
1001
0000
,
2002
0003
0000
0010
0010
0001
3001
0000
,
1000
0000
0000
0000
0000
0000
0000
0001
,
0001
0000
0000
0000
0000
0000
0000
1000
,
1000
0000
0000
0000
,
1100
1010
0011
0101
,
1001
0000
0000
0000
0000
0000
0000
0001
,
0001
0000
0000
0000
0000
0000
0000
1000
,
1000
0000
0000
0000
0000
0000
0000
1000
,
0001
0100
0010
0100
0001
0100
0010
0000
,
1MM1
0000
1000
0100
0010
0001
0100
1000
,
0000
1000
0100
0001
0000
0001
0010
0100
,
1MM1
0000
1000
0010
0100
0001
0100
1000
,
0000
1000
0100
0001
0010
0001
0100
0010
,
1MM1
0000
1000
0010
0100
0001
0010
1000
,
0000
1000
0010
0001
0000
0001
0100
0010
,
1000
0100
0010
0001
1000
0001
0100
1000
,
0000
0000
0000
1000
0000
0000
0100
0000
0000
0001
0000
0000
0010
0000
0100
0000
1000
0000
0010
0000
0100
0000
0001
0000
,
2000
0000
3200
0000
0320
0000
0032
0203
,
0000
0320
2030
0000
3002
0000
0203
0010
,
0320
0000
2030
0000
3200
0000
2300
3020
,
0000
0230
0302
0000
0023
0000
0032
0000
,
2003
0000
3020
0000
0230
0000
0302
0023
,
0000
0230
2300
0000
3020
0000
2030
0001
,
3002
0000
0203
0000
0320
0000
0230
0302
,
1000
1000
1000
1003
,
1000
0100
0001
0100
0020
0000
0031
1000
,
0001
0100
1000
0100
0020
0000
1030
0001
,
1000
0100
0001
0100
0020
0000
0031
1000
,
0001
0100
1000
0001
0020
0000
0130
0001
,
0010
0100
0001
0100
0020
0000
0031
1000
,
0010
0100
1000
0100
0020
0000
1030
0001
,
0010
0100
0001
0100
0020
0000
0031
1000
,
0001
0010
1000
0001
0200
0000
1300
0001
,
0101
0000
0001
0100
0010
0000
0110
0000
,
0101
0000
0001
1000
0100
0000
1100
0000
,
1010
0000
0010
0100
0001
0000
0101
0000
,
1002
1000
1000
1003
,
1000
0010
0000
0100
0001
0000
0101
0000
,
0000
0110
2002
3003
,
0001
0010
0000
0100
1000
0000
1100
0000
,
1001
0000
0000
0110
0000
0000
1001
0000
,
1000
0001
0000
0100
0000
0010
0000
0001
,
0000
0010
0000
0100
0000
0001
0020
0000
,
0031
0010
0000
0100
0000
0001
0000
0100
,
0000
0010
0002
0000
1003
0100
0002
0000
,
0103
0010
0000
0001
0000
0100
0000
1000
,
0000
0100
0000
0010
0000
0100
0002
0000
,
1003
0100
0010
0001
1000
0010
1000
0001
,
2002
0000
0003
0010
0010
0001
0002
0000
,
0000
0000
0000
0000
,
0000
0000
0000
0000
0000
3003
0000
0000
;

//---------------dance-single - TaroNuke----------------
#NOTES:
     dance-single:
     TaroNuke:
     Medium:
     6:
     0.470,0.540,0.271,0.494,0.000:
0000
0000
0000
0000
,
0000
0000
0000
0000
,
0000
0000
0000
0000
,
0000
0000
0000
0000
,
1000
0001
0100
0010
,
2000
0000
0000
0000
,
0000
0000
0000
0000
,
0000
0000
0000
0000
,
3001
0100
0010
1000
,
0002
0000
0000
0000
,
0000
0000
0000
0000
,
2003
3002
0023
0032
,
1003
0000
1000
0000
1000
0100
1000
0000
,
1000
0000
0001
0100
0000
0001
0100
0000
,
0001
0000
0001
0000
0001
0100
0001
0000
,
0001
0000
1000
0100
0000
1000
0100
0000
,
1000
0000
1000
0000
1000
0010
1000
0000
,
1000
0000
0001
0010
0000
0001
0010
0000
,
0001
0000
0001
0000
0001
0010
0001
0000
,
2000
3020
0230
0301
,
0202
0303
2002
3003
,
2200
3300
0000
0000
,
2020
3030
2002
3003
,
0022
0033
0000
0000
,
2002
3003
0220
0330
,
2002
3003
0000
0000
,
2002
3003
2200
3300
,
0001
0010
0001
2000
,
3001
0100
0001
0100
,
0010
0000
1000
0000
0010
1000
0010
1000
,
0001
0010
0001
0010
,
0200
0000
2300
0000
,
3001
0010
0001
0010
,
0100
0000
1000
0000
0100
1000
0100
1000
,
0001
0100
0001
0100
,
0020
0000
2030
0000
,
3100
0000
0000
0000
,
0010
0000
0000
0000
,
0001
0000
0000
0000
,
1001
1001
1001
1001
,
1001
0000
0000
0000
,
0110
0000
0000
0000
,
1001
0000
0000
0000
,
1001
1001
1001
1001
,
0001
0010
0100
1000
,
0100
0010
0001
0001
,
1000
0100
0010
0001
,
0010
0100
1000
1000
,
0001
0100
0010
1000
,
0010
0000
0100
0000
0001
0000
1000
0001
,
1000
0010
0100
0010
,
1000
0000
0001
0000
0100
0010
0100
0000
,
2002
0000
0000
0000
,
0000
0000
0000
0000
3003
0000
0000
0010
,
0100
0220
0000
0000
,
0000
0000
0330
0000
,
2002
0000
0000
0000
,
0000
0000
0000
0000
3003
0000
0000
0100
,
0010
0220
0000
0000
,
0000
0000
0330
0000
,
0100
0000
0100
0000
0100
0010
0100
0000
,
0010
0000
0010
0000
0010
1000
0010
0000
,
1000
0000
1000
0000
1000
0001
1000
0000
,
0001
0000
0001
0000
0001
0100
0001
0100
,
0010
0000
0010
0000
0010
0100
0010
0000
,
0100
0000
0100
0000
0100
0001
0100
0000
,
0001
0000
0001
0000
0001
1000
0001
1000
,
0010
1000
0010
1000
0010
0000
0000
0000
,
1000
0001
0100
0001
,
1000
0001
0100
0001
,
1000
0100
0010
0001
,
2001
0010
0100
0001
,
3010
0100
0010
0100
,
0010
1000
0010
1000
,
0001
0100
0010
1000
,
0100
0000
0000
0100
0000
0000
0100
0000
,
0010
0001
0100
0010
,
1000
0100
1000
0020
,
0130
0001
0010
0001
,
1000
0010
0200
0000
0301
0100
0020
0000
,
1030
0001
0100
0010
,
1000
0100
1000
0020
,
0130
0001
1000
0100
,
2001
0000
0002
0000
,
0000
0000
0000
0000
,
0000
0000
0000
3003
;

//---------------dance-single - TaroNuke----------------
#NOTES:
     dance-single:
     TaroNuke:
     Easy:
     4:
     0.285,0.415,0.019,0.232,0.000:
0000
0000
0000
0000
,
0000
0000
0000
0000
,
0000
0000
0000
0000
,
0000
0000
0000
0000
,
1000
0000
0001
0000
,
0000
0000
0000
0000
,
0000
0000
0000
0000
,
0000
0000
0000
0000
,
1000
0000
0001
0000
,
0000
0000
0000
0000
,
0000
0000
0000
0000
,
2002
0000
0000
3003
,
1000
0001
1000
0001
,
1000
0000
0000
0000
,
0010
0100
0010
0100
,
0010
0000
0000
0000
,
1000
0001
1000
0001
,
1000
0000
0000
0000
,
0010
0100
0010
0100
,
0020
0000
0000
0000
,
2030
3000
0002
0003
,
2000
3000
0000
0000
,
0020
0030
0200
0300
,
0020
0030
1000
0000
,
0002
0003
2000
3000
,
0002
0003
0000
0000
,
0200
0300
0020
0030
,
0100
0010
0100
0000
,
0001
0000
0001
0000
,
1000
1000
1000
0000
,
0010
0000
0010
0000
,
0200
0000
0000
0000
,
0301
0000
0001
0000
,
1000
1000
1000
0000
,
0010
0000
0010
0000
,
0200
0000
0000
0000
,
0301
0000
0000
0000
,
0001
0000
0000
0000
,
0001
0000
0000
0000
,
2000
0000
0000
0000
,
3001
0000
0000
0000
,
0001
0000
0000
0000
,
0001
0000
0000
0000
,
2002
0000
3003
0000
,
1000
0001
1000
0000
,
0010
0100
0010
0000
,
1000
0001
1000
0000
,
0100
0010
0100
0000
,
1000
0001
1000
0000
,
0010
0100
0010
0000
,
1000
0001
1000
0000
,
0001
0001
0001
0000
,
1000
0000
0010
0000
,
1000
0010
1000
0000
,
0001
0000
0100
0000
,
0001
0100
0001
0000
,
1000
0000
0001
0000
,
1000
0100
0001
0000
,
1000
0000
0001
0000
,
0001
0100
1000
0000
,
0001
0100
0001
0000
,
0010
0001
0010
0000
,
1000
0010
1000
0000
,
0100
1000
0100
0000
,
0001
0100
0001
0000
,
0010
0001
0010
0000
,
1000
0010
1000
0000
,
0100
1000
0100
0000
,
0001
0000
0100
0000
,
0010
0010
0010
0000
,
1000
0000
0001
0000
,
0020
0000
0000
0000
,
0031
0000
1000
0000
,
0010
0010
0010
0000
,
0100
0000
0001
0000
,
1000
0000
0000
1000
0000
0000
1000
0000
,
0001
0100
0001
0100
,
0001
0001
0001
0001
,
1000
0100
1000
0100
,
1000
0020
0130
0020
,
1030
0001
1000
0001
,
1000
1000
1000
1000
,
0010
0100
0010
0100
,
0020
0000
2000
0000
,
0000
0000
0000
0000
,
0000
0000
0000
3030
;

//---------------dance-single - TaroNuke----------------
#NOTES:
     dance-single:
     TaroNuke:
     Beginner:
     2:
     0.203,0.331,0.097,0.213,0.000:
0000
0000
0000
0000
,
0000
0000
0000
0000
,
0000
0000
0000
0000
,
0000
0000
0000
0000
,
1000
0000
0000
0000
,
0000
0000
0000
0000
,
0000
0000
0000
0000
,
0000
0000
0000
0000
,
1000
0000
0000
0000
,
0000
0000
0000
0000
,
0000
0000
0000
0000
,
2000
0000
3002
0000
,
1003
0000
0001
0000
,
1000
0000
0000
0000
,
0010
0000
0100
0000
,
0010
0000
0000
0000
,
1000
0000
0100
0000
,
0010
0000
0000
0000
,
0001
0000
0010
0000
,
0100
0000
0000
0000
,
1000
0000
0100
0000
,
0001
0000
0000
0000
,
0010
0000
1000
0000
,
0100
0000
0000
0000
,
0001
0000
0010
0000
,
1000
0000
0000
0000
,
0100
0000
0001
0000
,
1000
0000
0000
0000
,
0010
0000
0010
0000
,
0100
0000
0100
0000
,
0010
0000
0010
0000
,
0200
0000
0300
0000
,
0001
0000
0001
0000
,
1000
0000
1000
0000
,
0001
0000
0001
0000
,
0100
0000
0110
0000
,
1001
0000
0000
0000
,
1001
0000
0000
0000
,
1001
0000
0000
0000
,
0110
0000
0110
0000
,
0110
0000
0000
0000
,
1001
0000
0000
0000
,
0110
0000
0000
0000
,
0002
0000
0000
0003
,
1000
0000
0100
0000
,
0010
0000
0001
0000
,
1000
0000
0010
0000
,
0100
0000
0001
0000
,
1000
0000
0100
0000
,
0010
0000
0001
0000
,
1000
0000
0010
0000
,
0100
0000
0001
0000
,
1000
0000
0000
0000
,
0000
0000
0000
0000
,
0001
0000
0000
0000
,
0000
0000
0000
0000
,
1000
0000
0000
0000
,
0000
0000
0000
0000
,
0010
0000
0000
0000
,
0100
0000
0100
0000
,
0200
0000
0302
0000
,
2003
0000
3002
0000
,
0203
0000
0320
0000
,
0230
0000
0302
0000
,
2003
0000
3200
0000
,
0320
0000
0032
0000
,
2003
0000
3020
0000
,
0230
0000
0000
0000
,
0301
0000
0000
0000
,
0001
0000
0000
0000
,
1000
0000
0000
0000
,
2000
0000
0000
0000
,
3010
0000
0000
0000
,
0010
0000
0000
0000
,
0010
0000
0000
0000
,
0100
0000
0000
0000
,
0001
0000
1000
0000
,
0001
0000
1000
0000
,
0010
0000
0100
0000
,
0010
0100
0010
0000
,
0100
0000
0010
0000
,
0100
0000
0010
0000
,
1000
0000
0001
0000
,
1000
0000
0001
2002
,
0000
0000
0000
0000
,
0000
0000
3003
0000
;

//---------------dance-double - Ama-tan----------------
#NOTES:
     dance-double:
     Ama-tan:
     Hard:
     9:
     0.712,0.747,0.368,0.697,0.019:
00000000
00000000
00000000
00000000
,
00000000
00000000
00000000
00000000
,
00000000
00000000
00000000
00000000
,
00000000
00000000
00000000
00000000
,
10000000
00000000
00000000
01000000
00100000
00001000
00010000
00000000
,
00000000
00000000
00000000
00000000
,
00000000
00000000
00000000
00000000
,
00000000
00000000
00000000
00000000
,
00000001
00000000
00000000
00000100
00000010
00010000
00001000
00000000
,
00000000
00000000
00000000
00000000
,
00000000
00000000
00000000
00000000
,
00020000
00032000
02003000
03200000
,
10300000
01000000
00100000
00010000
01000000
00100000
10000000
01000000
,
00020000
00000000
00031000
01000000
00100000
01000000
00002000
00000000
,
00013000
00000100
00000010
00000001
00000100
00000010
00010000
00000100
,
00000002
00000000
00000103
00001000
00000010
00000100
00000001
00000001
,
00000001
00000100
00000010
00001000
00000100
00000010
00000001
00000100
,
00002000
00000000
00013000
00000100
00000010
00000100
00020000
00000000
,
00031000
01000000
00100000
10000000
01000000
00010000
01000000
10000000
,
00200000
02300000
03002000
00013000
,
00002100
00003100
00021000
00031000
,
01010000
00000000
00010000
01000000
00000000
00010000
01000000
00000000
,
01020000
01030000
00012000
00013000
,
00001100
00000000
00001000
00000100
00000001
00000100
00001000
00000000
,
00002100
00003100
00021000
00031000
,
01010000
00000000
01000000
00010000
00000000
01000000
00010000
00000000
,
01020000
01030000
00012000
00013000
,
00000100
00001000
00000100
00001000
00000100
00001000
00000001
00000000
,
00000001
00000100
00000010
00010000
00001000
00000000
00101000
00000000
,
10000000
01000000
00100000
00001000
00010000
00000000
00010010
00000000
,
00000001
00000100
00000010
00010000
00001000
00000000
00101000
00000000
,
10000000
01000000
00100000
00001000
00010000
00000010
00000100
00000000
,
00000001
00001000
00000100
00010000
00000100
00000000
00011000
00000000
,
10000000
00010000
01000000
00001000
01000000
00000000
00011000
00000000
,
00000001
00001000
00000010
00010000
00000010
00000000
00011000
00000000
,
10000000
00100000
01000000
00001000
00010000
00000010
00000200
00000000
,
00000301
00000000
00000000
00000000
00000000
00000000
00000000
00100000
,
00100000
00000000
00000000
00000000
00000000
00000000
00000000
00000100
,
00000100
00000000
00000000
00000000
,
01010000
00011000
00001100
00011000
,
01010000
00000000
00000000
00000000
00000000
00000000
00000000
00000010
,
00000010
00000000
00000000
00000000
00000000
00000000
00000000
01000000
,
01000000
00000000
00000000
00000000
00000000
00000000
00000000
00001000
,
00001000
00010000
00001000
00010000
00001000
00010000
00001000
00010000
,
00001000
00000000
00000010
00000001
00000010
00001000
00000010
00000001
,
00000000
00000001
00000100
00001000
00000000
00000100
00000010
00010000
,
00001000
00000000
01000000
10000000
01000000
00010000
01000000
10000000
,
00000000
10000000
01000000
00010000
00100000
01000000
00010000
00001000
,
00010000
00000000
00000100
00000001
00000100
00001000
00000100
00000001
,
00000000
00000001
00000100
00000010
00000000
00000001
00000100
00000010
,
00001000
00000100
00010000
00001000
01000000
00010000
00100000
00001000
,
00010000
00000000
00000000
00000010
00000000
00000000
00001000
00000000
00000000
00000100
00000000
00000000
00010000
00000000
00001000
00000000
00010000
00000000
00001000
00000000
00010000
00000000
00001000
00000000
,
00020000
00032000
02003000
03020000
,
00230000
00000000
00302000
00000000
00023000
00000000
00031000
00010000
,
00002000
00023000
00030200
00002300
,
00003020
00020030
00032000
00023000
,
00032000
02003000
23000000
32000000
,
03020000
00000000
00230000
00000000
20300000
00000000
30100000
00001000
,
00020000
00030200
00000302
00000203
,
00020300
00032000
02003000
03200000
,
20300000
00000000
30100000
00100000
02000000
00000000
03010000
00010000
,
00200000
00000000
00301000
00001000
00020000
00000000
00030100
00000100
,
00002000
00000000
00003010
00000010
00000200
00000000
00000301
00000001
,
00000100
00000010
00000100
00000100
00000002
00000000
00001003
00001000
,
00000002
00000000
00000013
00000010
00000200
00000000
00001300
00001000
,
00000020
00000000
00010030
00010000
00002000
00000000
01003000
01000000
,
00020000
00000000
00130000
00100000
02000000
00000000
13000000
10000000
,
00010000
01000000
00100000
10000000
01000000
00100000
01000000
10000000
,
11000000
00000000
00000000
01100000
00000000
00000000
00110000
00000000
,
00000000
00011000
00011000
00000000
,
00001010
00000000
00000000
00000110
00000000
00000000
00000101
00000000
,
00002002
00000000
00000000
00003003
,
00000001
00000100
00000000
00000010
00001000
00000000
00001100
00000000
,
00000000
00011000
00011000
00000000
,
00001000
00100000
00000000
01000000
10000000
00000000
10100000
00000000
,
01010000
00000000
00000000
00011000
00000000
00000000
01010000
00000000
,
10000000
01000000
00100000
00010000
01000000
00010000
00100000
00001000
,
00100000
00001000
00010000
00000100
00010000
00000100
00000020
00000000
,
00000031
00000100
00000010
00001000
00000100
00001000
00000010
00010000
,
00000010
00010000
00002000
00000000
00103000
00001000
00020000
00000000
,
00031000
01000000
00010000
01000000
00100000
01000000
10000000
01000000
,
00100000
01000000
00010000
01000000
00001000
00010000
00002000
00000000
,
00013000
00000100
00000010
00000100
00000001
00000100
00000010
00000100
,
00020000
00000000
00000000
00000100
00000100
00001000
00002000
00000000
,
00000000
00000000
00000000
00000000
,
00000000
00000000
00000000
00033000
;
