#TITLE:Right There, Right On;
#SUBTITLE:;
#ARTIST:長沼英樹;
#TITLETRANSLIT:;
#SUBTITLETRANSLIT:;
#ARTISTTRANSLIT:Hideki Naganuma;
#GENRE:;
#CREDIT:;
#BANNER:Right There, Right On.png;
#BACKGROUND:Right There, Right On BG.png;
#LYRICSPATH:;
#CDTITLE:;
#MUSIC:Right There, Ride On.mp3;
#OFFSET:-0.220;
#SAMPLESTART:36.860;
#SAMPLELENGTH:12.000;
#SELECTABLE:YES;
#BPMS:0.000=162.000
;
#STOPS:155.000=0.186,
156.500=0.186,
157.500=0.186,
158.500=0.186
;
#BGCHANGES:;
#KEYSOUNDS:;
#ATTACKS:;

//---------------dance-single - ----------------
#NOTES:
     dance-single:
     :
     Hard:
     9:
     0.622,0.621,0.656,0.064,0.000,399.000,72.000,7.000,0.000,0.000,0.000,0.622,0.621,0.656,0.064,0.000,399.000,72.000,7.000,0.000,0.000,0.000:
0000
0000
0000
0000
,
0000
0000
0000
0000
,
0000
0000
0000
0000
,
0000
0000
0000
0000
,
0000
0000
0000
0001
,
0000
0000
0010
0000
0000
0100
0000
0100
,
0000
1100
0000
1000
,
0000
0000
0010
0000
0000
0100
0000
0100
,
0000
0101
0000
0001
,
0100
0000
1000
0000
0100
0001
0000
0001
,
0010
1000
0101
1000
,
0100
0000
0001
0000
0100
1000
0000
1000
,
0010
0000
0001
0000
1100
0000
1000
0010
,
0100
0010
1000
0000
0000
0000
0001
0100
,
0010
0100
0000
0000
0000
0000
0001
0010
,
0010
0100
1000
1000
0010
0100
0001
0001
,
0010
0100
0100
1000
1010
0000
0101
0000
,
0001
0100
1100
0000
0100
0001
0010
0010
,
0100
1000
1001
0000
0011
0000
1100
0000
,
1000
0100
0101
0000
0100
1000
0010
0010
,
0100
0001
1001
0000
1100
0000
0011
0000
,
1000
0010
0011
0000
0010
1000
0100
0100
,
0010
0001
1001
0000
0101
0000
0001
0100
,
0100
1000
0010
0010
0100
1000
0001
0001
,
0100
0010
1000
0000
1001
0000
0001
0100
,
1000
0100
0010
0001
0010
1000
0100
0010
,
0001
0100
0010
1000
1001
0000
1000
0100
,
0001
0100
0010
1000
0010
0001
0100
0010
,
1000
0100
0010
0001
1001
0000
0001
0010
,
1000
0100
1000
0010
0001
0100
0010
1000
,
0100
0001
0100
1000
1001
0000
1000
0100
,
0001
0010
0001
0100
1000
0010
0100
0001
,
0010
1000
0010
0001
1001
0000
1010
0000
,
1000
0010
0200
0000
0001
0301
0000
0100
,
1000
0100
0001
0000
1001
0000
0101
0000
,
0001
0100
0020
0000
1000
1030
0000
0100
,
0001
0100
1000
0000
1001
0000
1100
0000
,
1000
0100
0020
0000
0001
0031
0000
0100
,
1000
0100
0001
0000
1001
0000
0011
0001
,
0100
0101
0100
0110
0010
1010
1100
0000
,
1001
0000
1000
0100
0001
0100
1000
0000
,
1010
0000
0100
0001
0100
0001
0000
0100
,
0101
0000
0001
0100
1000
0100
0001
0000
,
0011
0000
0100
1000
0100
1000
0000
0100
,
1100
0000
1000
0010
0001
0010
1000
0000
,
1100
0000
0010
0001
0010
0001
0000
0010
,
0011
0000
0001
0100
0100
0010
1000
1000
,
0010
1000
0100
0100
0010
0001
0001
0000
,
1001
0000
0001
0010
0100
0010
1000
0010
,
0001
0100
0010
1000
0100
0010
0000
0001
,
1001
0000
1000
0100
0010
0100
0001
0100
,
1000
0010
0100
0001
0010
0100
0000
1000
,
1001
0000
0001
0100
0010
0100
1000
0100
,
0001
0010
0100
1000
0010
0100
0000
0001
,
1001
0000
1000
0100
0010
0100
0000
1000
,
1000
0001
0100
0010
0100
0001
0011
0000
,
2100
0000
3010
0000
1000
0010
0001
0000
,
1000
0100
0000
0100
0010
0000
1010
0000
,
0102
0000
0013
0000
0001
0010
1000
0000
,
0001
0100
0000
0100
0010
0000
0011
0000
,
2100
0000
3010
0000
1000
0010
0001
0000
,
0100
1000
0000
1000
0010
0000
1010
0000
,
0102
0000
0013
0000
0001
0010
1000
0000
,
0100
0001
0000
0001
0010
0000
0011
0000
,
1100
0000
1010
0000
1000
0010
0011
0000
,
1010
1000
1100
0100
0010
0001
0101
0000
,
0011
0000
0101
0000
0001
0100
1100
0000
,
0101
0001
0011
0010
0100
1000
1100
0000
,
1010
0000
1100
0000
1000
0100
0101
0000
,
1100
1000
1010
0010
0100
0001
0101
0000
,
1001
0000
1000
0100
0100
0001
1000
1000
,
0100
0010
1000
1000
0100
0010
0001
0000
;

//---------------dance-single - ----------------
#NOTES:
     dance-single:
     :
     Medium:
     7:
     0.453,0.523,0.282,0.000,0.000,317.000,31.000,0.000,0.000,0.000,0.000,0.453,0.523,0.282,0.000,0.000,317.000,31.000,0.000,0.000,0.000,0.000:
0000
0000
0000
0000
,
0000
0000
0000
0000
,
0000
0000
0000
0000
,
0000
0000
0000
0000
,
0000
0000
0000
0001
,
0000
0000
0010
0000
0000
0100
0000
0100
,
0000
1000
0000
1000
,
0000
0000
0010
0000
0000
0100
0000
0100
,
0000
0001
0000
1000
,
0100
0000
0001
0000
0000
0001
0000
0000
,
0100
1000
0000
0001
,
0100
0000
1000
0000
0000
1000
0000
0000
,
0100
0001
0000
1000
,
0010
0100
0000
0001
,
0000
0001
0000
0000
0000
0000
1000
0000
,
0000
0100
0000
0000
0001
0000
0100
0000
,
0000
1000
0000
0000
0001
0000
1001
0000
,
0001
0010
0100
0000
1000
0000
1100
0000
,
1000
0100
0001
0000
0100
0000
1100
0000
,
1000
0010
0100
0000
0001
0000
0101
0000
,
0001
0100
1000
0000
0100
0000
0101
0000
,
0001
0010
0100
0000
1000
0000
1100
0000
,
1000
0100
0001
0000
0100
0000
1000
0010
,
0000
0100
0001
0000
1000
0100
0001
0000
,
0100
1000
0000
1000
0010
0000
1000
0000
,
0100
0000
0001
0000
0100
1000
0000
1000
,
0010
1000
1001
0001
,
0100
0000
1000
0000
0100
0001
0000
0001
,
0010
0001
1001
0001
,
0010
0000
0100
0000
1000
0001
0000
1000
,
0001
1000
1001
1000
,
0010
0000
0100
0000
0001
1000
0000
0001
,
1000
0001
1001
0001
,
0010
0000
0100
0000
0000
1000
0000
1000
,
0000
0001
1001
0000
0000
0000
1000
0000
,
0010
0000
0100
0000
0000
0001
0000
0001
,
0000
1000
1001
0000
0000
0000
0001
0000
,
0010
0000
0100
0000
0000
1000
0000
1000
,
0000
0001
1001
0000
0001
0000
1001
0000
,
0000
0101
0000
0110
0110
1010
1001
0000
,
0000
0000
0001
0100
0001
0100
0010
0000
,
1000
0000
0100
0001
0000
0001
0100
0000
,
1100
0000
1000
0010
1000
0010
0100
0000
,
0001
0000
0010
1000
0000
1000
0010
0000
,
0011
0000
0001
0010
0001
0010
0001
0000
,
0100
0000
0010
0100
0000
0010
0100
0000
,
0110
0000
0010
0100
0000
0100
0001
0000
,
0001
0010
0100
1000
0000
1000
0100
0000
,
1100
0000
1000
0100
0000
0100
0010
0000
,
0010
0001
0100
0010
0000
0010
0000
0100
,
0001
0000
0001
0100
0000
0100
0010
0000
,
0010
1000
0001
0010
0000
0010
0000
0100
,
1000
0000
1000
0010
0000
1000
0010
0000
,
1000
0010
0100
0001
0000
0001
0000
1000
,
0001
0000
0100
0001
0000
0100
0001
0000
,
0010
0100
1000
0001
0000
1000
0001
0000
,
1001
0000
0001
0100
0001
0010
0001
0100
,
0001
0010
0000
0010
0001
0000
1001
0000
,
0000
0000
1000
0010
1000
0100
1000
0010
,
1000
0100
0000
0100
1000
0000
1001
0000
,
0000
0000
1000
0000
0000
0100
0001
0000
,
0100
1000
0000
1000
0000
0001
1000
0000
,
0000
0000
0001
0100
0001
0010
0001
0100
,
0001
0010
0000
0010
0001
0000
1001
0000
,
0001
0000
0101
0000
0001
0100
0001
0000
,
1000
0100
0001
0100
1000
0010
0100
0000
,
0010
0000
1010
0000
1000
0010
1000
0000
,
0001
0100
1000
0100
0001
0010
0100
0000
,
1000
0000
1001
0000
0001
1000
0001
0000
,
1000
0010
0100
0001
0010
0100
1000
0000
,
1001
0000
1000
0100
0010
0100
1000
0010
,
0001
0010
1000
0100
0010
0001
0001
0000
;

//---------------dance-single - ----------------
#NOTES:
     dance-single:
     :
     Easy:
     4:
     0.290,0.392,0.273,0.000,0.000,193.000,30.000,0.000,0.000,0.000,0.000,0.290,0.392,0.273,0.000,0.000,193.000,30.000,0.000,0.000,0.000,0.000: // measure 0
0000
0000
0000
0000
,  // measure 1
0000
0000
0000
0000
,  // measure 2
0000
0000
0000
0000
,  // measure 3
0000
0000
0000
0000
,  // measure 4
0000
0000
0000
0001
,  // measure 5
0000
0000
0001
0000
0000
0001
0000
0001
,  // measure 6
0000
0001
0000
1000
,  // measure 7
0000
0000
1000
0000
0000
1000
0000
1000
,  // measure 8
0000
1000
0000
0001
,  // measure 9
0010
0000
0100
0000
0000
1000
0000
0000
,  // measure 10
0001
1000
0000
1000
,  // measure 11
0010
0000
0100
0000
0000
0001
0000
0000
,  // measure 12
1000
0001
0000
0001
,  // measure 13
0000
1001
0000
1000
,  // measure 14
0000
1001
0000
0001
,  // measure 15
0000
0010
0000
0000
0100
0000
1000
0000
,  // measure 16
0000
0010
0000
0000
0100
0000
0001
0000
,  // measure 17
0000
0101
0000
0000
0001
0000
0010
0000
,  // measure 18
0000
0011
0000
0000
0010
0000
0100
0000
,  // measure 19
0000
0110
0000
0000
0100
0000
1000
0000
,  // measure 20
0000
1100
0000
0000
1000
0000
0010
0000
,  // measure 21
0000
1010
0000
0000
0010
0000
0100
0000
,  // measure 22
0000
0110
0000
0000
0100
0000
0001
0000
,  // measure 23
0000
0010
0000
0000
0100
0000
1000
0000
,  // measure 24
0000
0001
0000
0000
0000
0000
1000
0000
,  // measure 25
0100
0000
0001
0000
0000
0100
0000
0000
,  // measure 26
1000
0010
0000
0100
,  // measure 27
0001
0000
0100
0000
0000
1000
0000
0000
,  // measure 28
0100
0001
0000
0010
,  // measure 29
1000
0000
0010
0000
0000
0001
0000
0000
,  // measure 30
0010
0100
0000
1000
,  // measure 31
0010
0000
0100
0000
0000
0001
0000
0000
,  // measure 32
0100
0010
1000
0100
,  // measure 33
0000
0001
0000
0000
0100
0000
0000
1000
,  // measure 34
0000
0010
0100
0001
,  // measure 35
0000
0100
0000
0000
1000
0000
0000
0100
,  // measure 36
0000
0001
0010
0100
,  // measure 37
0000
1000
0000
0000
0010
0000
0000
0100
,  // measure 38
0000
0001
0010
0110
,  // measure 39
0000
1100
0000
1010
0110
0000
0101
0000
,  // measure 40
0000
0001
0010
0001
,  // measure 41
0000
0000
0100
0000
0000
0010
0000
0000
,  // measure 42
0000
1000
0100
1000
,  // measure 43
0000
0000
0010
0000
0000
0100
0000
0000
,  // measure 44
0000
0001
0010
0001
,  // measure 45
0000
0000
0100
0000
0000
0010
0000
0000
,  // measure 46
0000
0000
1000
0000
0000
0001
0000
0000
,  // measure 47
0010
0000
0100
0000
0000
1000
0000
0000
,  // measure 48
0000
0000
0001
0000
0000
0100
0000
0000
,  // measure 49
1000
0000
0100
0000
0000
0001
0000
0000
,  // measure 50
0000
0000
0010
0000
0000
0100
0000
0000
,  // measure 51
1000
0000
0010
0000
0000
0100
0000
0000
,  // measure 52
0000
0000
0001
0000
0000
0100
0000
0000
,  // measure 53
0010
0000
1000
0000
0000
0100
0000
0000
,  // measure 54
0000
0000
0010
0000
0000
0001
0000
0000
,  // measure 55
0100
0000
0010
0000
0000
1000
0000
0000
,  // measure 56
0000
0001
0000
0100
,  // measure 57
0000
0010
0000
0010
0000
0000
1000
0000
,  // measure 58
0000
1000
0000
0100
,  // measure 59
0000
0010
0000
0010
0000
0000
0001
0000
,  // measure 60
0000
1000
0000
0001
,  // measure 61
0000
1000
0000
0001
0000
0000
1000
0000
,  // measure 62
0000
0001
0000
1000
,  // measure 63
0000
0001
0000
1000
0000
0000
0001
0000
,  // measure 64
0100
0110
0010
1010
,  // measure 65
1000
1001
0001
1001
,  // measure 66
1000
1010
0010
0110
,  // measure 67
0100
0101
0001
0101
,  // measure 68
0001
0011
0010
0110
,  // measure 69
0100
1100
1000
1010
,  // measure 70
0010
0000
1010
0000
0000
1010
0000
0000
,  // measure 71
1100
0000
1100
0000
0000
0110
0000
0000
;
