#TITLE:Open Up To Me;
#SUBTITLE:;
#ARTIST:Studio Bongo Mango feat.MAYUKI&AKLO;
#TITLETRANSLIT:;
#SUBTITLETRANSLIT:;
#ARTISTTRANSLIT:;
#GENRE:;
#CREDIT:;
#BANNER:[Round 1] - Open Up To Me.png;
#BACKGROUND:[Round 1] - Open Up To Me-bg.png;
#LYRICSPATH:;
#CDTITLE:cdtitle.png;
#MUSIC:[Round 1] - Open Up To Me.mp3;
#OFFSET:-1.854;
#SAMPLESTART:42.700;
#SAMPLELENGTH:14.200;
#SELECTABLE:YES;
#BPMS:0.000=135.000
;
#STOPS:74.000=0.444,
87.500=0.444
;
#BGCHANGES:;
#KEYSOUNDS:;
#ATTACKS:;

//---------------dance-single - ----------------
#NOTES:
     dance-single:
     :
     Hard:
     8:
     0.503,0.446,0.223,0.286,0.196,284.000,21.000,27.000,0.000,0.000,0.000,0.503,0.446,0.223,0.286,0.196,284.000,21.000,27.000,0.000,0.000,0.000: // measure 0
0000
0000
0000
0000
,  // measure 1
0000
0000
0000
0000
,  // measure 2
0000
0000
0000
0000
0000
0000
0000
0000
0001
1000
0000
0001
0000
1000
0000
0000
,  // measure 3
0010
0000
1010
0000
0001
0010
0100
0010
,  // measure 4
0001
0000
0101
0000
0010
0100
1000
0100
,  // measure 5
0001
0000
0110
0000
1000
0100
0010
0100
,  // measure 6
1000
0000
0000
0001
0000
0000
0000
0000
0000
0000
0000
0000
0000
0000
0000
0000
0000
0000
0001
0000
1000
0001
0000
0000
,  // measure 7
1001
0010
0100
0000
1001
0100
0010
0000
,  // measure 8
0001
0100
0001
1000
0100
0010
0001
0000
,  // measure 9
0100
0010
1000
0010
0100
0001
0010
0100
,  // measure 10
0001
0100
0010
0001
1000
0100
0010
0000
,  // measure 11
0110
0000
1001
0000
0001
0100
0010
1000
,  // measure 12
0100
1000
0001
0010
0001
1000
0100
0100
,  // measure 13
0010
0100
1000
1000
0100
0010
0001
0100
,  // measure 14
0220
0000
0000
0330
,  // measure 15
1001
0000
0000
0000
1010
0000
0000
0000
0001
0000
1000
0000
0001
0100
0000
0100
,  // measure 16
0000
0000
0010
0000
1000
0000
0000
0000
0100
0010
0100
0010
0100
0000
0000
0000
,  // measure 17
1001
0000
0000
0000
1100
0000
0000
0000
1000
0000
0001
0000
0010
0100
0000
0100
,  // measure 18
0000
1000
0001
0000
1001
0000
0101
0000
,  // measure 19
1010
0000
0000
0000
0001
0000
0100
0000
0010
1000
0000
1000
0000
0000
0001
0000
,  // measure 20
1000
0000
0000
0000
0010
0100
0010
0100
0010
0000
0000
0000
1010
0000
0000
0000
,  // measure 21
0101
0000
0000
0000
0001
0000
0010
0000
0100
1000
0000
1000
0000
0000
0100
0000
,  // measure 22
0000
0000
0000
0000
0000
0000
0010
0000
0100
0010
0000
0000
0002
0000
0000
0000
0000
0000
0100
0000
0000
0000
0000
0000
,  // measure 23
0010
2003
3020
0100
,  // measure 24
2030
0010
3002
0100
,  // measure 25
0013
0000
1000
0000
0001
0100
0000
0001
0000
0000
0100
0000
0010
0000
0000
0000
,  // measure 26
1000
0001
0000
0100
0000
0110
0000
0000
2000
0000
0000
0000
0001
0000
0000
0000
,  // measure 27
0100
3020
0230
0010
,  // measure 28
0302
0100
2003
0010
,  // measure 29
3100
0000
0001
0000
1000
0010
0000
1000
0000
0000
0100
0000
0010
0000
0000
0000
,  // measure 30
0101
0000
0000
0000
0001
0100
1000
0100
,  // measure 31
0001
0010
1000
0010
0100
1000
0010
1000
,  // measure 32
0001
0000
0010
0000
0001
0000
0100
0000
0010
0000
1000
0100
1000
0000
0000
0000
,  // measure 33
0001
0100
0001
0100
0010
0000
0000
0000
1000
0000
0001
0000
0010
0000
0100
0000
,  // measure 34
0010
0001
1000
0000
0020
0000
0230
0000
,  // measure 35
0301
1000
0010
1000
0100
0010
0100
1000
,  // measure 36
0001
0010
0100
0010
0001
0010
1000
0010
,  // measure 37
0100
1000
0001
0100
0010
0001
1000
0100
,  // measure 38
0010
0100
1000
0001
0120
0000
1000
0000
,  // measure 39
0001
1030
0002
0100
,  // measure 40
2003
0010
3002
0100
,  // measure 41
0013
0000
1000
0000
0001
0100
0000
0001
0000
0000
1000
0000
0010
0000
0000
0000
,  // measure 42
0100
0001
0100
0001
0100
0000
0000
0000
0120
0000
0000
0000
0001
0000
0000
0000
,  // measure 43
1000
0031
2000
0010
,  // measure 44
3002
0100
2003
0010
,  // measure 45
3100
0000
0001
0000
1000
0010
0000
1000
0000
0000
0001
0000
0100
0000
0000
0000
,  // measure 46
0010
1000
0010
1000
0010
0000
0000
0000
2000
0000
0000
0000
0001
0000
0000
0000
,  // measure 47
0100
3020
0230
0001
,  // measure 48
0320
0100
2030
0000
,  // measure 49
3000
0000
0001
0000
0000
1000
0000
0100
0000
0000
0000
0000
0000
0000
0000
0000
;

//---------------dance-single - ----------------
#NOTES:
     dance-single:
     :
     Medium:
     6:
     0.379,0.367,0.170,0.244,0.011,211.000,16.000,23.000,0.000,0.000,0.000,0.379,0.367,0.170,0.244,0.011,211.000,16.000,23.000,0.000,0.000,0.000: // measure 0
0000
0000
0000
0000
,  // measure 1
0000
0000
0000
0000
,  // measure 2
0000
0000
0000
0000
,  // measure 3
1000
0000
0010
0000
1000
0100
1000
0000
,  // measure 4
0001
0000
0100
0000
0001
1000
0001
0000
,  // measure 5
0100
0000
0010
0000
1000
0100
1000
0000
,  // measure 6
0001
0001
0100
0100
,  // measure 7
0001
1000
0010
0000
0010
1000
0001
0000
,  // measure 8
1000
0001
0010
0000
0010
0001
1000
0000
,  // measure 9
0100
1000
0001
0000
0001
1000
0100
0000
,  // measure 10
1000
0001
0100
0001
0100
0001
1000
0000
,  // measure 11
1001
0000
0110
0000
0001
0100
0001
0000
,  // measure 12
1000
0010
0100
0000
0001
0100
0010
0000
,  // measure 13
1000
1000
0100
0000
0001
0001
0010
0000
,  // measure 14
0220
0000
0000
0330
,  // measure 15
1001
0000
0010
0000
1000
0001
1000
0001
,  // measure 16
0100
0100
0110
0000
,  // measure 17
1001
0000
0100
0000
0001
1000
0001
1000
,  // measure 18
0010
0110
1001
1001
,  // measure 19
0100
0000
0010
1000
0010
1000
0001
0000
,  // measure 20
1000
0110
0000
1001
,  // measure 21
0010
0000
0100
0001
0100
0001
1000
0000
,  // measure 22
0000
0000
0002
0100
,  // measure 23
0100
1003
2000
0100
,  // measure 24
0002
3003
0200
0010
,  // measure 25
0010
0301
1000
0001
,  // measure 26
0110
0000
0020
1000
,  // measure 27
1000
0130
2000
0100
,  // measure 28
0002
3003
0200
0001
,  // measure 29
0001
0310
1000
0100
,  // measure 30
1001
0000
0000
0000
0001
0001
0001
0000
,  // measure 31
1000
1000
1000
0000
0010
1000
0010
0000
,  // measure 32
0100
0001
0100
0000
0010
1000
0100
0000
,  // measure 33
0100
0010
0001
0000
0100
0010
1000
0000
,  // measure 34
1000
0001
0100
0000
0002
0000
2003
0000
,  // measure 35
3010
0010
0010
0000
1000
0100
1000
0000
,  // measure 36
0001
0100
0001
0000
1000
0010
0100
0000
,  // measure 37
0001
0010
0100
0000
1000
0100
0010
0001
,  // measure 38
0010
0100
1000
0000
0002
0000
0100
0000
,  // measure 39
1000
0013
2000
0100
,  // measure 40
0002
3003
0200
0010
,  // measure 41
0001
0310
1000
0001
,  // measure 42
0110
0000
2000
0010
,  // measure 43
0001
3100
0002
0010
,  // measure 44
2000
3003
0020
0100
,  // measure 45
1000
0130
0001
0100
,  // measure 46
1001
1001
2000
0100
,  // measure 47
0000
3100
0002
0100
,  // measure 48
2000
3003
0010
0000
,  // measure 49
0000
0000
0010
0000
0000
0010
0000
0010
0000
0000
0000
0000
0000
0000
0000
0000
;

//---------------dance-single - ----------------
#NOTES:
     dance-single:
     :
     Easy:
     4:
     0.301,0.288,0.180,0.180,0.000,165.000,17.000,17.000,0.000,0.000,0.000,0.301,0.288,0.180,0.180,0.000,165.000,17.000,17.000,0.000,0.000,0.000: // measure 0
0000
0000
0000
0000
,  // measure 1
0000
0000
0000
0000
,  // measure 2
0000
0000
0000
0000
,  // measure 3
1000
0001
0100
0100
,  // measure 4
0001
1000
0100
0100
,  // measure 5
1000
0010
0100
0001
,  // measure 6
1000
1000
0001
0001
,  // measure 7
0100
0100
0100
0000
0010
0010
0010
0000
,  // measure 8
1000
0001
0100
0010
,  // measure 9
1000
1000
1000
0000
0001
0001
0001
0000
,  // measure 10
0100
0001
1000
1001
,  // measure 11
0110
1001
1000
0100
,  // measure 12
1000
0001
0100
0001
,  // measure 13
1000
0100
0001
0010
,  // measure 14
2002
0000
3003
0000
,  // measure 15
1000
0001
0100
0001
,  // measure 16
1000
0010
1001
0000
,  // measure 17
0001
1000
0100
1000
,  // measure 18
0001
0100
1001
1000
,  // measure 19
0010
1000
0001
0100
,  // measure 20
0001
0110
0000
0001
,  // measure 21
0010
0001
1000
0100
,  // measure 22
0000
0000
2000
0000
,  // measure 23
0000
3020
0230
0000
,  // measure 24
0302
0000
1003
0001
,  // measure 25
1000
0001
0110
0000
,  // measure 26
1001
0000
0002
0000
,  // measure 27
0000
0023
0230
0000
,  // measure 28
2300
0000
3001
1000
,  // measure 29
0001
1000
0010
0100
,  // measure 30
1001
0000
0001
0100
,  // measure 31
1000
0100
0001
0010
,  // measure 32
1000
0000
0010
0000
0001
0001
0001
0000
,  // measure 33
1000
1000
1000
0000
0010
0000
0100
0000
,  // measure 34
0010
0100
0002
2003
,  // measure 35
3100
0010
0001
0100
,  // measure 36
0010
1000
0001
0100
,  // measure 37
1000
0010
0001
0010
,  // measure 38
1000
0100
1001
0001
,  // measure 39
0001
0100
0010
0010
,  // measure 40
1000
1000
0001
1000
,  // measure 41
0001
1000
0110
0110
,  // measure 42
1001
0000
1000
1000
,  // measure 43
1000
0100
0010
0010
,  // measure 44
0001
0001
1000
0001
,  // measure 45
1000
0001
0110
0110
,  // measure 46
1001
0000
0002
0000
,  // measure 47
0000
2003
3200
0000
,  // measure 48
0320
0000
0032
0000
,  // measure 49
0000
0000
0000
0000
0000
0000
0000
0003
0000
0000
0000
0000
0000
0000
0000
0000
;

//---------------dance-single - ----------------
#NOTES:
     dance-single:
     :
     Beginner:
     2:
     0.132,0.183,0.042,0.212,0.000,63.000,4.000,20.000,0.000,0.000,0.000,0.132,0.183,0.042,0.212,0.000,63.000,4.000,20.000,0.000,0.000,0.000: // measure 0
0000
0000
0000
0000
,  // measure 1
0000
0000
0000
0000
,  // measure 2
0000
0000
0000
0000
,  // measure 3
1000
0000
0000
0000
,  // measure 4
0001
0000
0000
0000
,  // measure 5
1000
0000
0000
0000
,  // measure 6
1001
0000
0000
0000
,  // measure 7
0010
0000
0000
0000
,  // measure 8
0010
0000
0000
0000
,  // measure 9
0100
0000
0000
0000
,  // measure 10
0100
0000
0000
0000
,  // measure 11
0001
0000
0001
0000
,  // measure 12
1000
0000
0000
0000
,  // measure 13
0010
0000
0000
0000
,  // measure 14
2002
0000
3003
0000
,  // measure 15
1000
0000
0001
0000
,  // measure 16
1000
0000
0000
0000
,  // measure 17
0001
0000
1000
0000
,  // measure 18
0001
0000
0000
0000
,  // measure 19
0000
0010
0000
0010
,  // measure 20
0000
0000
0000
0100
,  // measure 21
0000
0100
0000
0100
,  // measure 22
0000
0000
0002
0000
,  // measure 23
0003
0000
2000
0000
,  // measure 24
3000
0000
0020
0000
,  // measure 25
0000
0000
0030
0000
,  // measure 26
0100
0000
0002
0000
,  // measure 27
0003
0000
2000
0000
,  // measure 28
3000
0000
0200
0000
,  // measure 29
0000
0000
0300
0000
,  // measure 30
0000
0000
0001
0000
,  // measure 31
0000
0000
1000
0000
,  // measure 32
0000
0000
0001
0000
,  // measure 33
0001
0000
1000
0000
,  // measure 34
1000
0000
0010
0010
,  // measure 35
0000
0000
0100
0100
,  // measure 36
0000
0000
0001
0000
,  // measure 37
1000
0000
1001
0000
,  // measure 38
0000
0000
2000
3000
,  // measure 39
0000
0001
2000
3000
,  // measure 40
0002
0003
0200
0000
,  // measure 41
0300
0000
0001
0000
,  // measure 42
1000
0000
0002
0003
,  // measure 43
0000
1000
0002
0003
,  // measure 44
2000
3000
0020
0000
,  // measure 45
0030
0000
1000
0000
,  // measure 46
1001
0000
0002
0000
,  // measure 47
0003
0100
0020
0000
,  // measure 48
2030
0000
0002
0000
,  // measure 49
0000
0000
0000
0000
0000
0000
0000
3003
0000
0000
0000
0000
0000
0000
0000
0000
;

//---------------dance-double - ----------------
#NOTES:
     dance-double:
     :
     Hard:
     8:
     0.491,0.446,0.201,0.286,0.244,278.000,19.000,27.000,0.000,0.000,0.000,0.491,0.446,0.201,0.286,0.244,278.000,19.000,27.000,0.000,0.000,0.000:
00000000
00000000
00000000
00000000
,
00000000
00000000
00000000
00000000
,
00000000
00000000
00000000
00000000
00000000
00000000
00000000
00000000
00010000
00001000
00000000
00010000
00000000
00001000
00000000
00000000
,
00010000
00001000
00000100
00000000
00000001
00000010
00000100
00001000
,
00000000
00000010
00000100
00000001
00001000
00000100
00010000
00010000
,
00000000
00001000
00100000
00010000
01000000
10000000
01000000
01000000
,
00010000
10000000
01000000
00010000
00001000
00000100
00000010
00000000
,
00001000
00000001
00001001
00000000
00000001
00000100
00000110
00000000
,
00000010
00000100
00001000
00010000
00100000
01000000
00010000
00000000
,
10000000
00010000
10000000
00100000
10000000
01000000
00100000
00010000
,
01000000
00010000
00100000
00001000
00010000
00000100
00000010
00000000
,
00000011
00000000
00001100
00000000
00001000
00000100
00010000
00010000
,
00000100
00010000
00001000
00010000
00001000
01000000
00100000
00100000
,
10000000
00100000
01000000
01000000
00010000
00100000
00001000
00010000
,
00022000
00000000
00000000
00033000
,
00010100
00000000
00000000
00000000
00010000
00000000
00000000
00000000
00000000
00000000
00000010
00000000
00000000
00001000
00000000
00000001
,
00000000
00000010
00000000
00000000
00001000
00000000
00000000
00000000
00010000
00001000
00010000
00001000
00010000
00000000
00000000
00000000
,
00101000
00000000
00000000
00000000
00001000
00000000
00000000
00000000
00000000
00000000
01000000
00000000
00000000
00010000
00000000
10000000
,
00000000
00100000
00000000
00000000
00010000
00000000
00000000
00000000
00011000
00000000
00000000
00000000
00010010
00000000
00000000
00000000
,
00010000
00000000
00000000
00000000
00000000
00000000
00000100
00000000
00000000
00010000
00000000
00001000
00000000
01000000
00000000
00000000
,
00100000
00000000
00000000
00000000
00010000
00001000
00010000
00001000
00010000
00000000
00000000
00000000
01001000
00000000
00000000
00000000
,
00001000
00000000
00000000
00000000
00000000
00000000
00100000
00000000
00000000
00001000
00000000
00010000
00000000
00000000
00000000
00000000
,
00001000
00010000
00001000
00010000
00001000
00000000
00000000
00000000
00012000
00000000
00000000
00000000
00010000
00000000
00000000
00000000
,
00000100
00003200
00000302
00000010
,
00002003
00000000
00003200
00010000
,
00000300
00000000
00010000
00000000
00000000
00001000
00000000
00010000
00000000
00001000
00010000
00000000
00011000
00000000
00000000
00000000
,
00100000
00010000
00000000
01000000
00000000
00100000
00000000
00000000
00021000
00000000
00000000
00000000
00001000
00000000
00000000
00000000
,
01000000
02030000
23000000
00100000
,
30020000
00000000
00230000
00001000
,
00300000
00000000
00001000
00000000
00000000
00010000
00000000
00001000
00000000
00010000
00001000
00000000
00010000
00000000
00002000
00000000
,
00000100
00003000
00000000
00000000
00000001
00000100
00000001
00000100
,
00000010
00001000
00000010
00001000
00000100
00010000
00000100
00010000
,
00001000
00000000
00100000
00000000
00001000
00000000
00100000
00000000
00010000
00000000
10000000
01000000
10000000
00000000
00000000
00000000
,
00010000
01000000
00010000
01000000
00010000
00000000
00000000
00000000
10000000
00000000
00100000
00000000
00010000
00000000
00001000
00000000
,
00000100
00000001
00000010
00000000
00000110
00000000
00001001
00000000
,
00000001
00000100
00000010
00000010
00001000
00000100
00010000
00001000
,
00100000
00010000
10000000
01000000
10000000
00100000
01000000
01000000
,
00010000
10000000
00100000
00100000
10000000
01000000
00010000
00001000
,
00000010
00000001
00000100
00001000
00012000
00000000
00100000
00000000
,
00010000
00003200
00000302
00000100
,
00001003
00000001
00001000
00000001
00001000
00000000
00000000
00000000
00000020
00000000
00000000
00000000
00001000
00000000
00000000
00000000
,
00000130
00000000
00000100
00000000
00000000
00000001
00000000
00000100
00000000
00001000
00010000
00000000
00011000
00000000
00000000
00000000
,
00001000
00010000
00001000
00010000
00001000
00000000
00000000
00000000
00021000
00000000
00000000
00000000
00000010
00000000
00000000
00000000
,
00001000
02030000
23000000
01000000
,
30020000
00000000
02030000
00010000
,
03100000
00000000
00100000
00000000
00000000
10000000
00000000
01000000
00000000
00010000
00001000
00000000
00011000
00000000
00000000
00000000
,
00001000
00010000
00001000
00010000
00001000
00000000
00000000
00000000
00020000
00000000
00000000
00000000
00000100
00000000
00000000
00000000
,
00000000
00030200
00002300
00000000
,
02003000
00000000
03200000
00000000
,
00300000
00000000
00001000
00000000
00000000
00010000
00000000
00001000
00000000
00000000
00000000
00000000
00000000
00000000
00000000
00000000
;

//---------------dance-double - ----------------
#NOTES:
     dance-double:
     :
     Medium:
     6:
     0.386,0.367,0.180,0.233,0.011,216.000,17.000,22.000,0.000,0.000,0.000,0.386,0.367,0.180,0.233,0.011,216.000,17.000,22.000,0.000,0.000,0.000:
00000000
00000000
00000000
00000000
,
00000000
00000000
00000000
00000000
,
00000000
00000000
00000000
00000000
,
10000000
00010000
01000000
00000000
00010000
00100000
00010000
00000000
,
01000000
00010000
00100000
00000000
00001000
00010000
00001000
00000000
,
00010000
00000100
00001000
00000000
00000010
00000100
00000010
00000000
,
00001000
00000100
00000010
00000001
,
00000100
00000001
00000010
00000000
00000010
00000001
00000100
00000000
,
00001000
00010000
00100000
00000000
00100000
00010000
00001000
00000000
,
00100000
00010000
01000000
00000000
01000000
00010000
00100000
00000000
,
00010000
01000000
00100000
01000000
00010000
00100000
00001000
00000000
,
00011000
00000000
00011000
00000000
00001000
00010000
00000100
00000000
,
00001000
00000010
00000100
00000000
00000001
00001000
00000100
00000000
,
00010000
00010000
00010000
00000000
00001000
00001000
00001000
00000000
,
00022000
00000000
00000000
00033000
,
00011000
00000000
00010000
00000000
00100000
01000000
00100000
01000000
,
00010000
10000000
10010000
00000000
,
00011000
00000000
00001000
00000000
00000100
00000010
00000100
00000010
,
00001000
00000001
00001001
00001100
,
00000100
00000000
00010000
00001000
00010000
00001000
00100000
00000000
,
00010000
10010000
00000000
00110000
,
00100000
00000000
00001000
00010000
00001000
00010000
00001000
00000000
,
00000000
00000000
00020000
00001000
,
00001000
00030200
00002300
00000010
,
00003020
00000000
00000130
00000001
,
00001000
00000010
00001000
00000010
00000100
00000000
00001000
00000000
,
00011000
00000000
00002000
00010000
,
00010000
00203000
00320000
01000000
,
02030000
00000000
03100000
10000000
,
00010000
01000000
00010000
01000000
00100000
00000000
00010000
00000000
,
00011000
00000000
00000000
00000000
00001000
00001000
00001000
00000000
,
00010000
00010000
00010000
00000000
00100000
00100000
00100000
00000000
,
10000000
10000000
10000000
00000000
01000000
00100000
00010000
00000000
,
01000000
00100000
00010000
00000000
00001000
00010000
00001000
00000000
,
00010000
00001000
00010000
00000000
00011000
00000000
00010100
00000000
,
00000100
00000100
00000100
00000000
00000010
00000010
00000010
00000000
,
00000001
00000001
00000001
00000000
00000100
00000010
00001000
00000000
,
00000100
00000010
00000001
00000000
00000100
00000000
00001000
00000000
,
00010000
00011000
00000200
00010000
,
00001000
00020300
00032000
00100000
,
00020000
00033000
00001000
00100000
,
00010000
01000000
00010000
01000000
00100000
00000000
10000000
00000000
,
10010000
00000000
00200000
00001000
,
00010000
00302000
00023000
00000100
,
00002000
00033000
00010000
00000100
,
00000010
00000001
00000010
00000001
00000100
00000000
00000010
00000000
,
00001001
00000000
00000002
00000000
,
00000000
00000203
00002300
00000000
,
00023000
00000000
00130000
00000000
,
00000000
00000000
10000000
00000000
00000000
10000000
00000000
10000000
00000000
00000000
00000000
00000000
00000000
00000000
00000000
00000000
;

//---------------dance-double - ----------------
#NOTES:
     dance-double:
     :
     Easy:
     4:
     0.298,0.288,0.233,0.138,0.000,162.000,22.000,13.000,0.000,0.000,0.000,0.298,0.288,0.233,0.138,0.000,162.000,22.000,13.000,0.000,0.000,0.000:
00000000
00000000
00000000
00000000
,
00000000
00000000
00000000
00000000
,
00000000
00000000
00000000
00000000
,
10000000
10000000
01000000
00100000
,
00010000
00010000
01000000
00100000
,
00010000
00010000
00001000
00000100
,
00000001
00000001
00001000
00001000
,
00001001
00000000
00011000
00000000
,
10010000
00000000
00011000
00000000
,
00001000
00010000
00001000
00001000
,
00000100
00000001
00000010
00001001
,
00000110
00001001
00000001
00000100
,
00001000
00010000
00001000
00000100
,
00001000
00001000
00001000
00000000
00010000
00010000
00010000
00000000
,
00011000
00000000
00000000
00000000
,
00001000
00010000
00000100
00000100
,
00001000
00000010
00000110
00000000
,
00000001
00000100
00000010
00000010
,
00001000
00000100
00001100
00000100
,
00010000
00001000
00001000
00100000
,
00010000
10010000
00000000
10000000
,
00100000
01000000
01000000
00010000
,
00000000
00000000
20000000
00000000
,
00000000
30020000
00230000
00000000
,
00302000
00000000
00013000
00011000
,
00001000
00000100
00000010
00001000
,
00001001
00000000
00000002
00000000
,
00000000
00002003
00003200
00000000
,
00020300
00000000
00031000
00011000
,
00010000
00100000
01000000
00010000
,
10010000
00000000
10000000
01000000
,
00100000
00010000
01000000
00100000
,
00010000
00001000
00000100
00000001
,
00000010
00000010
00000010
00000000
00000001
00000001
00000001
00000000
,
00001000
00001000
00001000
00000000
00000110
00000000
00001001
00000000
,
00000001
00001000
00000010
00000100
,
00001000
00000000
00010000
00000000
00001000
00010000
00001000
00000000
,
00010000
00001000
00010000
00000000
00000100
00000000
00010000
00000000
,
00001000
00100000
00101000
00001000
,
00001000
00010000
00000010
00000100
,
00001000
00000000
00101000
00100000
,
00100000
00010000
10000000
01000000
,
00010000
00000000
00010100
00010000
,
00010000
00001000
01000000
00100000
,
00010000
00000000
00010100
00000100
,
00000100
00001000
00000001
00000010
,
00001000
00010000
00012000
00000000
,
00000000
00203000
00320000
00000000
,
20030000
00000000
32000000
00000000
,
00000000
00000000
00000000
00000000
00000000
00000000
00000000
03000000
00000000
00000000
00000000
00000000
00000000
00000000
00000000
00000000
;
