#TITLE:New Lights;
#SUBTITLE:;
#ARTIST:kors k;
#TITLETRANSLIT:;
#SUBTITLETRANSLIT:;
#ARTISTTRANSLIT:;
#GENRE:;
#CREDIT:;
#MENUCOLOR:;
#METERTYPE:DDR;
#BANNER:[Round 1] - New Lights.png;
#BACKGROUND:[Round 1] - New Lights-bg.png;
#LYRICSPATH:;
#CDTITLE:;
#MUSIC:[Round 1] - New Lights.mp3;
#OFFSET:-1.412;
#SAMPLESTART:100.140;
#SAMPLELENGTH:12.000;
#SELECTABLE:YES;
#LISTSORT:;
#BPMS:0.000=175.000,119.500=87.500,123.000=175.000,139.500=87.500,140.000=175.000;
#STOPS:95.000=0.171
,123.750=0.171
;
#BGCHANGES:;
#ATTACKS:;

//---------------dance-single - ----------------
#NOTES:
     dance-single:
     :
     Hard:
     9:
     0.670,0.807,0.330,0.259,0.145:
0000
0000
0000
0000
,
0000
0000
0000
0000
,
0000
0000
0000
0000
,
0000
0000
0000
0000
,
0000
0000
0000
0000
,
0000
0000
0000
0000
,
0000
0000
0000
0000
,
0000
0000
0000
0000
,
2020
0000
0000
0000
0030
0000
3002
0200
,
0000
0000
0003
0000
0310
0100
0001
0010
,
0000
0000
0210
0000
0310
0001
2000
0200
,
0000
0000
3300
1010
0000
1000
0010
1000
,
2100
0000
0010
0000
3001
0200
0310
0120
,
0000
0000
0000
0000
1000
0000
1030
0100
1000
0000
0100
0000
0010
0000
0002
0000
,
0000
0003
1001
1000
0010
0100
0001
0101
,
0000
0110
0000
1100
0000
1001
1001
0000
,
1000
0010
0100
0000
0100
0010
1000
0000
,
0100
1000
0001
0000
0001
1000
0100
0000
,
1000
0100
0010
0000
0010
0100
1000
0000
,
0001
0010
1000
0000
1000
0010
0001
0000
,
1000
0010
0100
0001
1000
0010
0100
0001
,
1000
0100
0010
0001
1000
0100
0010
0001
,
1000
0010
0100
0001
0010
0100
0010
0001
,
0100
0010
0100
0010
0100
0010
0100
0010
0100
0010
0100
0010
0100
0000
1001
0000
,
0000
1000
1000
0000
0010
1000
0100
0000
,
0010
0100
1000
0000
0010
0100
0001
0000
,
0000
0010
0010
0000
0001
0100
0010
0000
,
1000
0100
0010
0000
0001
1000
0010
0110
,
0000
0100
0100
0000
0010
0100
0001
0000
,
0010
0000
0001
0000
1000
0000
0000
0000
0001
0000
1001
0000
0000
0000
0110
0010
,
1000
0000
0100
0000
0000
0010
0000
0000
0100
0000
1000
0000
0010
0000
0100
0000
0001
0000
0010
0000
0100
0000
0010
0000
0120
0000
0000
0000
0000
0000
0031
0000
,
0000
1001
0001
0000
0100
0010
0001
0010
,
1000
0100
0010
0100
1000
0010
0100
0000
,
0000
0010
0010
0000
0100
0010
1000
0100
,
0010
0100
0010
0001
0100
0010
1000
0020
,
0130
0100
0000
0010
0100
0010
1000
0010
,
0100
0001
0010
0100
0010
0001
1001
0001
,
0100
0000
0010
1000
0000
0010
0100
0000
0010
0000
0100
0000
0001
0000
0100
0000
,
0010
0000
1000
0100
0000
1000
0010
0000
0100
0010
0100
0010
0100
0000
0000
0010
,
0100
0000
0001
0000
1000
0100
1000
0100
0000
0000
1000
0000
0010
0000
0100
0000
,
0001
0000
0100
0010
1000
0100
2000
3010
,
1010
0000
1000
0001
0100
0010
0000
0100
,
0001
0000
0010
0100
0010
0000
0001
0000
1000
0000
0001
0000
0201
0000
0000
0000
,
0310
0000
1000
0000
0100
0000
0010
0000
0001
0000
1000
0100
1000
0000
0100
0010
,
0100
0000
0000
0000
0010
0000
0001
0000
1000
0010
1000
0010
1000
0000
0001
0000
,
0010
0100
1000
0010
0000
0101
0000
1010
,
0000
0000
1100
0000
0000
0000
0010
0000
1000
0000
0001
0000
1001
0000
0000
0001
,
0010
0000
0100
0000
0010
0000
0000
0000
0100
0000
1000
0000
0001
0010
0100
0010
,
0001
0000
2000
3200
0320
0032
0103
0010
,
1000
0100
0010
0100
1000
0020
0000
0000
,
0130
0001
1000
0100
0010
0220
0000
0330
,
1001
0000
0001
0100
0010
0100
0001
0010
,
0100
0000
0010
0001
0100
0010
1000
0000
,
0001
1000
0010
0001
0100
2000
0000
3001
,
0100
0000
0010
0000
1000
0100
1000
0000
1001
0000
0000
0000
0220
0000
0000
0000
,
0000
0000
0300
0000
2030
0200
0000
0000
,
0000
0000
3300
0000
,
0022
0000
0030
0000
0203
0020
0000
0300
,
0000
1030
0000
0001
0010
0001
1001
0000
,
1000
0100
0000
1000
0001
0101
0000
0100
,
0001
0000
0010
0100
0010
0000
0100
0000
0000
0000
1000
0000
0001
0000
0000
0000
,
0110
0100
0001
0010
0000
0101
0000
1010
,
0000
1100
0000
1001
1001
0000
0001
0001
,
0000
0100
0000
0010
0000
1000
0000
0100
,
0000
0010
0000
0100
1000
0010
0000
0100
,
0000
0010
0000
1000
0000
0001
0000
0010
,
0000
0100
0000
0010
0100
1000
0010
0010
,
0000
0100
0000
0010
0000
1000
0000
0001
,
0000
0010
0000
0001
0010
0100
0000
1000
,
0000
0100
0000
0010
0000
0100
0110
0000
,
1000
0000
0001
0000
1000
0100
1000
0000
1001
0000
0000
0000
0110
0000
0100
0000
,
0001
0010
0100
0010
0001
0100
0010
1000
,
0100
0010
0001
0010
1000
0010
0001
0100
,
0010
0100
0001
1000
0010
0100
0001
1000
,
0100
1000
0001
0100
1000
0100
0001
1000
,
0100
0010
0100
1000
0010
0100
0001
1000
,
0010
1000
0001
0100
1000
0100
0001
0100
,
0010
1000
0100
0010
0001
0100
0000
0010
,
0100
0000
0000
0000
0001
0000
0000
0100
0010
0000
1000
0000
0000
0000
0000
0000
,
1001
0001
0100
0010
1000
0100
0010
0100
,
1000
0010
1000
0010
0001
0010
1000
0100
,
1000
0010
0100
0001
0010
0100
1000
0001
,
0100
0010
1000
0100
0001
0100
1000
0010
,
0100
0001
0010
0001
0100
0010
1000
0100
,
0010
0100
1000
0100
0001
0100
1000
0010
,
1000
0100
0010
0100
1000
0010
0000
0100
,
0000
0000
0001
0000
0000
0000
0010
0100
0010
0000
0001
0000
2002
0000
0000
0000
,
0000
0000
0000
0000
,
0000
0000
0000
0000
,
0000
3003
0000
0000
;

//---------------dance-single - ----------------
#NOTES:
     dance-single:
     :
     Medium:
     7:
     0.523,0.596,0.244,0.212,0.016: // measure 1
0000
0000
0000
0000
,  // measure 2
0000
0000
0000
0000
,  // measure 3
0000
0000
0000
0000
,  // measure 4
0000
0000
0000
0000
,  // measure 5
0000
0000
0000
0000
,  // measure 6
0000
0000
0000
0000
,  // measure 7
0000
0000
0000
0000
,  // measure 8
0000
0000
0000
0000
,  // measure 9
2002
0000
0000
0000
0003
0000
3020
0200
,  // measure 10
0000
0000
0030
0000
0301
0010
0100
1000
,  // measure 11
0000
0000
2100
0000
3010
0100
0002
0020
,  // measure 12
0000
0033
0000
0110
0000
0010
0001
0000
,  // measure 13
0102
0000
0100
0000
0013
0100
0000
2010
,  // measure 14
0000
0000
0000
0000
0000
3001
0010
0100
,  // measure 15
0000
0000
1002
0000
1003
0010
0000
0110
,  // measure 16
0000
0101
0000
0011
0000
1000
0001
0000
,  // measure 17
1000
0100
1000
0000
0100
1000
0100
0000
,  // measure 18
1000
0001
1000
0000
0001
1000
0001
0000
,  // measure 19
0100
0001
0100
0000
0001
0100
0001
0000
,  // measure 20
0100
0010
0100
0000
0010
0100
0010
0000
,  // measure 21
1000
0010
0100
0000
0010
0100
0001
0000
,  // measure 22
0001
0010
0100
0000
0010
0100
1000
0000
,  // measure 23
1000
0100
1000
0100
0010
0001
0010
0001
,  // measure 24
1000
0100
0010
0001
1000
0010
0100
0110
,  // measure 25
0000
0100
0001
0000
0010
0000
0100
0000
,  // measure 26
0010
0001
0100
0010
,  // measure 27
0000
0100
0001
0000
1000
0000
0100
0000
,  // measure 28
0010
0000
0100
0000
0010
0000
0001
0100
,  // measure 29
0000
0010
0100
0000
0001
0000
1000
0000
,  // measure 30
0100
0000
0000
0000
1000
0000
0000
0000
0010
0000
0100
0000
0000
0000
0010
0100
,  // measure 31
0001
0000
0010
0000
0100
0000
0010
0001
0100
0000
0010
1000
0200
0000
0000
0310
,  // measure 32
0000
0100
1000
0000
0100
0010
0100
0000
,  // measure 33
1000
0010
1000
0000
0010
0100
0010
0000
,  // measure 34
0000
1000
0001
0000
0010
0001
0010
0000
,  // measure 35
0001
0100
0001
0000
0100
0010
0100
0020
,  // measure 36
1030
0100
0000
0010
0001
0010
0000
0001
,  // measure 37
0100
0001
0000
0100
0010
0000
0100
0001
,  // measure 38
1000
0000
0100
0000
0010
0000
0001
0100
,  // measure 39
0010
0000
1000
0100
0010
0000
1001
0000
,  // measure 40
0001
0100
0020
0000
0130
0001
0000
1001
,  // measure 41
0000
0000
1000
0100
0010
0100
1000
0000
,  // measure 42
1010
0000
0010
0100
0001
0010
0000
0100
,  // measure 43
0000
0010
0001
0100
0010
0000
0210
0000
,  // measure 44
0301
0000
1000
0100
0010
0100
0000
0010
,  // measure 45
0001
0000
0100
0010
1000
0000
0101
0000
,  // measure 46
0001
0010
0100
0010
0000
0110
0000
0101
,  // measure 47
0000
1010
0000
1000
0001
0000
0011
0000
,  // measure 48
0010
0000
0100
1000
0010
0100
0000
0000
,  // measure 49
0110
0000
0001
0010
0100
1000
0000
0001
,  // measure 50
0100
0000
0001
0100
0010
2000
0000
0000
,  // measure 51
3100
0010
0001
0000
0100
0020
0000
0000
,  // measure 52
0130
0000
0001
0010
0100
0010
0000
0100
,  // measure 53
1000
0000
0001
0100
0001
0010
0000
0000
,  // measure 54
0001
0100
0010
1000
0100
1000
0000
0001
,  // measure 55
0010
0100
0010
0000
1001
0000
2020
0000
,  // measure 56
0000
0000
3000
0000
0230
0020
0000
0000
,  // measure 57
0000
0000
0330
0000
,  // measure 58
0202
0000
0300
0000
2003
0002
0000
3000
,  // measure 59
0000
0103
0000
0010
1000
0000
1100
0000
,  // measure 60
0010
0000
0100
0001
0000
1001
0000
1000
,  // measure 61
0010
0000
0100
0001
0000
0010
0100
0000
,  // measure 62
0110
0000
0100
1000
0000
1100
0000
0011
,  // measure 63
0000
0101
0000
0001
1000
0000
1000
0010
,  // measure 64
0000
0100
0000
0001
0000
0010
0000
0100
,  // measure 65
0000
0010
0000
0001
0100
0010
0000
0100
,  // measure 66
0000
0001
0000
1000
0000
0100
0000
0010
,  // measure 67
0000
0100
0000
0010
0001
0100
0001
0100
,  // measure 68
0000
0010
0000
0100
0000
0001
0000
1000
,  // measure 69
0000
0100
0000
1000
0010
0100
0000
0001
,  // measure 70
0000
0010
0000
0100
0000
0010
0002
0000
,  // measure 71
0010
0000
0100
0000
1003
0000
0010
0100
,  // measure 72
0000
0001
0010
0100
0000
0010
0001
0100
,  // measure 73
0000
0001
0000
0010
0100
1000
0000
0010
,  // measure 74
1000
0001
0000
0100
0001
0010
0000
0100
,  // measure 75
0010
0001
0000
0100
0001
1000
0100
1000
,  // measure 76
0000
0010
0100
0001
0000
0010
0100
0010
,  // measure 77
0000
0001
0000
0100
0010
1000
0000
0100
,  // measure 78
0010
0001
0000
0100
0010
1000
0000
0001
,  // measure 79
0100
0000
0001
0000
1000
0010
0000
0000
,  // measure 80
0110
0000
0100
0000
0001
0010
0100
0000
,  // measure 81
0010
0000
0001
0100
0010
1000
0100
0000
,  // measure 82
1000
0000
0001
0100
0001
0010
0100
0000
,  // measure 83
0010
0000
0001
0100
0001
1000
0010
0000
,  // measure 84
1000
0000
0100
0010
0100
0010
0001
0000
,  // measure 85
0100
0000
0010
0100
0001
1000
0100
0000
,  // measure 86
1000
0100
0010
0001
0000
1000
0000
0010
,  // measure 87
0000
0100
0000
0001
0010
0000
0220
0000
,  // measure 88
0000
0000
0000
0000
,  // measure 89
0000
0000
0000
0000
,  // measure 90
0000
0330
0000
0000
;

//---------------dance-single - ----------------
#NOTES:
     dance-single:
     :
     Easy:
     5:
     0.450,0.596,0.299,0.456,0.000: // measure 1
0000
0000
0000
0000
,  // measure 2
0000
0000
0000
0000
,  // measure 3
0000
0000
0000
0000
,  // measure 4
0000
0000
0000
0000
,  // measure 5
0000
0000
0000
0000
,  // measure 6
0000
0000
0000
0000
,  // measure 7
0000
0000
0000
0000
,  // measure 8
0000
0000
0000
0000
,  // measure 9
2002
0000
0000
0000
0003
3000
0020
0200
,  // measure 10
0000
0030
0301
0010
,  // measure 11
0000
0000
2200
0000
0300
3000
0002
0020
,  // measure 12
0000
0033
0000
0101
0000
0010
1000
0000
,  // measure 13
2001
0000
0010
0000
3100
1000
0000
1020
,  // measure 14
0000
0000
0100
0000
0000
1030
0010
0000
,  // measure 15
0000
0000
1001
0000
1000
0010
0000
0110
,  // measure 16
0000
1001
0000
0110
0000
0100
0010
0000
,  // measure 17
2000
3001
0002
1003
,  // measure 18
0020
0130
0200
0310
,  // measure 19
2000
3100
0200
1300
,  // measure 20
0002
0103
0200
0301
,  // measure 21
2000
3200
0320
0032
,  // measure 22
2003
3200
0320
0032
,  // measure 23
0103
0010
0100
0000
0010
0100
0010
0000
,  // measure 24
1000
0001
1000
0001
1000
0001
1000
1001
,  // measure 25
0000
2100
0000
0000
3010
0000
0100
0000
,  // measure 26
0001
0010
0100
0010
,  // measure 27
0000
0012
0000
0000
0103
0000
0010
0000
,  // measure 28
1000
0000
0100
0000
1000
0000
0010
0100
,  // measure 29
0000
0120
0000
0000
1030
0000
0100
0000
,  // measure 30
0010
0000
0001
0000
1000
0000
0000
0210
,  // measure 31
0310
0000
0100
0000
0001
0000
1000
0000
0100
0000
1000
0000
0002
0000
0000
0003
,  // measure 32
0000
1002
0000
0000
0103
0000
0010
0000
,  // measure 33
0100
0001
0010
0100
,  // measure 34
0000
2100
0000
0000
3010
0000
0100
0000
,  // measure 35
0001
0000
0010
0000
0100
0000
1000
0020
,  // measure 36
0230
0000
0000
0301
0000
1000
0000
0100
,  // measure 37
0000
0010
0000
0100
0000
0000
1001
0000
,  // measure 38
1000
0000
0010
0110
,  // measure 39
0100
0001
1000
1100
,  // measure 40
0000
0000
0020
0000
0130
0000
0000
0101
,  // measure 41
0000
0001
0010
0200
,  // measure 42
0310
0000
0001
0000
0100
0000
0000
0010
,  // measure 43
0000
1000
0001
0201
,  // measure 44
0310
0000
0100
0000
0001
2000
0000
0000
,  // measure 45
3010
0100
0002
1003
,  // measure 46
0100
0000
0010
0000
0000
0011
0000
0011
,  // measure 47
0000
1100
0000
1100
0000
0000
0110
0000
,  // measure 48
0010
0000
0001
0000
0100
0010
0000
0000
,  // measure 49
0110
2002
0000
3003
,  // measure 50
0010
0000
0100
0000
0001
0020
0000
0000
,  // measure 51
0130
0010
0001
2000
,  // measure 52
3001
0000
0100
0000
0010
1000
0000
0001
,  // measure 53
0000
1000
0010
0000
,  // measure 54
0100
0010
0100
0010
0000
0110
0000
0000
,  // measure 55
0000
0100
0101
2002
,  // measure 56
0000
0000
0003
3000
0020
0200
0000
0000
,  // measure 57
0000
0000
0330
0000
,  // measure 58
0022
0000
0030
0003
2000
0200
0000
3000
,  // measure 59
0000
0310
0000
0001
1000
0000
1001
0000
,  // measure 60
1000
0000
0000
0010
0000
0110
0000
0000
,  // measure 61
0100
0000
0000
0001
0000
0001
0000
0000
,  // measure 62
0011
0000
1000
0010
0000
0110
0000
0010
,  // measure 63
0000
0100
0000
0001
1000
0000
0001
0000
,  // measure 64
0000
0100
0000
0010
0000
1000
0000
0100
,  // measure 65
0000
0010
0000
0200
0000
0000
0000
0310
,  // measure 66
0000
0001
0000
0100
0000
0010
0000
1000
,  // measure 67
0000
0100
0000
2000
0000
0000
3010
0000
,  // measure 68
0000
0100
0000
0001
0000
0010
0000
0100
,  // measure 69
0000
1000
0000
0020
0000
0000
0000
0130
,  // measure 70
0000
0001
0000
0010
0000
0100
0020
0000
,  // measure 71
0100
0100
1030
0001
,  // measure 72
0100
0001
0010
0100
,  // measure 73
0010
0000
0001
0100
0001
0000
0100
0000
,  // measure 74
0010
1000
0100
1000
,  // measure 75
0001
0000
0010
0001
0010
0000
0100
0000
,  // measure 76
0010
0100
0010
0001
,  // measure 77
0100
0000
0010
0100
0010
0000
0100
0000
,  // measure 78
0001
0000
1000
0000
0100
1000
0000
0010
,  // measure 79
1000
0000
0001
0000
0100
0001
0000
0000
,  // measure 80
0110
0100
0001
1000
,  // measure 81
0010
0000
1000
0100
1000
0000
0010
0000
,  // measure 82
0100
0001
0010
0100
,  // measure 83
0010
0000
0001
0010
0001
0000
0010
0000
,  // measure 84
0100
1000
0010
1000
,  // measure 85
0001
0000
0100
0001
0100
0000
0010
0000
,  // measure 86
0100
0000
0001
0000
0010
0100
0000
1000
,  // measure 87
0000
0001
0000
1000
0001
0000
2002
0000
,  // measure 88
0000
0000
0000
0000
,  // measure 89
0000
0000
0000
0000
,  // measure 90
0000
3003
0000
0000
;

//---------------dance-single - ----------------
#NOTES:
     dance-single:
     :
     Beginner:
     3:
     0.212,0.307,0.181,0.000,0.000: // measure 1
0000
0000
0000
0000
,  // measure 2
0000
0000
0000
0000
,  // measure 3
0000
0000
0000
0000
,  // measure 4
0000
0000
0000
0000
,  // measure 5
0000
0000
0000
0000
,  // measure 6
0000
0000
0000
0000
,  // measure 7
0000
0000
0000
0000
,  // measure 8
0000
0000
0000
0000
,  // measure 9
1001
0000
0000
0010
,  // measure 10
0000
0000
0000
0000
,  // measure 11
0000
0110
0000
0001
,  // measure 12
0000
0000
0000
1001
0000
0000
0100
0000
,  // measure 13
0110
0000
0000
0000
1000
0000
0000
1001
,  // measure 14
0000
0000
0000
0000
,  // measure 15
0000
0110
0000
0000
,  // measure 16
0000
0100
0000
0100
0000
0100
0000
0000
,  // measure 17
0010
0000
0010
0000
,  // measure 18
0100
0000
0100
0000
,  // measure 19
0001
0000
0001
0000
,  // measure 20
1000
0000
1000
0000
,  // measure 21
0001
0000
1000
0000
,  // measure 22
0001
0000
1000
0000
,  // measure 23
0010
0010
0100
0100
,  // measure 24
0010
0100
0010
0100
,  // measure 25
0000
0010
0000
0000
0000
0010
0000
0000
,  // measure 26
0000
0010
0000
0000
0000
0010
0000
0000
,  // measure 27
0000
0100
0000
0000
0000
0100
0000
0000
,  // measure 28
0000
0100
0000
0000
0000
0100
0000
0000
,  // measure 29
0000
0001
0000
0000
0000
0001
0000
0000
,  // measure 30
0000
0001
0000
0000
0000
0001
0000
1001
,  // measure 31
0000
0001
0000
0100
0000
0010
0100
0000
,  // measure 32
0000
0010
0000
0000
0000
0100
0000
0000
,  // measure 33
0000
0010
0000
0000
0000
0100
0000
0000
,  // measure 34
0000
0001
0000
0000
0000
1000
0000
0000
,  // measure 35
0000
0001
0000
0000
0000
1000
0000
0000
,  // measure 36
0001
0000
0010
0000
,  // measure 37
0001
0000
0010
0110
,  // measure 38
0000
0000
0000
0110
,  // measure 39
0000
0001
0000
1000
,  // measure 40
1000
1000
0000
0000
,  // measure 41
0010
0000
0100
0001
,  // measure 42
0001
0000
1000
0000
,  // measure 43
0010
0000
0100
0001
,  // measure 44
0000
0000
1000
0000
,  // measure 45
0010
0000
0100
0000
,  // measure 46
0001
0000
0000
0000
0000
1001
0000
1000
,  // measure 47
0000
1000
0000
1000
0000
0000
0110
0000
,  // measure 48
0100
0000
0001
0000
,  // measure 49
0010
0000
0100
0000
,  // measure 50
0010
0000
0001
0000
,  // measure 51
0100
0000
0010
0100
,  // measure 52
0110
0000
0010
0000
,  // measure 53
0100
0000
0001
0000
,  // measure 54
1000
1000
0001
0000
,  // measure 55
0000
0000
1001
1001
,  // measure 56
0000
0000
0000
0000
,  // measure 57
0000
0000
0000
0000
,  // measure 58
0000
0000
0000
0000
,  // measure 59
0000
0000
0000
0110
,  // measure 60
0100
0000
0000
0010
0000
0110
0000
0000
,  // measure 61
0001
0000
0000
1000
0000
1000
0000
0000
,  // measure 62
1001
0000
0000
0001
0000
1001
0000
1000
,  // measure 63
0000
1000
0000
0000
0110
0000
0110
0000
,  // measure 64
0000
0000
0000
0001
,  // measure 65
0000
0000
0000
1000
,  // measure 66
0000
0000
0000
1000
,  // measure 67
0000
0000
0000
0010
,  // measure 68
0000
0000
0000
0010
,  // measure 69
0000
0000
0000
0100
,  // measure 70
0000
0000
0000
0110
,  // measure 71
0010
0010
0100
0100
,  // measure 72
0000
0001
0000
1000
,  // measure 73
0000
0100
0000
0010
,  // measure 74
0000
0001
0000
0100
,  // measure 75
0000
0010
0000
0100
,  // measure 76
0000
0001
0000
1000
,  // measure 77
0000
0100
0000
0010
,  // measure 78
0000
0000
0001
0000
0100
0000
0000
0010
,  // measure 79
0000
0100
0010
0000
,  // measure 80
0110
0000
0001
0001
,  // measure 81
1000
0000
0100
0000
,  // measure 82
0010
0100
0100
0000
,  // measure 83
0010
0000
0001
0001
,  // measure 84
1000
0000
0010
0010
,  // measure 85
0100
0000
0001
0000
,  // measure 86
1000
0001
1000
0001
,  // measure 87
0000
0000
0000
1001
;
