#TITLE:Imaginary Friends;
#SUBTITLE:;
#ARTIST:Sta;
#TITLETRANSLIT:;
#SUBTITLETRANSLIT:;
#ARTISTTRANSLIT:;
#GENRE:Doujin;
#CREDIT:Frozen_Heat/Azn_Punk_07/GuardianFrozen;
#MENUCOLOR:#ca6156;
#METERTYPE:DDR;
#BANNER:[Round 1] - Imaginary Friends.png;
#BACKGROUND:[Round 1] - Imaginary Friends-bg.png;
#LYRICSPATH:;
#CDTITLE:cdtitle.png;
#MUSIC:[Round 1] - Imaginary Friends.mp3;
#OFFSET:0.321;
#SAMPLESTART:87.820;
#SAMPLELENGTH:24.660;
#SELECTABLE:YES;
#LISTSORT:;
#DISPLAYBPM:154.000;
#BPMS:0.000=154.700,324.000=142.500,344.000=141.000;
#STOPS:;
#BGCHANGES:;
#ATTACKS:;

//---------------dance-single - ----------------
#NOTES:
     dance-single:
     :
     Hard:
     7:
     0.470,0.507,0.257,0.107,0.061:
0000
0000
0000
0000
,
0000
0000
0000
0000
,
0000
0000
0000
0000
,
0000
0000
0000
0000
,
0000
0000
0000
0000
,
0000
0000
0000
0000
,
0000
0000
0000
0000
,
0002
0000
2003
3020
0230
0320
2030
3000
,
0000
2002
0000
3003
,
1000
0000
0100
0000
0010
0000
0001
1000
,
0001
0000
0100
0000
0001
0010
1000
0000
,
0010
0000
0010
0000
0001
0000
0100
0010
,
0100
0000
0000
0100
0000
0000
0001
0000
0000
0000
1000
0000
0010
0000
1000
0000
,
0001
0000
0010
0000
0100
0000
1000
0001
,
1000
0000
0001
0000
1000
0100
0001
0000
,
0100
0000
0100
0000
0010
0000
0100
1000
,
0010
0000
0000
0100
0000
0000
0010
0000
0100
0000
0001
0000
0000
0000
0000
0000
,
1000
0000
0010
0100
1000
0000
0100
0000
,
0001
0000
1000
0100
0010
0001
0100
0000
,
0010
0000
0001
0010
0100
0000
0001
0000
,
1000
0000
0001
0010
1000
0010
0001
0000
,
1001
0000
0010
0000
0100
0000
0010
0001
,
0100
0000
0010
0000
1000
0100
0010
0100
,
1000
0000
1000
0000
1010
0000
0001
0100
,
0001
0000
0000
0001
0000
0000
0100
0000
0010
0000
1000
0000
0000
0000
0000
0000
,
0110
1000
0001
1000
,
1100
0001
0101
0010
,
0110
0000
0010
0001
0000
0001
1000
0001
,
0100
0000
0110
0000
0000
0001
0010
0100
,
1000
1000
1010
0100
,
0101
0001
1001
0010
,
1001
0000
0100
0010
1000
0010
0100
0000
,
1001
0000
0100
0010
0001
0010
0100
0000
,
0011
0000
0001
0000
0001
0000
1000
0010
,
0100
0100
0001
1000
,
0001
0000
0001
0010
0000
0010
0100
0000
,
0110
0000
1000
0000
0000
0001
1000
0000
,
0010
0000
0010
0100
0010
0000
1000
0000
,
0001
0000
0010
0001
0100
0010
1000
0100
,
1000
0000
0100
0010
0000
0001
1000
0000
,
0200
0000
0000
0020
0000
0000
0330
0000
,
1000
0000
0001
0010
0100
0000
0001
0010
,
0100
0000
1000
0000
0001
0010
0100
0000
,
1000
0000
0010
1000
0010
0000
0100
0001
,
0100
0000
0000
0100
0000
0000
0010
0000
1000
0000
0001
0000
0000
0000
0010
0000
,
0001
0000
0010
0100
1000
0000
0010
0100
,
1000
0000
0001
0000
0010
0100
1000
0000
,
0010
0000
0100
0001
0100
0000
0010
1000
,
0010
0000
0000
0010
0000
0000
0100
0000
0001
0000
0010
0000
0000
0000
0000
0000
,
1000
0000
0001
0010
1000
0000
0010
0000
,
0001
0000
1000
0010
0001
0010
1000
0000
,
0001
0000
1000
0100
0001
0000
0100
0000
,
0110
0000
0001
0100
1000
0100
0001
0000
,
0000
0000
1000
0000
0100
0000
0010
0001
,
0100
0000
0010
0000
1000
0010
0100
0010
,
1000
0000
0001
0010
0100
0000
1000
0010
,
0100
0000
0100
0010
0000
0010
1000
0000
,
1010
0000
0100
0000
0001
0010
0100
0000
,
1100
0000
0000
0000
0010
0000
0000
0010
0001
0000
1000
0000
0000
0000
0001
0000
,
0100
0000
0110
0000
0001
0100
1000
0000
,
0100
0000
0010
0000
1000
0000
0000
0001
0010
0000
0100
0000
0000
0000
0010
0000
,
0011
1100
0011
1000
,
1010
0000
0000
0000
0101
0000
0000
0010
1000
0000
0001
0000
0000
0000
1000
0000
,
0100
0000
0110
0000
0001
1000
0010
0000
,
0100
0000
0000
0000
0001
0000
0000
1000
0001
0000
0010
0000
0010
0000
0000
0000
,
0011
0000
0100
0000
1000
0010
0100
0000
,
0101
0000
0000
0000
0010
0000
0000
0010
1000
0000
0001
0000
0000
0000
1000
0000
,
0100
0000
0110
0000
1000
0100
0001
0000
,
0100
0000
0010
0000
0001
0000
0000
1000
0010
0000
0100
0000
0000
0000
0010
0000
,
1010
0101
1010
0001
,
0011
0000
0000
0000
1100
0000
0000
0010
0001
0000
1000
0000
0000
0000
0001
0000
,
0100
0000
0110
0000
1000
0001
0010
0000
,
0100
0000
0000
0000
1000
0000
0000
0001
1000
0000
0010
0000
0010
0000
0000
0000
,
0100
0001
0101
0000
0010
1000
0100
0000
,
0010
0000
0001
0000
1000
0000
0000
0010
0100
0000
0001
0000
0001
0000
0000
0000
,
0010
0100
1100
0000
1000
0010
0100
0000
,
0001
0000
1000
0000
0010
0000
0000
0100
0010
0000
1000
0000
1000
0000
0100
0000
,
0010
0000
0000
0000
0100
0000
0000
1000
0001
0000
0000
0000
0010
0000
0000
0001
,
0100
0000
0010
0000
1000
0001
0100
0001
,
0010
0000
0100
0000
1000
0001
0100
0000
,
0020
0230
0302
2003
,
3200
0300
0000
0001
,
0010
0100
1000
0001
,
0100
0000
0000
0010
0000
0000
0000
0000
,
1000
0100
0010
0001
,
0100
0000
0000
0000
,
0010
0000
0000
0000
,
0100
0000
0000
0000
,
0001
0001
1000
1000
;

//---------------dance-single - ----------------
#NOTES:
     dance-single:
     :
     Challenge:
     9:
     0.579,0.665,0.371,0.207,0.146:
0000
0000
0000
0000
,
0000
0000
0000
0000
,
0000
0000
0000
0000
,
0000
0000
0000
0000
,
0000
0000
0000
0000
,
0000
0000
0000
0000
,
0000
0000
0000
0000
,
0002
0000
2003
3010
0200
0301
0020
0000
,
0000
0200
0000
0330
,
0001
0000
0101
0000
1010
0000
0001
0010
,
0100
0000
1100
0000
0010
0100
1000
0100
,
0020
0000
0031
0000
0002
0000
0103
0010
,
1000
0000
0000
0100
0000
0000
1000
0000
0000
0000
0010
0000
0100
0000
0010
0000
,
1000
0000
0001
0100
0001
0000
1000
0100
,
0010
0000
0011
0000
1000
0100
0010
0100
,
1000
0000
1010
0000
0001
0100
0001
1000
,
0010
0000
0000
0100
0000
0000
0001
0000
0000
0000
1000
0000
0100
0000
0010
0000
,
0001
0000
1000
0010
0001
0010
1000
0010
,
0100
0000
0001
1000
0100
1000
0001
0000
,
0100
0000
0010
1000
0010
0100
0001
0010
,
1000
0000
0000
0010
0000
0000
0001
0000
0000
0000
0110
0000
0000
0000
0000
0000
,
1001
0000
0100
0001
0100
0000
0010
1000
,
0010
1000
0100
0010
0001
1000
0001
0100
,
0020
0000
0230
0000
0302
0000
1003
0100
,
0010
0000
0000
0100
0000
0000
1000
0000
0000
0000
1001
0000
0000
0000
0000
0000
,
0010
1000
0010
0100
0010
0000
1000
0000
,
0002
0023
0230
2300
,
3002
0000
0103
0010
0000
0010
0100
0001
,
2000
0000
3100
0000
0001
0100
1000
0100
,
0010
0000
1010
0000
0100
0001
0100
0010
,
1000
0000
1100
0000
0010
0100
1000
0100
,
0001
0000
0100
0010
0000
0100
0010
0000
,
1100
0000
0001
0100
0010
0100
0001
0000
,
1020
0000
0100
0000
1030
0000
0001
1000
,
0100
1000
0001
0100
0001
0010
0100
0010
,
0001
0000
0001
1000
0000
1000
0010
0100
,
0010
0100
0010
0000
1000
0010
0100
0001
,
2000
0000
3020
0000
0032
0000
0013
0100
,
0002
0023
2030
3020
,
0032
0000
1003
0010
0000
0010
1000
0000
,
2002
0000
3003
0220
0000
0330
0000
0000
,
1000
0000
0001
0010
0100
0000
1000
0010
,
0001
0000
1000
0000
0001
0010
1000
0010
,
0001
0000
0100
0010
0100
0000
0001
1000
,
0001
0000
0000
0010
0000
0000
0001
0000
0000
0000
1000
0000
0010
0000
0100
0000
,
0001
0000
1000
0100
0010
0000
0001
0010
,
1000
0000
0001
0000
1000
0010
0001
0010
,
1000
0000
0000
0000
0100
0000
0010
0100
0010
0000
0000
0000
0001
0000
0000
0000
,
0100
0000
0000
0010
0100
0000
0001
0000
0000
0000
1001
0000
0000
0000
0000
0000
,
0100
0000
1000
0010
0100
0010
1000
0001
,
0010
0000
0001
0100
0010
0100
0001
1000
,
0001
0000
1000
0001
1000
0010
0100
0001
,
1001
0000
0001
0100
1000
0100
0001
0000
,
0110
0000
1000
0010
1000
0000
0001
0100
,
0001
0000
1000
0000
0001
0010
0100
1000
,
0001
0000
0001
1000
0010
1000
0001
0000
,
1001
0000
0000
0001
1000
0000
0001
0000
0000
0000
1001
0000
0010
0000
0000
0000
,
1100
0000
0000
0000
0010
0000
0000
1000
0100
0000
0010
0000
0011
0000
0000
1000
,
0100
0000
0000
0000
0010
0000
0000
0100
1000
0000
1001
0000
0001
0000
0010
0000
,
0100
0000
0000
0000
1100
0000
0000
0100
1000
0000
0000
0000
1001
0000
0000
0010
,
0001
0000
1000
0000
1001
0000
0000
0001
0010
0000
0110
0000
0100
0000
1000
0000
,
1001
0000
0000
0010
0100
0000
0000
0001
0010
0000
0100
0000
0110
0000
0001
0000
,
1000
0000
0000
0010
0100
0000
0000
0010
1000
0000
1010
0000
0100
0000
0110
0000
,
0001
0000
0000
0000
1000
0000
0000
0001
0010
0000
0001
0000
0100
0000
0000
0000
,
0010
0000
0000
0000
1010
0000
0000
0100
0001
0000
0010
0000
0010
0000
0000
0000
,
0101
0000
0000
0000
0010
0000
0000
0001
0100
0000
0010
0000
1010
0000
0000
0001
,
0100
0000
0000
0000
0010
0000
0000
0100
0001
0000
1010
0000
1000
0000
0001
0000
,
0010
0000
0000
0000
1100
0000
0000
0010
0001
0000
0000
0000
1001
0000
0000
0010
,
1000
0000
0000
0000
1001
0000
0000
1000
0010
0000
1010
0000
0100
0000
0001
0000
,
0010
0000
0000
0010
0100
0000
0000
1000
0100
0000
0010
0000
0110
0000
0001
0000
,
0010
0000
0000
0100
0010
0000
0000
0010
0001
0000
0011
0000
0100
0000
0110
0000
,
1000
0000
0000
0000
0001
0000
0000
1000
0010
0000
1000
0000
0100
0000
0000
0000
,
0010
0000
0000
0000
0011
0000
0000
0100
1000
0000
0010
0000
0010
0000
0000
0000
,
1000
0000
0000
0000
0110
0000
0000
0010
1000
0000
0000
0000
0110
0000
0000
0010
,
1000
0000
0000
0000
0110
0000
0000
1000
0010
0000
0110
0000
0001
0000
1000
0000
,
0001
0000
0000
0000
0110
0000
0000
0001
0010
0000
0000
0000
0110
0000
0000
0001
,
0010
0000
0000
0000
0110
0000
0000
0010
0001
0000
1001
0000
1000
0000
0010
0000
,
0100
0000
0001
0000
1000
0000
0001
0010
0100
0000
0010
0000
0001
0000
1000
0100
,
0010
0001
1000
0001
0010
0010
0001
1000
,
1000
0000
0000
0000
1000
0000
0000
0001
0100
0000
0010
0000
0100
0000
0000
0000
,
0001
0000
0001
0000
0001
0010
0100
0010
,
0001
0000
0000
1000
,
0001
0010
0100
0010
0001
0100
1000
0100
,
0010
0000
0010
0100
0000
0100
0001
0000
,
1000
1100
0001
0101
,
1000
0100
0010
0001
0000
0000
0000
0000
,
0100
0001
0010
0100
0000
0000
0000
0000
,
1000
0100
0010
0001
0000
0000
0000
0000
,
0001
0001
0100
0010
;

//---------------dance-double - ----------------
#NOTES:
     dance-double:
     :
     Challenge:
     8:
     0.499,0.539,0.321,0.071,0.125: // measure 1
00000000
00000000
00000000
00000000
,  // measure 2
00000000
00000000
00000000
00000000
,  // measure 3
00000000
00000000
00000000
00000000
,  // measure 4
00000000
00000000
00000000
00000000
,  // measure 5
00000000
00000000
00000000
00000000
,  // measure 6
00000000
00000000
00000000
00000000
,  // measure 7
00000000
00000000
00000000
00000000
,  // measure 8
00020000
00000000
00001000
00000000
00030100
00000010
00000100
00000000
,  // measure 9
00000002
00002000
00000000
00003003
,  // measure 10
00001001
00000000
00000010
00000000
00000100
00000000
00000001
00000010
,  // measure 11
00000001
00000000
00000100
00000000
00000010
00010000
00000100
00000000
,  // measure 12
00000010
00000000
00000010
00000000
00000001
00000000
00000100
00000010
,  // measure 13
00010000
00000000
00000000
00000100
00000000
00000000
00001000
00000000
00000010
00000000
00001000
00000000
00000000
00000000
00000100
00000000
,  // measure 14
00010000
00000000
00001000
00000000
01000000
00000000
00100000
10000000
,  // measure 15
00100000
00000000
01000000
00000000
00001000
00010000
00001000
01000000
,  // measure 16
00010000
00000000
00010000
00000000
10010000
00000000
00100000
10000000
,  // measure 17
01000000
00000000
00000000
00010000
00000000
00000000
00001000
00000000
00000000
00000000
01000000
00000000
00001000
00000000
00010000
00000000
,  // measure 18
00000100
00000000
00000010
00000001
00000000
00000001
00000100
00000010
,  // measure 19
00001000
00000000
00000100
00000010
00000100
00010000
00000100
00000010
,  // measure 20
00000001
00000000
00000001
00001000
00000000
00001000
00000010
00010000
,  // measure 21
00001000
00000000
00000000
01000000
00000000
00000000
00100000
00000000
00000000
00000000
10010000
00000000
00000000
00000000
00000000
00000000
,  // measure 22
01100000
00000000
01000000
00000000
10000000
00000000
00100000
01000000
,  // measure 23
00010000
00000000
10000000
00000000
01000000
00100000
00010000
01000000
,  // measure 24
00001000
00010000
00010000
00000100
,  // measure 25
00000110
00000000
00000001
00001000
00000000
00001000
00000001
00000000
,  // measure 26
00000101
00000100
00000100
00000010
,  // measure 27
00001010
00010000
00011000
00000100
,  // measure 28
00000110
00000000
00000001
00000010
00000000
00000100
00010000
00000100
,  // measure 29
00000010
00000000
00000001
00000000
00000100
00000010
00010000
00001000
,  // measure 30
01000000
00000000
01000000
00000000
01100000
00000000
00010000
10000000
,  // measure 31
01000000
00100000
01000000
10000000
00010000
00000000
01010000
00000000
,  // measure 32
01001000
00000000
00010000
00000100
00000000
00000100
00010000
00000000
,  // measure 33
00101000
00000000
00000010
00000000
00010000
00001000
00010000
00000000
,  // measure 34
00000110
00000100
00000100
00000010
,  // measure 35
00000011
00000100
00001100
00010000
,  // measure 36
00110000
00000000
01000000
10000000
00000000
10000000
00010000
10000000
,  // measure 37
00100000
00000000
01100000
00000000
01000000
00001000
00010000
01000000
,  // measure 38
10000000
00000000
10000000
00000000
10100000
00000000
00010000
01000000
,  // measure 39
00100000
00100000
01100000
01001000
,  // measure 40
00011000
00000000
00010000
00000100
00000000
00000100
00010000
00000000
,  // measure 41
00201000
00000000
00000000
00002000
00000000
00000000
00303000
00000000
,  // measure 42
00010000
00000000
00000010
00000000
00000100
00000000
00000001
00000010
,  // measure 43
00000100
00000000
00011000
00000000
00010000
00100000
01000000
00000000
,  // measure 44
10000000
00100000
01000000
00010000
,  // measure 45
10000000
00000000
00000000
01000000
00000000
00000000
00100000
00000000
00000000
00000000
00001000
00000000
01000000
00000000
00010000
00000000
,  // measure 46
01000000
00000000
00010000
00000000
00100000
00000000
01000000
10000000
,  // measure 47
00100000
00000000
00011000
00000000
00000100
00001000
00000010
00000000
,  // measure 48
00000100
00000100
00000001
00000010
,  // measure 49
00000100
00000000
00000000
00000010
00000000
00000000
00000001
00000000
00000000
00000000
00001000
00000000
00000010
00000000
00010000
00000000
,  // measure 50
00000010
00000000
00000100
00000000
00000001
00000010
00000100
00010000
,  // measure 51
00000100
00000000
00010000
00000000
00001000
01000000
00100000
00000000
,  // measure 52
01000000
00000000
00010000
00100000
00000000
00100000
01000000
00000000
,  // measure 53
21000000
00000000
30010000
00000000
00100000
01000000
00001000
00000000
,  // measure 54
00010000
00000000
00000100
00000000
00000010
00000000
00000001
00001000
,  // measure 55
00000010
00000000
00000100
00000000
00000010
00010000
00001000
01000000
,  // measure 56
00100000
00000000
10000000
00010000
00100000
00000000
01000000
00100000
,  // measure 57
00020000
02030000
03200000
10300000
,  // measure 58
11000000
00000000
00000000
00000000
00100000
00000000
00000000
00001000
00010000
00000000
00000000
00000000
01001000
00000000
00000000
01000000
,  // measure 59
00010000
00000000
00000000
00000000
00100000
00000000
00000000
00010000
10000000
00000000
00010000
00000000
01000000
00000000
00000000
00000000
,  // measure 60
00001000
00000000
00000000
00000000
00101000
00000000
00000000
00010000
00000100
00000000
00000000
00000000
00000110
00000000
00000000
00000001
,  // measure 61
00001000
00000000
00000000
00000000
00001001
00000000
00000000
00000010
00000100
00000000
00000001
00000000
00000100
00000000
00000000
00000000
,  // measure 62
00001010
00000000
00000000
00000000
00001001
00000000
00000000
00000010
00000001
00000000
00000100
00000000
00000010
00000000
00010000
00000000
,  // measure 63
00000100
00000000
00000000
00000000
00000110
00000000
00000000
00000001
00000010
00000000
00000001
00000000
00001000
00000000
00000010
00000000
,  // measure 64
00010000
00000000
00000000
00000000
00000100
00000000
00000000
00000010
00000100
00000000
00000000
00000000
00010000
00000000
00000000
00000010
,  // measure 65
00000100
00000000
00000000
00000000
00010000
00000000
00000000
00000100
00000010
00000000
00000110
00000000
00001000
00000000
00000000
00000001
,  // measure 66
00000010
00000000
00000000
00000000
00000100
00000000
00000000
00010000
00001000
00000000
00000000
00000000
00011000
00000000
00000000
00000010
,  // measure 67
00000100
00000000
00000000
00000000
00000101
00000000
00000000
00000001
00001000
00000000
00000010
00000000
00001000
00000000
00000000
00000000
,  // measure 68
00000100
00000000
00000000
00000000
00010100
00000000
00000000
00001000
00100000
00000000
00000000
00000000
01100000
00000000
00000000
10000000
,  // measure 69
00010000
00000000
00000000
00000000
10010000
00000000
00000000
01000000
00100000
00000000
10000000
00000000
00100000
00000000
00000000
00000000
,  // measure 70
01010000
00000000
00000000
00000000
10010000
00000000
00000000
01000000
10000000
00000000
00100000
00000000
01000000
00000000
00001000
00000000
,  // measure 71
00100000
00000000
00000000
00000000
01100000
00000000
00000000
10000000
01000000
00000000
10000000
00000000
00010000
00000000
01000000
00000000
,  // measure 72
00001000
00000000
00000000
00000000
00100000
00000000
00000000
01000000
00100000
00000000
00000000
00000000
00001000
00000000
00000000
01000000
,  // measure 73
00100000
00000000
00000000
00000000
00001000
00000000
00000000
00100000
01000000
00000000
01100000
00000000
00010000
00000000
00000000
00000000
,  // measure 74
00011000
00000000
00000000
00000000
00000100
00000000
00000000
00001000
00010000
00000000
00000000
00000000
01000000
00000000
00000000
00010000
,  // measure 75
00001000
00000000
00000000
00000100
00000000
00000000
00000000
00001000
00010000
00000000
01000000
00000000
00010000
00000000
00001000
00000000
,  // measure 76
00000010
00000000
00000000
00000000
00000010
00000000
00000000
00001000
00010000
00000000
00000000
00000000
00100000
00000000
00000000
00010000
,  // measure 77
00001000
00000000
00000000
00000000
00000010
00000000
00000000
00001000
00010000
00000000
00100000
00000000
00100000
00000000
00000000
00000000
,  // measure 78
01000000
00001000
01000000
00001000
00000000
00010000
00000010
00000100
,  // measure 79
00000010
00001000
00000001
00000000
00000010
00000100
00010000
00001000
,  // measure 80
01000000
00010000
10000000
01000000
00000000
00100000
01000000
10000000
,  // measure 81
00010000
00000000
00010000
00000000
01000000
00100000
01000000
00100000
,  // measure 82
02000000
00000000
00000000
03000000
00000000
00000000
00001000
00000000
,  // measure 83
00010000
00100000
00010000
00001000
,  // measure 84
00000010
00000000
00000000
00000001
00000000
00000000
00000100
00000000
,  // measure 85
00000010
00010000
00000100
00000010
,  // measure 86
00000001
00000100
00000001
00000100
00000000
00000000
00000000
00000000
,  // measure 87
00000010
00001000
00000010
00001000
00000000
00000000
00000000
00000000
,  // measure 88
00000100
00010000
00000100
00010000
00000000
00000000
00000000
00000000
,  // measure 89
00100000
00100000
10000000
10000000
;

//---------------dance-single - ----------------
#NOTES:
     dance-single:
     :
     Medium:
     5:
     0.374,0.444,0.386,0.093,0.000:
0000
0000
0000
0000
,
0000
0000
0000
0000
,
0000
0000
0000
0000
,
0000
0000
0000
0000
,
0000
0000
0000
0000
,
0000
0000
0000
0000
,
0000
0000
0000
0000
,
0001
0100
1000
0100
,
0000
1001
0000
0000
,
0000
0000
0001
0000
0001
0000
0010
0100
,
0010
0010
0001
0100
,
0010
0010
1000
1000
,
0100
0010
0000
0110
0000
0100
0000
0000
,
0000
0000
1000
0000
1000
0000
0010
0100
,
0010
0010
0000
0100
,
0110
0001
1000
0001
,
0010
0100
0000
0110
0000
0000
0010
0000
,
0100
0000
1000
0100
0000
0000
1000
0000
,
0001
0000
0100
0001
,
0010
0000
0001
0010
0000
0000
0100
0000
,
0010
0000
0001
0000
1000
0001
1000
0000
,
0000
0000
0001
0000
0001
0000
0100
0010
,
0100
0100
0001
1000
,
0100
0010
0100
1000
,
0001
0000
0000
1001
0000
0000
1000
0000
,
0020
0000
0030
1000
,
0100
0010
0001
0100
,
0020
0000
0000
1000
0000
0000
0130
0000
,
0002
0000
1003
0000
0000
0010
0000
0010
,
0100
0100
1000
0000
,
0001
0100
1000
0100
,
0002
0000
0000
1000
0000
0000
0013
0000
,
0200
0000
0000
0010
0000
0000
1300
0000
,
0020
0000
0030
1000
,
0100
0010
0001
0100
,
0001
0000
0000
1000
0000
0000
0010
0000
,
0200
0000
0010
0000
0300
0001
0000
0001
,
0010
0000
0010
0000
0100
0000
1000
0001
,
1000
0000
1000
0010
0100
0000
0100
0000
,
0001
0000
0020
0100
0000
0000
0031
0000
,
2000
0000
0000
0010
0000
0000
3100
0000
,
0000
0000
1000
0100
1000
0000
0001
0100
,
0001
1001
0000
0010
,
0001
0100
0010
1000
,
0100
0010
0000
0110
0000
0100
0000
0000
,
0000
0000
0001
0000
1000
0000
0001
0100
,
0001
1000
0100
0010
,
0001
0001
1000
1001
,
1000
0010
0000
0110
0000
0000
0100
0000
,
0110
0000
0010
1000
0000
1000
0100
0000
,
0110
0001
1000
0001
,
0110
0000
0100
0001
0000
0001
0010
0000
,
0110
0000
1000
0000
0001
1000
0001
0000
,
0000
0000
1000
0000
0100
0000
0010
0001
,
0010
0100
1000
1000
,
0001
0100
0100
0001
,
1001
1100
0101
0010
,
1001
0010
0000
0100
,
0101
0010
1010
1000
,
1100
0000
0010
0100
0000
0100
0010
0000
,
0011
0000
0100
0000
1000
0100
0000
0100
,
0010
0011
1001
0100
,
0101
0110
1010
0110
,
1000
0000
0000
1001
0000
0000
0010
0000
,
0100
0000
0000
0110
0000
0000
0010
0000
,
1001
0010
0000
0100
,
1100
0010
0011
0001
,
0101
0000
0010
0100
0000
0100
0010
0000
,
1010
0000
0100
0000
0001
0100
0000
0100
,
0010
1010
1001
0100
,
1100
0110
0011
0110
,
0001
0000
0000
1001
0000
0000
0010
0000
,
0100
0000
0000
0110
0000
0000
0010
0000
,
1001
0100
0000
0010
,
0011
0100
1100
1000
,
1010
0000
0100
0010
0000
0010
0100
0000
,
0101
0000
0010
0000
0001
0010
0000
0010
,
0100
1100
0001
0011
,
0100
0101
1010
0101
,
1000
1001
0001
1001
,
0010
0100
1000
0001
,
0100
0000
0000
0000
,
0010
1000
0001
0010
,
0100
0000
0000
0000
,
0010
0001
1000
0010
,
0100
0000
0000
0000
,
0002
0000
0003
0000
,
2000
0000
3000
0000
,
0200
0300
0020
0030
;

//---------------dance-single - ----------------
#NOTES:
     dance-single:
     :
     Easy:
     4:
     0.294,0.349,0.193,0.079,0.000:
0000
0000
0000
0000
,
0000
0000
0000
0000
,
0000
0000
0000
0000
,
0000
0000
0000
0000
,
0000
0000
0000
0000
,
0000
0000
0000
0000
,
0000
0000
0000
0000
,
0000
0000
0000
0000
,
0000
0000
0000
0000
,
1000
0100
0010
0000
,
0001
0100
0010
1000
,
0100
0010
0001
0000
,
0100
0010
1000
0000
,
0001
0010
0100
0000
,
1000
0010
0100
0001
,
0010
0100
1000
0000
,
0010
0100
0001
1000
,
0002
0000
0013
0100
,
0010
0000
0100
0000
,
2000
0000
3010
0100
,
0010
0010
0010
0000
,
0100
0000
0001
1000
,
0100
0000
0010
0100
,
1000
1000
0001
0001
,
0100
0000
0110
0000
,
0001
0001
0001
0000
,
0100
0000
0010
1000
,
0010
0000
0100
0001
,
1000
0100
0010
0100
,
1000
1000
1000
0000
,
0010
0000
0100
0001
,
1000
0000
0100
0010
,
0001
0001
1000
0001
,
0100
0100
0100
0000
,
0010
0000
1000
0001
,
0010
0000
0100
0010
,
0001
1000
0001
0100
,
0010
0010
0010
0000
,
1000
0000
0001
1000
,
0200
0000
0300
0000
,
0220
0000
0330
0000
,
0010
0010
0001
0001
,
1000
1000
1001
0000
,
0010
0010
0100
0100
,
0001
1000
0100
0000
,
0010
0010
0100
0100
,
1000
0001
1001
0000
,
0001
0100
0010
0100
,
0001
1000
0100
0010
,
0100
0000
0010
0000
,
0001
0000
1000
0010
,
0100
0000
0001
0000
,
1000
1000
0001
0001
,
0000
1001
0010
0001
,
0100
0010
1000
0100
,
0010
0010
0100
0100
,
0110
1001
0110
0000
,
0001
0101
0000
1000
,
0001
0101
0000
1000
,
0001
0011
0000
1000
,
0001
0011
0100
1000
,
0100
1100
0000
0001
,
1000
1100
0000
0001
,
1000
1010
0000
0001
,
1000
1010
0001
0101
,
1000
1010
0000
0001
,
1000
1010
0000
0001
,
1000
1100
0000
0001
,
1000
1100
0010
0001
,
0010
0011
0000
1000
,
0001
0011
0000
1000
,
0001
0101
0000
1000
,
0001
0101
1000
1010
,
0001
0001
0100
0010
,
1000
1000
0100
0010
,
0100
0100
1000
0001
,
0010
0010
0001
1000
,
0010
0010
0100
0100
,
0001
0001
1000
1000
,
0001
0010
0100
1000
,
0001
0001
1000
1000
,
0110
0000
0000
0000
,
0001
0001
1000
1000
,
0020
0000
0030
0000
,
0100
0100
0001
1000
,
0200
0300
0000
0000
,
0020
0030
0000
0000
,
0002
0003
0000
0000
,
2000
3000
0002
0003
;

//---------------dance-single - ----------------
#NOTES:
     dance-single:
     :
     Beginner:
     2:
     0.120,0.222,0.121,0.093,0.000:
0000
0000
0000
0000
,
0000
0000
0000
0000
,
0000
0000
0000
0000
,
0000
0000
0000
0000
,
0000
0000
0000
0000
,
0000
0000
0000
0000
,
0000
0000
0000
0000
,
0000
0000
0000
0000
,
0000
0000
0000
0000
,
1000
0000
0000
0000
,
0001
0000
0000
0000
,
0100
0000
0000
0000
,
0010
0000
0000
0000
,
1000
0000
0000
0000
,
0001
0000
0000
0000
,
0010
0000
0000
0000
,
0100
0000
0010
0000
,
0001
0000
0000
0000
,
0001
0000
0000
0000
,
1000
0000
0000
0000
,
1000
0000
0000
0000
,
0100
0000
0000
0000
,
0100
0000
0000
0000
,
0010
0000
0010
0000
,
0010
0000
0000
0000
,
0002
0000
0003
0000
,
0000
0000
0000
0000
,
2000
0000
3000
0000
,
0000
0000
0000
0000
,
0020
0000
0030
0000
,
0200
0000
0300
0000
,
0020
0000
0030
0000
,
0200
0000
0300
0000
,
0002
0000
0003
0000
,
0000
0000
0000
0000
,
2000
0000
3000
0000
,
0000
0000
0000
0000
,
0200
0000
0300
0000
,
0020
0000
0030
0000
,
0200
0000
0300
0000
,
0020
0000
0030
0000
,
0001
0000
0001
0000
,
0001
0000
0000
0000
,
1000
0000
1000
0000
,
1000
0000
0000
0000
,
0100
0000
0100
0000
,
0100
0000
0000
0000
,
0010
0000
0010
0000
,
0010
0000
0000
0000
,
0001
0000
0000
0000
,
1000
0000
0000
0000
,
0010
0000
0000
0000
,
0100
0000
0100
0000
,
0100
0000
0000
0000
,
0010
0000
0000
0000
,
1000
0000
0000
0000
,
0001
0000
0001
0000
,
1001
0000
0000
0000
,
0100
0000
0100
0000
,
0110
0000
0000
0000
,
0001
0000
0001
0000
,
1001
0000
0000
0000
,
0110
0000
0000
0000
,
0110
0000
0000
0000
,
1001
0000
0000
0000
,
1001
0000
0000
0000
,
1000
0000
1000
0000
,
1001
0000
0000
0000
,
0010
0000
0010
0000
,
0110
0000
0000
0000
,
0110
0000
0000
0000
,
1001
0000
0000
0000
,
0110
0000
0110
0000
,
0110
0000
0000
0000
,
0001
0000
0000
0000
,
0110
0000
0000
0000
,
1000
0000
0000
0000
,
1001
0000
0000
0000
,
0100
0000
0100
0000
,
0100
0000
0000
0000
,
0010
0000
0010
0000
,
0110
0000
0000
0000
,
0000
0000
0000
0000
,
1000
0000
0000
0000
,
0000
0000
0000
0000
,
0001
0000
0000
0000
,
0000
0000
0000
0000
,
0010
0000
0000
0000
,
0200
0000
0000
0300
;
