#VERSION:0.81;
#TITLE:Flight of the Battery;
#SUBTITLE:;
#ARTIST:Benjamin Briggs;
#TITLETRANSLIT:;
#SUBTITLETRANSLIT:;
#ARTISTTRANSLIT:;
#GENRE:;
#ORIGIN:;
#CREDIT:;
#BANNER:[Round 1] - Flight of the Battery-bn.png;
#BACKGROUND:[Round 1] - Flight of the Battery-bg.png;
#PREVIEWVID:;
#JACKET:[Round 1] - Flight of the Battery-jacket.png;
#CDIMAGE:;
#DISCIMAGE:;
#LYRICSPATH:;
#CDTITLE:cdtitle.png;
#MUSIC:[Round 1] - Flight of the Battery.ogg;
#OFFSET:-0.053;
#SAMPLESTART:72.776;
#SAMPLELENGTH:13.000;
#SELECTABLE:YES;
#BPMS:0.000=132.000;
#STOPS:;
#DELAYS:;
#WARPS:;
#TIMESIGNATURES:0.000=4=4;
#TICKCOUNTS:0.000=4;
#COMBOS:0.000=1;
#SPEEDS:0.000=1.000=0.000=0;
#SCROLLS:0.000=1.000;
#FAKES:;
#LABELS:0.000=Song Start;
#BGCHANGES:;
#KEYSOUNDS:;
#ATTACKS:
;

//---------------dance-single - ----------------
#NOTEDATA:;
#CHARTNAME:;
#STEPSTYPE:dance-single;
#DESCRIPTION:;
#CHARTSTYLE:;
#DIFFICULTY:Hard;
#METER:9;
#RADARVALUES:0.632,0.625,0.173,0.459,0.267,503.000,23.000,61.000,0.000,0.000,0.000,0.000,0.000,0.632,0.625,0.173,0.459,0.267,503.000,23.000,61.000,0.000,0.000,0.000,0.000,0.000;
#CREDIT:;
#NOTES:
0000
0000
0000
0000
,
0000
0000
0000
0000
,
0000
0000
0000
0000
,
0000
0000
0000
0000
,
0001
0000
0100
0000
0010
1000
0000
0000
0001
0000
0010
0000
0100
1000
0000
0000
,
0010
0000
0100
0000
0001
1000
0000
0000
0100
0000
0010
0000
0001
0100
0010
0100
,
0001
0000
1000
0000
0100
0010
0000
0000
0100
0000
1000
0000
0010
0100
0000
0000
,
0101
1100
1010
0011
,
0001
0000
0100
0000
0010
0000
0000
0000
0100
0000
0010
0000
1000
0000
0100
0010
,
0000
0100
0010
0000
0100
0000
1000
0000
0010
0000
0100
0000
0010
0000
1000
0000
,
0100
0000
0010
0000
0001
0000
0000
0000
1000
0000
0001
0000
0100
0000
0010
1000
,
0000
0010
1000
0000
0001
0000
0010
0000
0100
0000
1000
0100
1000
0100
0010
0100
,
1000
0000
0001
0000
0100
0000
0000
0000
0010
0000
0100
0000
0001
0000
1000
0100
,
0000
1000
0100
0000
0010
0000
0001
0000
0100
0000
1000
0000
0100
0000
0001
0000
,
0010
0000
0100
0000
1000
0000
0000
0000
0010
0000
1000
0000
0001
0000
0010
0100
,
0000
0010
0100
0000
2000
0000
3002
0000
0000
0000
1003
0010
1000
0010
0100
0001
,
0010
0001
1000
0020
0000
1030
0001
0020
,
0000
0000
0130
0000
1000
0000
0010
0000
0001
0000
0010
0000
0100
0001
0100
0001
,
1000
0001
0010
0200
0000
0310
0001
0200
,
0000
0000
1300
0000
0100
0000
0010
0000
1000
0000
0001
0000
0010
0100
0010
0100
,
1000
0000
0001
0000
0100
0000
0000
0000
0010
0000
1000
0100
0010
0100
2000
0000
,
0000
3001
0100
1000
0100
0001
0010
0100
,
0010
0000
0000
0001
0000
0000
1000
0000
0010
0000
0100
0000
0001
0000
0010
0100
,
0010
0000
0000
0011
0000
0000
1100
0000
0000
0000
0100
0000
0010
0000
0001
0000
,
1000
0000
0010
0000
0100
0000
0010
1000
0001
0000
0010
0000
0100
0000
1000
0001
,
0000
1000
0001
0000
0100
0000
1000
0000
0100
0000
0010
0000
0100
0000
0001
0000
,
0020
0000
0130
1000
0100
0020
0000
0031
,
1000
0000
0001
0000
0100
0000
0020
0000
0000
0000
0130
0001
0000
0000
1000
0001
,
2000
0000
0000
0000
3100
0000
0000
0000
1000
0000
0010
0100
0001
0010
0002
0000
,
0000
1003
0100
1000
0010
0100
0001
0010
,
0100
1000
0001
0000
0101
0000
1000
0100
,
1000
0001
0010
0000
1100
0000
1000
0001
,
0100
0000
1000
0000
0100
0000
0020
0000
0000
0000
1030
0100
1000
0100
0020
0000
,
0000
0000
0130
0000
1000
0000
0001
0000
0100
0000
0010
0100
0001
0000
0010
0000
,
0100
0000
0000
0100
0000
0000
0020
0000
0000
0000
0031
0000
1000
0000
0020
0000
,
0000
0000
0000
0000
0000
1030
0001
0010
,
0100
0000
0000
0000
1000
0000
0001
0100
0001
0000
1000
0000
0100
0000
1000
0000
,
0001
0100
1000
0200
0000
0310
0100
0001
,
1000
0000
0000
1100
0000
0011
0000
2002
,
0000
0000
0000
3003
,
1100
0000
0000
0000
0101
0000
0000
0000
1100
0000
0000
0000
0001
0100
0000
0000
,
1010
0000
0011
0000
1010
0010
0100
0001
,
1000
0100
0010
0200
0000
1300
0001
0200
,
0000
0000
1300
0000
0100
0000
0020
0000
0000
0000
0130
0000
0001
0010
0100
0010
,
0001
0000
1000
0000
1010
0000
0000
0000
0011
0000
0000
0000
1000
0010
0000
0000
,
0101
0000
1100
0000
0101
0100
0010
1000
,
0001
0010
0100
0020
0000
0031
1000
0020
,
0000
0031
0010
0200
0000
0301
0010
0100
,
2000
0000
0000
3020
0000
0000
0230
0000
0000
0302
2003
0000
0000
0000
3002
0000
,
0023
0000
0000
0230
0000
0000
2300
0000
0000
0000
0000
0000
3020
0000
0230
0000
,
0302
0000
0000
0023
0000
0000
2030
0000
0000
0000
3020
0000
0230
0000
2300
0000
,
3001
0100
0010
0100
0001
1000
0100
1000
,
0020
0000
0000
0230
0000
0000
0302
0000
0000
2003
3200
0000
0000
0000
0320
0000
,
0230
0000
0000
2300
0000
0000
3020
0000
0000
0000
0000
0000
0230
0000
0302
0000
,
2003
0000
0000
3200
0000
0000
0320
0000
0000
0000
0230
0000
2300
0000
3002
0000
,
1003
0010
1000
0000
0001
0010
0001
0000
1000
0010
1000
0000
0001
0000
0010
0000
,
0001
0001
0100
0100
1000
1000
0010
0010
,
0001
0001
0100
0100
0010
0010
1000
0001
,
1000
1000
0100
0100
0001
0001
0010
0010
,
1000
1000
0100
0100
0010
0010
0001
1000
,
0010
0001
0010
0100
1000
0100
0010
1000
,
0001
0010
1000
0010
0100
0001
0100
0010
,
0001
0100
1000
0100
0010
1000
0001
1000
,
0100
0001
0100
0010
0001
1000
0010
0100
,
0001
0000
0010
0000
0100
0000
0010
0001
0010
0000
0100
1000
0000
0000
0000
0000
,
0001
0000
0100
0000
0010
0000
0100
0001
0100
0000
0010
1000
0000
0000
0001
0000
,
1000
0000
0100
0000
0010
0000
0100
1000
0100
0000
0010
0001
0000
0000
1000
0000
,
0010
0001
0010
1000
0001
0010
0100
1000
,
0100
0000
0010
0000
0001
0000
1000
0010
1000
0000
0001
0100
0000
0000
0000
0000
,
0010
0000
0100
0000
0001
0000
1000
0100
1000
0000
0001
0010
0000
0000
0100
0000
,
0010
0000
0100
0000
1000
0000
0001
0100
0001
0000
1000
0010
0000
0000
0100
0000
,
0010
0000
1000
0000
0001
0000
0010
0100
0010
0000
0100
1000
0000
0000
0001
0000
,
2002
3003
0000
0000
0000
0000
0000
0000
;

//---------------dance-single - ----------------
#NOTEDATA:;
#CHARTNAME:;
#STEPSTYPE:dance-single;
#DESCRIPTION:;
#CHARTSTYLE:;
#DIFFICULTY:Medium;
#METER:7;
#RADARVALUES:0.480,0.435,0.188,0.301,0.023,381.000,25.000,40.000,0.000,0.000,0.000,0.000,0.000,0.480,0.435,0.188,0.301,0.023,381.000,25.000,40.000,0.000,0.000,0.000,0.000,0.000;
#CREDIT:;
#NOTES:
0000
0000
0000
0000
,
0000
0000
0000
0000
,
0000
0000
0000
0000
,
0000
0000
0000
0000
,
0001
0010
0100
0000
0010
0100
1000
0000
,
0001
0100
0010
0000
0100
0010
1000
0001
,
1000
0100
0010
0000
0100
0010
0001
0000
,
0011
0011
1100
1100
,
1000
0000
0001
0000
0010
0100
0010
0000
,
0001
0000
0100
0000
0010
1000
0010
1000
,
0001
0000
0010
0000
0100
1000
0100
0000
,
0010
0000
0001
0000
1000
0010
1000
0010
,
0100
0000
0001
0000
1000
0100
1000
0000
,
0010
0000
0100
0000
0010
1000
0010
0000
,
1000
0000
0001
0000
0100
0010
0100
0000
,
0001
0010
0100
0000
1000
0100
0010
0001
,
0100
0010
1000
0200
0000
0310
0001
0200
,
0000
0310
0100
0001
0000
1000
0100
0010
,
0100
1000
0010
0200
0000
0301
0010
0200
,
0000
0310
0001
1000
0000
0001
0100
0010
,
0100
0000
0001
0000
1000
0100
1000
0100
,
0010
0000
0001
0000
1000
0000
0001
0100
,
0001
0000
0010
0000
0100
0000
1000
0100
,
1000
0001
0100
0010
,
0100
0001
0100
0000
0010
1000
0010
0000
,
1000
0100
1000
0000
0001
0010
0001
0010
,
0100
0000
1000
0100
1000
0100
0000
0010
,
0001
0010
0100
1000
0000
0001
0000
1000
,
0100
0000
0010
0000
0100
1000
0100
1000
,
0001
0000
1000
0000
0010
0000
0100
0001
,
0010
1100
0011
1000
,
0001
1010
0101
1000
,
0100
1000
0001
0020
0000
0130
1000
0020
,
0000
0130
0010
0000
1000
0100
0010
0000
,
0001
1000
0010
0200
0000
0310
1000
0200
,
0000
0310
0001
0000
1000
0010
0100
0010
,
1000
0000
0001
0000
1000
0100
1000
0000
,
0010
0100
0001
1000
0000
0001
1000
0000
,
0100
0000
0000
0010
0000
0010
0000
0220
,
0000
0000
0000
0330
,
0011
0011
0101
0101
,
1010
1010
1100
1100
,
1000
0001
0010
0200
0000
0310
0001
0200
,
0000
0310
1000
0200
0000
0310
0100
1000
,
0010
1010
1100
1100
,
0011
0011
0101
0101
,
0001
1000
0010
0200
0000
0310
1000
0200
,
0000
0310
0001
0200
0000
0310
1000
0100
,
0020
0000
0032
0000
2003
0000
3010
0100
,
0002
0000
0023
0000
0230
0000
1300
0010
,
0200
0000
0302
0000
2003
0000
3001
0010
,
0002
0023
0230
2300
,
3002
0000
0203
0000
0320
0000
1030
0100
,
0020
0000
0230
0000
2300
0000
3010
0100
,
0002
0000
0023
0000
0230
0000
1300
0010
,
0100
0100
0010
0010
0100
0100
0010
1000
,
0001
0010
0100
0010
0001
0010
0100
0010
,
0100
1000
0100
0010
0100
0000
1000
0010
,
1000
0100
0010
0100
1000
0100
0010
0100
,
0010
0001
0010
0100
0010
0001
1000
0010
,
0100
0001
0100
0000
0001
0010
0001
0000
,
0010
1000
0010
0000
1000
0100
1000
0000
,
0100
0001
0100
0000
0001
0010
0001
0000
,
1000
0100
1000
0000
0001
0100
0001
0100
,
0010
0000
0000
0000
0100
0000
0000
0000
0010
0000
1000
0010
0000
0000
0000
0000
,
0100
0000
0000
0000
0010
0000
0000
0000
0100
0000
0001
0100
0000
0000
0001
0000
,
0010
0000
0000
0000
0100
0000
0000
0000
0010
0000
0001
0010
0000
0000
0001
0000
,
0100
0010
1000
0001
,
1000
0000
0000
0000
0100
0000
0000
0000
0010
0000
0001
0010
0000
0000
0000
0000
,
0001
0000
0000
0000
0100
0000
0000
0000
0010
0000
1000
0010
0000
0000
0100
0000
,
0001
0000
0000
0000
0010
0000
0000
0000
0100
0000
1000
0100
0000
0000
1000
0000
,
0010
0000
0100
0000
0010
1000
0001
0000
,
2002
3003
0000
0000
0000
0000
0000
0000
;

//---------------dance-single - ----------------
#NOTEDATA:;
#CHARTNAME:;
#STEPSTYPE:dance-single;
#DESCRIPTION:;
#CHARTSTYLE:;
#DIFFICULTY:Easy;
#METER:3;
#RADARVALUES:0.259,0.272,0.030,0.151,0.000,217.000,4.000,20.000,0.000,0.000,0.000,0.000,0.000,0.259,0.272,0.030,0.151,0.000,217.000,4.000,20.000,0.000,0.000,0.000,0.000,0.000;
#CREDIT:;
#NOTES:
// measure 0
0000
0000
0000
0000
,  // measure 1
0000
0000
0000
0000
,  // measure 2
0000
0000
0000
0000
,  // measure 3
0000
0000
0000
0000
,  // measure 4
0001
0100
0001
0100
,  // measure 5
0001
0000
1000
0000
0001
0000
1000
0001
,  // measure 6
1000
0100
1000
0100
,  // measure 7
1000
0010
0100
0001
,  // measure 8
1000
0100
1000
0000
,  // measure 9
0001
0100
0001
0000
,  // measure 10
1000
0010
1000
0000
,  // measure 11
0001
0010
0001
0010
,  // measure 12
0100
1000
0100
0000
,  // measure 13
0010
0001
0010
0000
,  // measure 14
0001
0100
0010
0000
,  // measure 15
0100
0001
1000
0100
,  // measure 16
0010
0001
0100
0001
,  // measure 17
0010
0000
0100
0000
,  // measure 18
1000
0010
0100
0010
,  // measure 19
1000
0000
0001
0010
,  // measure 20
0001
0000
0001
0010
,  // measure 21
0100
0000
0100
1000
,  // measure 22
0001
1000
0010
0000
,  // measure 23
0010
0100
0001
0000
,  // measure 24
1000
1000
0100
0000
,  // measure 25
1000
1000
0010
0100
,  // measure 26
0001
0001
0010
0000
,  // measure 27
0001
0001
0100
0010
,  // measure 28
0100
0000
0100
0001
,  // measure 29
1000
0000
0001
0010
,  // measure 30
0100
0100
1000
0001
,  // measure 31
1000
1000
0010
0100
,  // measure 32
0010
0000
0010
0000
,  // measure 33
0110
0000
0100
0001
,  // measure 34
1000
0000
1000
0000
,  // measure 35
1001
0000
0001
0100
,  // measure 36
0001
0000
1000
0100
,  // measure 37
1000
0000
0100
1000
,  // measure 38
0001
0000
1000
0000
,  // measure 39
2002
0000
0000
3003
,  // measure 40
1000
1000
0001
0001
,  // measure 41
1000
1000
0001
0010
,  // measure 42
0100
0000
0020
0030
,  // measure 43
0200
0300
0020
0030
,  // measure 44
0001
0001
1000
1000
,  // measure 45
0001
0001
1000
0010
,  // measure 46
0100
0000
0020
0030
,  // measure 47
0200
0300
0020
0030
,  // measure 48
2000
0000
0000
3000
,  // measure 49
0020
0000
0000
0030
,  // measure 50
0200
0000
0000
0300
,  // measure 51
0002
0003
0020
0030
0200
0300
2000
3000
,  // measure 52
0002
0000
0000
0003
,  // measure 53
0200
0000
0000
0300
,  // measure 54
0020
0000
0000
0030
,  // measure 55
1000
0001
1000
0001
,  // measure 56
1000
0100
1000
0100
,  // measure 57
0010
0001
0010
0000
,  // measure 58
0001
0100
0001
0100
,  // measure 59
0010
1000
0010
1000
,  // measure 60
0001
0001
1000
1000
,  // measure 61
0001
0001
1000
1000
,  // measure 62
0010
0010
0100
0100
,  // measure 63
0010
0010
0100
0100
,  // measure 64
0001
0001
1000
0001
,  // measure 65
1000
1000
0001
0100
,  // measure 66
0010
0010
0100
0010
,  // measure 67
1000
0100
0010
0001
,  // measure 68
1000
1000
0001
1000
,  // measure 69
0001
0001
1000
0100
,  // measure 70
0010
0010
0100
0010
,  // measure 71
0001
0100
0010
1000
,  // measure 72
2002
3003
0000
0000
0000
0000
0000
0000
;
