#TITLE:Creeping Up The Backstairs;
#SUBTITLE:;
#ARTIST:The Fratellis;
#TITLETRANSLIT:;
#SUBTITLETRANSLIT:;
#ARTISTTRANSLIT:;
#CREDIT:;
#BANNER:;
#BACKGROUND:;
#LYRICSPATH:;
#CDTITLE:;
#MUSIC:Creeping Up The Backstairs.mp3;
#OFFSET:-7.940;
#SAMPLESTART:54.970;
#SAMPLELENGTH:7.920;
#SELECTABLE:YES;
#DISPLAYBPM:245.000;
#BPMS:0.000=245.000,32.000=243.000,40.000=247.000,62.000=225.000,64.000=251.000,68.000=241.000,72.000=245.000,80.000=241.000,84.000=249.000,88.000=243.000,92.000=251.000,96.000=243.000,100.000=245.000,104.000=243.000,108.000=240.000,112.000=247.000,124.000=244.000,148.000=252.000,152.000=236.000,156.000=250.000,160.000=243.000,164.000=244.000,192.000=251.000,200.000=244.000,208.000=246.000,216.000=244.000,220.000=238.000,224.000=254.000,228.000=246.000,232.000=248.000,236.000=239.000,240.000=244.000,248.000=245.000,276.000=250.000,280.000=244.000,288.000=246.000,296.000=245.000,320.000=243.000,328.000=246.000,336.000=244.000,344.000=242.000,352.000=244.000,372.000=245.000,392.000=245.000,408.000=243.000,424.000=246.000;
#STOPS:;
#BGCHANGES:;

//---------------dance-single - ----------------
#NOTES:
     dance-single:
     :
     Hard:
     9:
     0.705,0.705,0.563,0.340,0.033: // measure 1
1000
0010
1000
0010
,  // measure 2
0100
0001
0100
0001
,  // measure 3
1000
0100
0010
0001
,  // measure 4
0000
1000
0001
0000
0101
0000
1010
0000
,  // measure 5
0110
0010
1000
0100
,  // measure 6
0010
0001
0100
0001
,  // measure 7
1000
0100
0010
0001
,  // measure 8
0000
1000
0020
0000
0200
0000
0330
0000
,  // measure 9
1001
0000
0000
1000
0000
0000
0001
0000
,  // measure 10
1000
0000
0001
0010
0000
0100
1000
0000
,  // measure 11
0001
0000
0100
0010
0000
0100
0001
0000
,  // measure 12
1000
0010
0100
0000
0010
0100
0001
0000
,  // measure 13
1000
0000
0000
0100
0000
1000
0001
0000
,  // measure 14
1000
0000
0000
0001
0000
0100
0001
0000
,  // measure 15
1000
0000
0010
0100
0000
0010
0100
0000
,  // measure 16
0001
1000
0100
0000
0120
0000
0031
0000
,  // measure 17
1001
0000
1000
0010
0000
0100
0001
0000
,  // measure 18
1000
0000
0000
0001
0000
0000
1000
0000
,  // measure 19
0001
0010
0100
0010
,  // measure 20
0001
0010
0001
1000
0000
1000
0001
0000
,  // measure 21
1000
0000
0001
0100
0000
0010
1000
0000
,  // measure 22
0001
0000
0000
0010
0000
0000
0100
0000
,  // measure 23
1000
0000
0010
0100
0010
0000
1000
0000
,  // measure 24
0001
1000
0100
0010
0000
0001
0100
0000
,  // measure 25
0110
0000
0000
1001
0000
0000
0100
0000
,  // measure 26
0010
0000
1000
0100
0000
0010
0001
0000
,  // measure 27
1000
0000
0001
0100
0000
0010
0100
0010
,  // measure 28
0100
0000
0001
0000
1000
0100
1000
0000
,  // measure 29
0001
0000
1000
0100
0000
0010
0001
0000
,  // measure 30
1000
0010
0100
0001
,  // measure 31
1000
0000
0001
0010
0000
0100
0010
0000
,  // measure 32
0001
1000
0001
0100
0000
0010
1000
0000
,  // measure 33
0101
0000
0000
2002
0000
0000
3003
0000
,  // measure 34
1100
0000
0000
0220
0000
0000
0330
0000
,  // measure 35
0010
0001
0100
1000
,  // measure 36
0100
0000
0001
1000
0000
0001
1000
0000
,  // measure 37
0101
0000
0000
2020
0000
0000
3030
0000
,  // measure 38
1100
0000
0000
0022
0000
0000
0033
0000
,  // measure 39
1000
0010
0001
1000
,  // measure 40
0100
0000
0001
0000
1000
0001
1000
0000
,  // measure 41
1010
0000
0000
0202
0000
0000
0303
0000
,  // measure 42
0011
0000
0000
2200
0000
0000
3300
0000
,  // measure 43
0001
0100
0001
1000
,  // measure 44
0100
0000
1000
0000
0001
1000
0001
1000
,  // measure 45
0001
0000
0000
0000
0101
0000
0000
0000
0110
0000
0000
0000
,  // measure 46
1010
0000
0000
0000
1100
0000
0000
0000
1001
0000
0000
0000
,  // measure 47
0110
0010
1000
0010
,  // measure 48
0001
0000
0010
0000
0100
0001
1000
0001
,  // measure 49
1000
0100
1000
0000
,  // measure 50
0001
0100
0001
0000
,  // measure 51
1000
0010
0100
0002
,  // measure 52
0000
1000
1003
0000
,  // measure 53
0001
0100
0001
0000
,  // measure 54
1000
1000
0001
0001
,  // measure 55
0100
0010
0100
0010
0200
0000
0020
0000
,  // measure 56
0330
1001
2002
3003
,  // measure 57
1000
0100
0010
0001
,  // measure 58
1000
0010
0100
0001
,  // measure 59
1000
0000
0001
0000
1000
0001
1000
0000
,  // measure 60
0001
1001
1001
1001
,  // measure 61
1000
0000
0100
0000
0001
0100
0001
0000
,  // measure 62
0100
0000
0010
0000
0001
0100
0001
0000
,  // measure 63
0100
0000
1000
0000
0100
0010
0100
0000
,  // measure 64
0010
1000
2002
3003
,  // measure 65
1000
0000
0010
0000
0100
0010
1000
0000
,  // measure 66
0001
0000
0010
0010
0001
0100
0001
0000
,  // measure 67
1000
0000
0100
0000
0010
0100
1000
0000
,  // measure 68
0001
0101
1100
0101
,  // measure 69
1001
0000
1000
0000
0001
0010
0100
0000
,  // measure 70
0001
0000
0100
0100
1000
0001
0100
0000
,  // measure 71
0010
0000
1000
0000
0100
0010
0001
0000
,  // measure 72
1000
0010
0100
0000
0110
0000
1001
0000
,  // measure 73
0110
0000
0010
1000
0000
1000
0100
0000
,  // measure 74
0100
0001
0000
0001
0020
0000
0030
0000
,  // measure 75
1001
0000
0000
2002
0000
0000
3003
0000
,  // measure 76
0110
0000
0000
0220
0000
0000
0330
0000
,  // measure 77
0001
0100
1000
0100
,  // measure 78
0001
0000
0100
0000
0010
1000
0001
1000
,  // measure 79
1001
0000
0000
2002
0000
0000
3003
0000
,  // measure 80
0110
0000
0000
0220
0000
0000
0330
0000
,  // measure 81
0010
1000
0100
1000
,  // measure 82
0010
0000
1000
0000
0001
0010
0100
1000
,  // measure 83
1100
0000
0000
2002
0000
0000
3003
0000
,  // measure 84
0101
0000
0000
2002
0000
0000
3003
0000
,  // measure 85
1000
0010
0001
1000
,  // measure 86
0100
0000
0001
0000
0100
0001
0100
0010
,  // measure 87
1010
0000
0000
0000
1010
0000
0000
0000
1001
0000
0000
0000
,  // measure 88
1001
0000
0000
0000
0011
0000
0000
0000
0110
0000
0000
0000
,  // measure 89
1001
1000
0010
0100
,  // measure 90
0001
0000
0100
0000
0010
1000
0010
1000
,  // measure 91
0001
1000
0100
0000
,  // measure 92
1000
0001
0100
0000
,  // measure 93
0010
0000
0100
0010
0100
0000
0002
0000
,  // measure 94
0000
1000
2000
3003
,  // measure 95
1000
0100
1000
0100
1000
0000
0001
0000
,  // measure 96
1000
0100
0010
0001
,  // measure 97
1000
0100
0010
0001
0100
0000
0002
0000
,  // measure 98
0000
1000
2000
3003
,  // measure 99
1000
0100
0010
0100
1000
0000
0001
0000
,  // measure 100
1000
0000
0010
0000
1000
1000
0010
0000
,  // measure 101
0100
0000
0001
1000
0100
0100
0010
0000
,  // measure 102
0000
0010
0001
0000
1100
0000
0011
0000
,  // measure 103
1000
0010
0100
0010
1000
0000
0001
0000
,  // measure 104
1000
0000
0100
0000
0010
0010
0001
0000
,  // measure 105
1000
0010
0100
0001
0100
0000
0010
0000
,  // measure 106
1000
1100
0022
0033
,  // measure 107
1001
0000
1000
0100
1000
0000
0001
0010
,  // measure 108
0001
0000
1000
0100
0010
0001
0100
0010
,  // measure 109
1000
0000
0001
0100
0001
0000
1000
0000
,  // measure 110
0001
0110
1001
0110
,  // measure 111
1001
0000
1000
0001
0100
0000
0010
0100
,  // measure 112
0001
0000
0100
0001
1000
0010
0100
0001
,  // measure 113
1000
0000
0001
0010
0100
0100
0010
0000
,  // measure 114
0001
1000
0001
0000
1001
0000
0000
0000
;

//---------------dance-single - ----------------
#NOTES:
     dance-single:
     :
     Beginner:
     4:
     0.207,0.329,0.215,0.017,0.000: // measure 1
1000
0000
0000
0000
,  // measure 2
0001
0000
0000
0000
,  // measure 3
1000
0000
1000
0000
,  // measure 4
0001
0000
0001
0000
,  // measure 5
0100
0000
0000
0000
,  // measure 6
0010
0000
0000
0000
,  // measure 7
0100
0000
0100
0000
,  // measure 8
0010
0000
0010
0000
,  // measure 9
0110
0000
0000
0000
,  // measure 10
0100
0000
0000
0000
,  // measure 11
0001
0000
0000
0000
,  // measure 12
1000
0000
0001
0000
,  // measure 13
1000
0000
0000
0000
,  // measure 14
0001
0000
0000
0000
,  // measure 15
0010
0000
0000
0000
,  // measure 16
0100
0000
0010
0000
,  // measure 17
0100
0000
0000
0000
,  // measure 18
1000
0000
0000
0000
,  // measure 19
0001
0000
1000
0000
,  // measure 20
0001
0000
1000
0000
,  // measure 21
0100
0000
0000
0000
,  // measure 22
1000
0000
0000
0000
,  // measure 23
0001
0000
0100
0000
,  // measure 24
0001
0000
0100
0000
,  // measure 25
0010
0000
0000
0000
,  // measure 26
0100
0000
0000
0000
,  // measure 27
0010
0000
1000
0000
,  // measure 28
0010
0000
1000
0000
,  // measure 29
0001
0000
0000
0000
,  // measure 30
1000
0000
0000
0000
,  // measure 31
0001
0000
0010
0000
,  // measure 32
0100
0000
1000
0000
,  // measure 33
1001
0000
0000
0000
,  // measure 34
1001
0000
0000
0000
,  // measure 35
0001
0000
0100
0000
,  // measure 36
0010
0000
0100
0000
,  // measure 37
0110
0000
0000
0000
,  // measure 38
0110
0000
0000
0000
,  // measure 39
0010
0000
0100
0000
,  // measure 40
0001
0000
1000
0000
,  // measure 41
1001
0000
0000
0000
,  // measure 42
1001
0000
0000
0000
,  // measure 43
1000
0000
0100
0000
,  // measure 44
0010
0000
0100
0000
,  // measure 45
0110
0000
0000
0000
,  // measure 46
1001
0000
0000
0000
,  // measure 47
1000
0000
0010
0000
,  // measure 48
0100
0000
0001
0000
,  // measure 49
1001
0000
0000
0000
,  // measure 50
0000
0000
0000
0000
,  // measure 51
0000
0000
0000
0000
,  // measure 52
0000
0000
0000
0000
,  // measure 53
0110
0000
0000
0000
,  // measure 54
0000
0000
0000
0000
,  // measure 55
0000
0000
0000
0000
,  // measure 56
0000
0000
0000
0000
,  // measure 57
1001
0000
0000
0000
,  // measure 58
0001
0000
0000
0000
,  // measure 59
1000
0000
0000
0000
,  // measure 60
0001
0000
0001
0000
,  // measure 61
0001
0000
0000
0000
,  // measure 62
0100
0000
0000
0000
,  // measure 63
0010
0000
0000
0000
,  // measure 64
0220
0000
0330
0000
,  // measure 65
1001
0000
0000
0000
,  // measure 66
1000
0000
0000
0000
,  // measure 67
0001
0000
0000
0000
,  // measure 68
1000
0000
1000
0000
,  // measure 69
0100
0000
0000
0000
,  // measure 70
0010
0000
0000
0000
,  // measure 71
0100
0000
0100
0000
,  // measure 72
0010
0000
0010
0000
,  // measure 73
1001
0000
0000
0000
,  // measure 74
0000
0000
0000
0000
,  // measure 75
1001
0000
0000
0000
,  // measure 76
0110
0000
0000
0000
,  // measure 77
0010
0000
0100
0000
,  // measure 78
0010
0000
0100
0000
,  // measure 79
0110
0000
0000
0000
,  // measure 80
1001
0000
0000
0000
,  // measure 81
1000
0000
0100
0000
,  // measure 82
0010
0000
0001
0000
,  // measure 83
1001
0000
0000
0000
,  // measure 84
0110
0000
0000
0000
,  // measure 85
0010
0000
0100
0000
,  // measure 86
0001
0000
1000
0000
,  // measure 87
1001
0000
0000
0000
,  // measure 88
0110
0000
0000
0000
,  // measure 89
0010
0000
0100
0000
,  // measure 90
0001
0000
1000
0000
,  // measure 91
1001
0000
0000
0000
,  // measure 92
0000
0000
0000
0000
,  // measure 93
0000
0000
0000
0000
,  // measure 94
0000
0000
0000
0000
,  // measure 95
0110
0000
0000
0000
,  // measure 96
0000
0000
0000
0000
,  // measure 97
0000
0000
0000
0000
,  // measure 98
0000
0000
0000
0000
,  // measure 99
1000
0000
0100
0000
,  // measure 100
1000
0000
0000
0000
,  // measure 101
0001
0000
0100
0000
,  // measure 102
0001
0000
0000
0000
,  // measure 103
1000
0000
0010
0000
,  // measure 104
1000
0000
0001
0000
,  // measure 105
0100
0000
0001
0000
,  // measure 106
0100
0000
0000
0000
,  // measure 107
0010
0000
0010
0000
,  // measure 108
0100
0000
0100
0000
,  // measure 109
0010
0000
1000
0000
,  // measure 110
0001
0000
0000
0000
,  // measure 111
1000
0000
1000
0000
,  // measure 112
0001
0000
0001
0000
,  // measure 113
1000
0000
0100
0000
,  // measure 114
0010
0000
0110
0000
;

//---------------dance-single - ----------------
#NOTES:
     dance-single:
     :
     Easy:
     6:
     0.384,0.611,0.257,0.331,0.000: // measure 1
1000
0000
0001
0000
,  // measure 2
1000
0000
0001
0000
,  // measure 3
0100
0000
0020
0000
,  // measure 4
0000
1000
1030
0000
,  // measure 5
0001
0000
1000
0000
,  // measure 6
0100
0000
0010
0000
,  // measure 7
0001
0000
0200
0000
,  // measure 8
0000
0010
0310
0000
,  // measure 9
1001
0000
0000
1001
0000
0000
0000
0000
,  // measure 10
0001
0000
1000
0000
,  // measure 11
0100
0000
0010
0000
,  // measure 12
0100
0100
0100
0000
,  // measure 13
0110
0000
0000
0110
0000
0000
0000
0000
,  // measure 14
0010
0000
0001
0000
,  // measure 15
1000
0000
0001
0000
,  // measure 16
0100
0100
0100
0000
,  // measure 17
1001
0000
0001
0000
,  // measure 18
1000
0000
0100
0000
,  // measure 19
0010
0001
0010
0000
,  // measure 20
0100
1000
0100
0000
,  // measure 21
1000
0000
0001
0000
,  // measure 22
0100
0000
0010
0000
,  // measure 23
1000
0010
1000
0000
,  // measure 24
0001
0100
0001
0100
,  // measure 25
0010
0000
0100
0000
,  // measure 26
0010
0000
1000
0000
,  // measure 27
0001
0000
1000
0000
,  // measure 28
0001
0010
0001
0010
,  // measure 29
0100
0000
0010
0000
,  // measure 30
0001
0000
1000
0000
,  // measure 31
0010
0000
0100
0000
,  // measure 32
0010
1000
0010
1000
,  // measure 33
0001
0000
0000
2002
0000
0000
3003
0000
,  // measure 34
1000
0000
0000
2002
0000
0000
3003
0000
,  // measure 35
0001
0000
1000
0000
,  // measure 36
0010
0100
0010
0100
,  // measure 37
0010
0000
0000
0220
0000
0000
0330
0000
,  // measure 38
0100
0000
0000
0220
0000
0000
0330
0000
,  // measure 39
0010
0000
1000
0000
,  // measure 40
0001
1000
0100
0010
,  // measure 41
0001
0000
0000
2002
0000
0000
3003
0000
,  // measure 42
1000
0000
0000
2002
0000
0000
3003
0000
,  // measure 43
0001
0000
0100
0000
,  // measure 44
0010
1000
0100
1000
,  // measure 45
2002
0000
0000
0000
0000
0000
0000
0000
3003
0000
0000
0000
,  // measure 46
0220
0000
0000
0000
0000
0000
0000
0000
0330
0000
0000
0000
,  // measure 47
0010
0000
1000
0000
,  // measure 48
0001
1000
0001
1000
,  // measure 49
0001
0000
0001
0000
,  // measure 50
1000
0000
1000
0000
,  // measure 51
0100
0000
0020
0000
,  // measure 52
0000
0100
0130
0000
,  // measure 53
0100
0000
1000
0000
,  // measure 54
0001
0000
1000
0000
,  // measure 55
0001
0000
0200
0000
,  // measure 56
0000
0010
0310
0000
,  // measure 57
0010
0000
1000
0000
,  // measure 58
0001
0000
0100
0000
,  // measure 59
0001
1000
0001
2000
,  // measure 60
0000
0001
3001
0000
,  // measure 61
0001
0000
0010
0000
,  // measure 62
0100
0000
1000
0000
,  // measure 63
0100
0010
0100
0020
,  // measure 64
0000
0100
0130
0000
,  // measure 65
1001
0000
1000
0000
,  // measure 66
0010
0000
0100
0000
,  // measure 67
0001
0000
1000
0010
,  // measure 68
0000
0100
0001
0000
,  // measure 69
1000
0000
0100
0000
,  // measure 70
0010
0000
0001
0000
,  // measure 71
1000
0000
0001
0010
,  // measure 72
0000
0100
1000
0000
,  // measure 73
2002
0000
0000
0000
,  // measure 74
0000
0000
3003
0000
,  // measure 75
0110
0000
0000
0220
0000
0000
0330
0000
,  // measure 76
1001
0000
0000
2002
0000
0000
3003
0000
,  // measure 77
1000
0000
0100
0000
,  // measure 78
1000
0000
0001
0000
,  // measure 79
1001
0000
0000
2002
0000
0000
3003
0000
,  // measure 80
0110
0000
0000
0220
0000
0000
0330
0000
,  // measure 81
0010
0000
0100
0000
,  // measure 82
0001
0000
1000
0000
,  // measure 83
1001
0000
0000
2002
0000
0000
3003
0000
,  // measure 84
0110
0000
0000
0220
0000
0000
0330
0000
,  // measure 85
0010
0000
1000
0000
,  // measure 86
0001
0000
0010
0000
,  // measure 87
0220
0000
0000
0000
0000
0000
0000
0000
0330
0000
0000
0000
,  // measure 88
2002
0000
0000
0000
0000
0000
0000
0000
3003
0000
0000
0000
,  // measure 89
1000
0000
0100
0000
,  // measure 90
0010
0000
0001
1000
,  // measure 91
0001
0000
0000
0000
,  // measure 92
1000
0000
0000
0000
,  // measure 93
0010
0000
0100
0000
,  // measure 94
0010
0100
0010
0000
,  // measure 95
0100
0000
0000
0000
,  // measure 96
0001
0000
0000
0000
,  // measure 97
1000
0000
0001
0000
,  // measure 98
1000
0001
1000
0000
,  // measure 99
0001
0010
0001
0000
,  // measure 100
1000
0100
1000
0000
,  // measure 101
0001
0000
0100
0000
,  // measure 102
0010
0100
0010
0000
,  // measure 103
1000
0010
1000
0000
,  // measure 104
0001
0100
0001
0000
,  // measure 105
1000
0000
0100
0000
,  // measure 106
0010
0001
0100
0000
,  // measure 107
0010
0000
1000
0000
,  // measure 108
0001
1000
0100
0000
,  // measure 109
0010
0000
0001
0000
,  // measure 110
0100
0001
1000
0000
,  // measure 111
0100
0000
1000
0000
,  // measure 112
0001
0010
0100
0000
,  // measure 113
0010
0000
0001
0000
,  // measure 114
0000
1001
1001
0000
;

//---------------dance-single - ----------------
#NOTES:
     dance-single:
     :
     Medium:
     7:
     0.515,0.658,0.306,0.323,0.033: // measure 1
1000
0010
0100
0000
,  // measure 2
0001
1000
0100
0000
,  // measure 3
1000
0100
0010
0002
,  // measure 4
0000
0100
0103
0000
,  // measure 5
0001
1000
0100
0000
,  // measure 6
0010
0100
0010
0000
,  // measure 7
0001
0010
0100
2000
,  // measure 8
0000
0001
3001
0000
,  // measure 9
1000
0000
0000
0010
0000
0000
1000
0000
,  // measure 10
0001
0000
0000
0100
0000
0000
0001
0000
,  // measure 11
1000
0100
0010
0001
,  // measure 12
0100
0010
1000
0010
,  // measure 13
0100
0000
0000
0010
0000
0000
0100
0000
,  // measure 14
0001
0000
0000
1000
0000
0000
0001
0000
,  // measure 15
1000
0100
0010
0001
,  // measure 16
0100
0010
2002
3003
,  // measure 17
1000
0000
0000
0001
0000
0000
0100
0000
,  // measure 18
0001
0000
0000
1000
0000
0000
0100
0000
,  // measure 19
1000
0000
0000
0001
0000
0000
1000
0000
,  // measure 20
0001
0010
0100
1000
,  // measure 21
0100
0000
0000
0010
0000
0000
0100
0000
,  // measure 22
1000
0000
0000
0001
0000
0000
1000
0000
,  // measure 23
0010
0000
0000
0100
0000
0000
0001
0000
,  // measure 24
1000
0001
1000
0100
,  // measure 25
0110
0000
0000
0220
0000
0000
0330
0000
,  // measure 26
1001
0000
0000
2002
0000
0000
3003
0000
,  // measure 27
0110
0000
0000
1001
0000
0000
0110
0000
,  // measure 28
0010
0100
1000
0001
,  // measure 29
1000
0000
0000
0001
0000
0001
0100
0000
,  // measure 30
0010
0000
0000
1000
0000
1000
0100
0000
,  // measure 31
0010
0000
0100
0010
0000
0100
0010
0000
,  // measure 32
0001
1000
0001
0100
,  // measure 33
0110
0000
0000
0220
0000
0000
0330
0000
,  // measure 34
1001
0000
0000
2002
0000
0000
3003
0000
,  // measure 35
1000
0100
1000
0100
,  // measure 36
0010
0001
0010
0001
,  // measure 37
1001
0000
0000
2002
0000
0000
3003
0000
,  // measure 38
0110
0000
0000
0220
0000
0000
0330
0000
,  // measure 39
0010
1000
0001
0100
,  // measure 40
0001
1000
0100
0010
,  // measure 41
0011
0000
0000
0022
0000
0000
0033
0000
,  // measure 42
1100
0000
0000
2200
0000
0000
3300
0000
,  // measure 43
1000
0100
1000
0100
,  // measure 44
1000
0001
1000
0001
,  // measure 45
0100
0000
0000
0000
0001
0000
0000
0000
0100
0000
0000
0000
,  // measure 46
0010
0000
0000
0000
1000
0000
0000
0000
0001
0000
0000
0000
,  // measure 47
1000
0001
1000
0001
,  // measure 48
0100
0010
0100
0010
,  // measure 49
0100
0000
0010
0000
,  // measure 50
0100
0000
0001
0000
,  // measure 51
1000
0001
1000
0002
,  // measure 52
0000
0100
0103
0000
,  // measure 53
0001
0000
0100
0000
,  // measure 54
0010
0000
1000
0000
,  // measure 55
0100
1000
0100
0020
,  // measure 56
0000
0100
0130
0000
,  // measure 57
0001
1000
0001
0000
,  // measure 58
1000
0010
1000
0000
,  // measure 59
0001
0100
0001
0200
,  // measure 60
0000
0010
0310
0000
,  // measure 61
0010
1000
0100
0000
,  // measure 62
0010
0001
0100
0000
,  // measure 63
0001
1000
0100
0020
,  // measure 64
0000
0001
0031
0000
,  // measure 65
0001
0100
0001
0100
,  // measure 66
0010
1000
0010
1000
,  // measure 67
0001
1000
0100
0010
,  // measure 68
0000
0010
0100
0000
,  // measure 69
0010
0001
0100
0001
,  // measure 70
1000
0010
0100
0010
,  // measure 71
1000
0100
0010
0001
,  // measure 72
0000
1000
0100
0000
,  // measure 73
1000
0000
0000
0001
0000
0000
1000
0000
,  // measure 74
0000
0001
0000
0000
0100
0000
0010
0000
,  // measure 75
0110
0000
0000
0220
0000
0000
0330
0000
,  // measure 76
1001
0000
0000
2002
0000
0000
3003
0000
,  // measure 77
1000
0010
0100
0001
,  // measure 78
0100
0010
1000
0001
,  // measure 79
1001
0000
0000
2002
0000
0000
3003
0000
,  // measure 80
0110
0000
0000
0220
0000
0000
0330
0000
,  // measure 81
1000
0100
0010
0001
,  // measure 82
0010
0100
1000
0001
,  // measure 83
1001
0000
0000
2200
0000
0000
3300
0000
,  // measure 84
1001
0000
0000
0202
0000
0000
0303
0000
,  // measure 85
1000
0010
1000
0001
,  // measure 86
1000
0100
1000
0001
,  // measure 87
0011
0000
0000
0000
0010
0000
0000
0000
0001
0000
0000
0000
,  // measure 88
0100
0000
0000
0000
0010
0000
0000
0000
1000
0000
0000
0000
,  // measure 89
0001
1000
0001
1000
,  // measure 90
0010
0100
0010
0100
,  // measure 91
0010
0000
1000
0000
,  // measure 92
0100
0000
0010
0000
,  // measure 93
0001
0000
1000
0000
,  // measure 94
0001
1000
0001
0000
,  // measure 95
1000
0010
1000
0000
,  // measure 96
0001
0100
0001
0000
,  // measure 97
0100
0010
0100
0002
,  // measure 98
0000
1000
1003
0000
,  // measure 99
1000
0100
0010
0001
,  // measure 100
1000
0001
1000
0000
,  // measure 101
0001
0100
1000
0200
,  // measure 102
0000
0001
0301
0000
,  // measure 103
1000
0100
0001
0100
,  // measure 104
1000
1000
0001
0001
,  // measure 105
1000
0010
0100
0002
,  // measure 106
0000
1000
1003
0000
,  // measure 107
0001
0010
0100
1000
,  // measure 108
0100
0001
0100
1000
,  // measure 109
0001
0100
0010
1000
,  // measure 110
0000
1001
1001
0000
,  // measure 111
0001
0010
0100
0010
,  // measure 112
0001
1000
0001
1000
,  // measure 113
0010
0100
0001
0100
,  // measure 114
0000
1001
1001
0000
;
