#TITLE:Chirumiru Cirno;
#SUBTITLE:;
#ARTIST:Conagusuri;
#TITLETRANSLIT:;
#SUBTITLETRANSLIT:;
#ARTISTTRANSLIT:;
#CREDIT:;
#BANNER:[Round 1] - Chirumiru Cirno.png;
#BACKGROUND:[Round 1] - Chirumiru Cirno-background.png;
#LYRICSPATH:;
#CDTITLE:;
#MUSIC:Chirumiru Cirno.mp3;
#OFFSET:0.521;
#SAMPLESTART:38.140;
#SAMPLELENGTH:13.480;
#SELECTABLE:YES;
#BPMS:0.000=180.000;
#STOPS:284.000=0.167
,284.500=0.167
,286.500=0.167
,288.500=0.167
,289.000=0.167
,289.500=0.167
,290.000=0.167
,292.000=0.167
,294.000=0.167
,294.500=0.167
;
#BGCHANGES:2.000=[Round 1] - Chirumiru Cirno.avi=1.000=0=0=1,
99999=-nosongbg-=1.000=0=0=0 // don't automatically add -songbackground-
;

//---------------dance-single - ----------------
#NOTES:
     dance-single:
     :
     Hard:
     9:
     0.661,0.829,0.883,0.260,0.000: // measure 1
0000
0000
0000
0000
,  // measure 2
0000
0000
0000
0000
,  // measure 3
0000
0000
0000
0000
,  // measure 4
0000
0000
0000
0000
,  // measure 5
0000
0000
0000
0000
,  // measure 6
0001
1000
0001
1000
,  // measure 7
0001
1000
0001
1000
,  // measure 8
0001
0000
0000
0000
2000
0000
3000
0000
0001
0000
0000
0000
2000
3000
0000
0000
,  // measure 9
0001
1000
0001
1000
,  // measure 10
0010
0100
0010
0100
,  // measure 11
0010
0100
0010
0100
,  // measure 12
0010
0100
0010
0100
,  // measure 13
2002
0000
0000
3003
,  // measure 14
0001
0100
1000
0000
0100
0010
1000
0000
,  // measure 15
1000
0010
0100
0010
0100
0010
1000
0000
,  // measure 16
0001
0100
0010
0000
0010
0100
0001
1000
,  // measure 17
0100
0010
0100
0010
0100
0000
0100
0100
,  // measure 18
0010
0001
0100
0000
0010
1000
0100
0000
,  // measure 19
1000
0001
0100
0001
0010
0100
0010
0000
,  // measure 20
0001
0010
0100
0000
0100
1000
0010
0000
,  // measure 21
0100
0010
1000
0001
0010
0100
1000
0010
,  // measure 22
1010
0011
1010
0011
,  // measure 23
1010
0011
1010
0011
,  // measure 24
1010
0011
1010
0011
,  // measure 25
1002
0103
2001
3100
,  // measure 26
1010
0011
1010
0011
,  // measure 27
1010
0011
1010
0011
,  // measure 28
1010
0000
0011
0000
1010
0000
1000
0001
,  // measure 29
0000
0001
0010
0000
0100
0000
1000
0000
,  // measure 30
1100
0101
1100
0101
,  // measure 31
1100
0101
1100
0101
,  // measure 32
1100
0101
1100
0101
,  // measure 33
1002
0013
2001
3010
,  // measure 34
1100
0101
1100
0101
,  // measure 35
1100
0101
1100
0101
,  // measure 36
1100
0000
0101
0000
1100
0000
0001
0100
,  // measure 37
0000
0100
0010
0000
1000
0000
0010
0000
,  // measure 38
1000
0100
0001
0100
0000
0100
0010
0000
,  // measure 39
2200
0000
0000
3300
,  // measure 40
0100
0010
0100
0000
0010
0001
0010
0000
,  // measure 41
0001
0100
0001
0000
0100
0010
1000
0000
,  // measure 42
0001
1000
0100
0000
1000
0001
0100
0000
,  // measure 43
0001
1000
0100
0010
0100
1000
0100
0010
,  // measure 44
0100
0010
0001
0000
0001
0100
0010
0000
,  // measure 45
0100
0001
1000
0000
0100
0010
0001
0000
,  // measure 46
1000
0010
0100
0000
0010
0100
0001
0000
,  // measure 47
2000
3100
0002
0103
,  // measure 48
0001
0100
0010
1000
0001
0100
0001
0000
,  // measure 49
1000
0010
0100
0001
1000
0010
1000
0000
,  // measure 50
0100
0010
0001
0010
0100
1000
0001
0000
,  // measure 51
0010
0100
1000
0100
0010
0001
1000
0000
,  // measure 52
0001
0100
1000
0000
1000
0100
0010
0000
,  // measure 53
0100
0001
0010
0100
1000
0010
1001
0000
,  // measure 54
0100
0001
0100
0001
1000
0010
1000
0010
,  // measure 55
0100
0001
0010
0100
1000
0100
0010
0001
,  // measure 56
2000
0000
3000
0100
1000
0010
0100
0001
,  // measure 57
2000
0000
0000
0000
3000
1000
0100
1000
,  // measure 58
0020
0000
0030
0100
0001
0010
0100
0010
,  // measure 59
0002
0000
0003
2000
,  // measure 60
3002
0000
0003
0100
0001
1000
0010
1000
,  // measure 61
0001
0010
0001
0010
0100
0010
0100
0000
,  // measure 62
1000
0100
1000
0100
0010
0100
0010
0001
,  // measure 63
0020
0000
0030
0001
0010
0010
0100
0010
,  // measure 64
0200
0000
0300
0000
0100
1000
0001
0010
,  // measure 65
0200
0000
0000
0000
0300
0010
0001
1000
,  // measure 66
0020
0000
0030
0100
0010
0100
0001
1000
,  // measure 67
0020
0000
0030
0200
,  // measure 68
0302
0000
0003
1000
0010
0100
0001
0010
,  // measure 69
0001
1000
0100
0010
0100
1000
0010
0000
,  // measure 70
0010
0100
1000
0100
0010
1000
0001
0010
,  // measure 71
0200
0000
0000
1000
2000
0000
3300
0000
,  // measure 72
0101
1010
1000
0100
0010
0001
0010
0100
,  // measure 73
1000
1100
0011
0101
1001
0001
0100
1000
,  // measure 74
0100
0000
0100
0000
0010
0000
1000
0000
0002
0003
0100
0000
0101
0000
0000
0000
,  // measure 75
0011
0101
0011
0101
,  // measure 76
0011
0101
0011
0101
,  // measure 77
0011
0101
0011
0012
,  // measure 78
0103
0102
0013
0011
,  // measure 79
0101
0011
0101
0011
,  // measure 80
0101
0011
0101
0011
,  // measure 81
0101
0000
0011
0000
0001
0100
0000
0100
,  // measure 82
0010
1010
0011
1010
,  // measure 83
1100
1010
1100
1010
,  // measure 84
1100
1010
1100
1010
,  // measure 85
1100
1010
1100
2010
,  // measure 86
3010
2100
3100
1100
,  // measure 87
1010
1100
1010
1100
,  // measure 88
1010
1100
1010
1100
,  // measure 89
1010
0000
1100
0000
1010
0010
0000
0100
,  // measure 90
0001
0000
0010
0000
0100
0000
1000
0001
,  // measure 91
0100
1000
0000
0100
0001
0000
0020
0000
,  // measure 92
0000
0000
0030
0000
;

//---------------dance-single - ----------------
#NOTES:
     dance-single:
     :
     Medium:
     6:
     0.454,0.505,0.142,0.213,0.000:
0000
0000
0000
0000
,
0000
0000
0000
0000
,
0000
0000
0000
0000
,
0000
0000
0000
0000
,
0000
0000
0000
0000
,
1000
0001
1000
0001
,
1000
0001
1000
0001
,
1000
0001
1000
0001
,
1000
0001
1000
0001
,
0100
0010
0100
0010
,
0100
0010
0100
0010
,
0100
0010
0100
0010
,
2002
0000
0000
3003
,
0001
0100
0001
0000
0100
0001
0100
0000
,
0001
0100
0001
0000
0101
0000
0001
0000
,
1000
0100
1000
0000
0100
1000
0100
0000
,
1000
0100
1000
0000
1100
0000
0100
0000
,
1000
0001
1000
0000
0001
1000
0001
0000
,
1000
0001
1000
0000
0001
0000
1001
0000
,
0001
0100
0001
0000
0100
0010
0100
0000
,
0010
0100
0001
0010
,
0100
0000
1000
0000
0100
0000
0010
0001
,
0000
0001
0010
0000
0100
0000
0010
0000
,
0001
1000
0001
0100
,
0020
1030
0020
0130
,
0001
0000
0100
0000
0010
0000
1000
0010
,
0000
0100
0001
0000
0010
0000
0100
0000
,
0010
0000
0001
0000
1000
0000
0010
0100
,
0000
0001
0010
0000
0110
0000
0110
0000
,
0100
0000
1000
0000
0100
0000
0001
0100
,
0000
0100
0010
0000
0001
0000
0010
0000
,
0100
1000
0010
0100
,
0002
0103
0200
0310
,
1000
0000
0010
0000
0100
0000
0001
0010
,
0000
0010
0100
0000
0010
0000
0001
0000
,
1000
0000
0010
0000
0100
0000
0001
0100
,
0000
0010
1000
0000
0110
0000
1001
0000
,
0001
0100
1000
0100
0000
0100
0010
0000
,
2000
0000
0000
3000
,
0001
0100
0010
1000
,
0001
0000
0010
0000
0100
1000
0100
0000
,
1000
0010
0100
0001
,
0010
0000
0100
0000
0010
0001
1000
0001
,
0100
0001
0010
0100
,
1000
0000
0100
0000
1000
0010
0100
0000
,
0010
1000
0001
0010
,
0220
0000
0000
0330
,
0100
0010
0001
0011
,
0001
0100
0010
1010
,
1000
0100
0010
0011
,
0001
0100
0010
1010
,
0010
0100
0001
0010
,
0100
0000
1000
0000
0001
1000
1001
0000
,
0001
0100
0010
1000
,
0001
0100
0010
0000
0100
0010
1000
0100
,
0020
0000
0130
1000
,
0002
0000
0003
0100
,
0002
0000
0103
0010
,
2000
0000
3000
0010
,
0200
0000
0310
1000
,
0001
0010
1000
0010
,
0100
0100
1000
1000
,
0002
0000
1003
0100
,
0110
0000
0100
1000
,
0020
0000
0030
0100
,
0002
0000
0103
0010
,
2000
0000
3000
0100
,
2000
0000
3100
0010
,
0001
0010
0100
0010
,
0001
0001
1000
1000
,
0020
0000
0000
0100
0200
0000
0330
0000
,
0010
0100
0010
0000
1000
0010
0100
0000
,
0010
1000
0001
1000
0100
0010
0000
0001
,
0010
0100
0000
0100
1000
0100
0010
0000
,
0100
0000
1000
0000
0001
0100
0000
0010
,
1000
0010
0100
0001
,
1000
0100
0000
0020
,
0130
0200
1300
0100
,
0010
0000
0001
0000
0001
0010
0000
0100
,
1000
0001
0100
1000
,
0100
0000
0010
0000
0100
0001
0000
0001
,
0010
0110
0110
0100
,
0010
0000
0001
0000
1000
0001
0000
0001
,
0100
0100
0010
1000
,
0001
0010
0000
0200
,
1300
0200
0310
0100
,
1000
0000
0010
0000
0100
0010
0000
1000
,
0001
0001
0010
0100
,
0010
0000
0001
0000
0000
0100
0000
0010
,
1000
0000
0001
0000
0010
0000
0001
0010
,
0100
1000
0000
1000
0100
0000
0022
0000
,
0000
0000
0033
0000
;

//---------------dance-single - ----------------
#NOTES:
     dance-single:
     :
     Easy:
     4:
     0.331,0.397,0.039,0.165,0.000:
0000
0000
0000
0000
,
0000
0000
0000
0000
,
0000
0000
0000
0000
,
0000
0000
0000
0000
,
0000
0000
0000
0000
,
0020
0000
0000
0000
,
0030
0100
0000
0100
,
0000
0001
0000
0001
,
0000
1000
0000
1000
,
0100
0010
0000
0100
,
0000
1000
0000
0001
,
0000
0100
0000
0010
,
0200
0000
0000
0300
,
0001
0000
0100
0000
,
0001
0100
0001
1000
,
0010
0000
0100
0010
,
0100
0100
0100
0001
,
1000
0000
0100
0000
,
1000
0010
0100
0001
,
0010
0100
0010
0100
,
1000
0001
1000
0001
,
0100
0001
0010
0001
,
0100
0001
0010
0001
,
0100
0001
0010
0000
,
0010
0010
0100
0100
,
1000
0100
1000
0010
,
1000
0100
1000
0010
,
1000
0100
1000
0010
,
0100
0010
1000
1000
,
0001
1000
0100
1000
,
0001
0100
0001
1000
,
0100
1000
0001
0000
,
0001
0001
1000
1000
,
0001
0010
0001
1000
,
0010
1000
0001
0010
,
0001
1000
0010
1000
,
0001
1000
0100
0010
,
0001
0010
0100
1000
,
2002
0000
0000
3003
,
0001
0000
0100
0000
,
0010
0100
0001
0001
,
1000
0000
0100
0000
,
1000
0010
0100
0001
,
0100
0000
0001
0000
,
1000
0100
1000
0010
,
0100
0000
0010
0000
,
0200
0000
0000
0300
,
0010
0000
1000
0000
,
0100
0000
0010
0000
,
0001
0000
1000
0000
,
1000
0000
0010
0000
,
0100
0000
0001
0000
,
1000
0000
0000
0000
0001
1000
0001
0000
,
1000
0000
0100
0000
,
0010
0001
1000
0010
,
0100
0000
0100
0001
,
2000
0000
3000
0000
,
0001
0000
1000
0001
,
0200
0000
0300
0001
,
1000
0000
0100
0000
,
1000
0000
0010
0000
,
0100
0001
0100
0010
,
1000
0000
0010
0100
,
1001
0000
0001
0100
,
0020
0000
0030
0100
,
0002
0000
0103
0010
,
2000
0000
3000
0010
,
0010
0000
0100
0001
,
1000
0100
0010
0001
,
0010
0010
0100
0100
,
2000
0000
0002
3003
,
1000
0001
0100
0000
0000
0001
0000
0100
,
0000
0010
1000
0010
0100
0001
0000
0000
,
1000
0100
0000
0000
0010
0001
0100
0000
,
0001
0000
0200
0000
0000
0300
0001
0000
,
0100
0010
0010
0100
,
0001
2000
0000
3001
,
0001
1000
1000
0010
,
0100
0002
0000
0103
,
0010
1000
0010
0100
,
0001
2000
0000
3100
,
1000
1100
0011
0010
,
0100
0200
0000
0310
,
0001
1000
0001
1000
,
0001
0200
0000
0301
,
0001
0100
0100
0010
,
1000
0200
0300
1000
,
0010
0100
0010
1000
,
0001
0010
0000
0001
,
0010
0100
1000
0100
,
0010
0001
1000
2002
,
0000
0000
3003
0000
;

//---------------dance-single - ----------------
#NOTES:
     dance-single:
     :
     Beginner:
     2:
     0.180,0.286,0.102,0.000,0.000:
0000
0000
0000
0000
,
0000
0000
0000
0000
,
0000
0000
0000
0000
,
0000
0000
0000
0000
,
0000
0000
0000
0000
,
0001
0000
0000
0000
,
1000
0000
0000
0000
,
0001
0000
0000
0000
,
1000
0000
0000
0000
,
0010
0000
0000
0000
,
0100
0000
0000
0000
,
0010
0000
0000
0000
,
0110
0000
0000
0000
,
0001
0000
0001
0000
,
0001
0000
0001
0000
,
1000
0000
1000
0000
,
1000
1000
1000
0000
,
0010
0000
0010
0000
,
0010
0000
0010
0000
,
0100
0000
0100
0000
,
0100
0100
0100
0000
,
0110
0000
0000
0000
,
1001
0000
0000
0000
,
0110
0000
0000
0000
,
0100
0100
0100
0100
,
0110
0000
0000
0000
,
1001
0000
0000
0000
,
0110
0000
0000
0000
,
0100
0000
0010
0000
,
0100
0000
0000
0000
,
0001
0000
0000
0000
,
1000
0000
0000
0000
,
0100
0000
1000
0000
,
0010
0000
0000
0000
,
0100
0000
0000
0000
,
0001
0000
0000
0000
,
1000
0000
0001
0000
,
1000
0000
0001
0000
,
0110
0000
0000
0000
,
0100
0000
0000
0000
,
0001
0000
0000
0000
,
1000
0000
0000
0000
,
0100
0000
0000
0000
,
1000
0000
0000
0000
,
0001
0000
0000
0000
,
0100
0000
0000
0000
,
0010
0000
0000
0000
,
0100
0000
0100
0000
,
0010
0000
0010
0000
,
1000
0000
1000
0000
,
0001
0000
0001
0000
,
1000
0000
0001
0000
,
0100
0000
0010
0010
,
0100
0000
0010
0000
,
1000
0000
0001
0001
,
1000
0000
0001
0000
,
0100
0000
0000
0000
,
0001
0000
1000
0000
,
0100
0000
0000
0000
,
1000
0000
1000
0000
,
0001
0000
0001
0000
,
0100
0000
0001
0000
,
1000
0000
0100
0000
,
1000
0000
0001
0001
,
0001
0000
0000
0000
,
0100
0000
0010
0010
,
0010
0000
0000
0000
,
0100
0000
0001
0000
,
1000
1000
1000
0000
,
0100
0000
0010
0000
,
0001
0000
1000
0000
,
0001
0000
0000
0000
,
0000
0000
0000
0000
,
0000
0000
0000
1000
,
1000
1000
0000
0001
,
0001
0001
0000
1000
,
1000
1000
0000
0010
,
0000
0100
0000
0010
,
0010
0010
0000
0100
,
0100
0100
0000
0010
,
0010
0010
0000
0110
,
0000
1001
0000
1000
,
0000
0000
0000
0100
,
0000
0000
1000
0010
,
0000
0000
0000
0100
,
0000
0010
0000
0100
,
0000
0000
0010
0010
,
0000
0000
0100
0100
,
0000
0000
0000
0001
,
0000
1000
0000
0110
,
0000
1001
0000
0110
;
