#TITLE:make.believe;
#SUBTITLE:;
#ARTIST:Genki Rockets;
#TITLETRANSLIT:;
#SUBTITLETRANSLIT:;
#ARTISTTRANSLIT:;
#CREDIT:;
#BANNER:[Qualifier] - makebelieve.png;
#BACKGROUND:[Qualifier] - makebelieve-bg.png;
#LYRICSPATH:;
#CDTITLE:;
#MUSIC:[Qualifier] - makebelieve.mp3;
#OFFSET:0.588;
#SAMPLESTART:67.846;
#SAMPLELENGTH:15.000;
#SELECTABLE:YES;
#BPMS:0.000=128.000;
#STOPS:;
#BGCHANGES:0.000=[Qualifier] - makebelieve.avi=1.000=0=0=1,
99999=-nosongbg-=1.000=0=0=0 // don't automatically add -songbackground-
;

//---------------dance-single - ----------------
#NOTES:
     dance-single:
     :
     Hard:
     8:
     0.458,0.478,0.187,0.289,0.031: // measure 1
0000
0000
0000
0000
,  // measure 2
0000
0000
0000
0000
,  // measure 3
0000
0000
0000
0000
,  // measure 4
0000
0000
0000
0000
,  // measure 5
0000
0000
2001
0001
,  // measure 6
0001
0000
0000
0000
3001
0000
1000
0001
0020
0000
0000
0000
0001
0000
0000
0000
,  // measure 7
0032
0100
0203
1000
,  // measure 8
0010
0010
0320
1000
,  // measure 9
2030
0001
3002
0010
,  // measure 10
1000
0000
0000
0000
0013
0000
0100
1000
0200
0000
0000
0000
1000
0000
0000
0000
,  // measure 11
2300
0010
3020
1000
,  // measure 12
0001
1000
0230
0010
,  // measure 13
0001
0310
1001
0001
,  // measure 14
0001
0100
0010
0100
0001
0000
1000
0000
,  // measure 15
1000
0100
0010
0001
0100
0000
0010
0000
,  // measure 16
0100
0001
0100
0001
1000
0000
0001
0000
,  // measure 17
0010
0100
1000
0010
0200
0000
0310
2000
,  // measure 18
0000
3100
0020
0000
0031
0100
0001
0000
,  // measure 19
0101
0000
1010
0000
2000
0000
3001
0020
,  // measure 20
0000
0031
0100
0010
1000
0000
0001
0000
,  // measure 21
0001
1000
0001
1000
0001
0000
0100
0000
,  // measure 22
0010
1000
0010
1000
0100
0000
0100
0010
,  // measure 23
0001
0100
0010
0100
0001
0000
1000
0000
,  // measure 24
0001
0100
1000
0100
0001
0000
0010
0100
,  // measure 25
1000
0010
0100
0001
0020
0000
1030
0020
,  // measure 26
0000
0031
2000
0000
3001
0010
0001
0000
,  // measure 27
0101
0000
1001
0000
0200
0000
1300
0020
,  // measure 28
0000
1030
0010
0100
0001
0000
0101
0000
,  // measure 29
0001
0100
0110
0000
1000
0000
1000
0000
,  // measure 30
0001
0100
0001
1000
0100
0000
0100
0000
,  // measure 31
0010
0001
1000
0001
0100
0000
0110
0000
,  // measure 32
0010
0000
1010
0000
1000
0010
0001
0010
,  // measure 33
0100
0001
1000
1000
0010
0000
0110
0000
,  // measure 34
0001
1000
0100
0010
0002
0000
0103
0000
,  // measure 35
0001
0100
0010
1000
0001
0100
1000
0100
,  // measure 36
0001
0010
1000
0010
0001
0100
0010
1000
,  // measure 37
0100
0000
1000
0000
0001
1000
0001
1000
0001
0000
1000
0000
0100
0000
0010
0000
,  // measure 38
0001
0100
0100
0010
1000
0000
2001
0000
,  // measure 39
3001
0000
1000
0100
0001
0100
0010
0001
,  // measure 40
0100
0000
0110
0000
0001
0010
0100
1000
,  // measure 41
0010
0000
1001
0000
1000
0010
1000
0100
,  // measure 42
1000
0100
0010
0001
0200
0000
0301
0000
,  // measure 43
0001
0100
0010
0000
1000
0100
0001
0100
,  // measure 44
0010
0001
0100
0010
1000
0001
1000
0010
,  // measure 45
0001
0010
1000
1000
1100
1000
0100
1000
,  // measure 46
0010
0100
0001
1000
0100
0000
0120
0000
,  // measure 47
0130
0000
0010
0001
1000
0100
0001
0100
,  // measure 48
1000
0000
1010
0000
0100
0001
0100
0010
,  // measure 49
1000
0000
1001
0000
1000
0001
0010
0001
,  // measure 50
1000
0010
0100
0001
0100
0000
0101
0000
,  // measure 51
0001
0100
0020
0000
0130
0100
0001
0000
,  // measure 52
1010
0000
0101
0001
0100
0000
0110
0000
,  // measure 53
0010
0000
1000
0000
0001
1000
0001
1000
0002
0000
0000
0000
0100
0000
0000
0000
,  // measure 54
0100
0000
0000
0000
0103
0000
0010
0100
0020
0000
0000
0000
1000
0000
0000
0000
,  // measure 55
2030
0100
3200
1000
,  // measure 56
1000
0001
0302
0100
,  // measure 57
0203
0010
0320
0001
,  // measure 58
0001
0000
0000
0000
0031
0000
0001
1000
0002
0000
0000
0000
0010
0000
0000
0000
,  // measure 59
0023
1000
2030
0010
,  // measure 60
0010
3010
0002
0100
,  // measure 61
0100
0000
0103
0000
1001
0000
0001
1000
,  // measure 62
0000
1000
0100
0010
0001
0000
0001
0100
,  // measure 63
0000
0100
0010
0100
0010
0000
0010
1000
,  // measure 64
0000
1000
0010
0100
0001
0000
1000
0100
,  // measure 65
0000
0100
1000
0010
0110
0000
0000
0000
;

//---------------dance-single - ----------------
#NOTES:
     dance-single:
     :
     Medium:
     5:
     0.368,0.428,0.125,0.328,0.000:
0000
0000
0000
0000
,
0000
0000
0000
0000
,
0000
0000
0000
0000
,
0000
0000
0000
0000
,
0000
0000
0002
0100
,
0100
0103
0200
0001
,
0302
1000
2003
0100
,
0100
3100
0020
0001
,
0032
1000
2003
0010
,
0010
3010
0200
0001
,
0302
0010
0023
1000
,
1000
1030
0020
0100
,
0100
0130
1001
0001
,
1000
0010
0100
0001
,
1000
0100
1000
0010
,
0010
0100
0001
0100
,
0010
0000
1000
0000
0001
0000
1000
0200
,
0000
1300
0020
0000
0130
0000
1001
0000
,
0001
0000
0100
0000
0010
0000
1000
0200
,
0000
0310
0002
0000
1003
0000
0001
0000
,
0100
0010
1000
0100
,
0010
0001
0001
0100
,
0001
0100
0100
0010
,
1000
0001
1000
1000
,
0010
0000
1000
0000
0010
0000
0010
0200
,
0000
0301
2000
0000
3001
0000
0100
0000
,
0001
0001
0100
1000
,
0100
0001
0010
0100
,
0010
0001
1001
0000
0001
0000
0100
0000
,
0001
0100
0001
0000
0100
0000
0010
0000
,
0100
0010
0100
0000
0010
0000
1000
0000
,
0010
1000
0010
0000
1000
0000
1000
0001
,
0000
0001
0100
0001
0100
0000
0010
0000
,
1000
0010
1000
0000
0100
0000
1000
0000
,
0100
1000
0100
0000
1000
0001
1000
0000
,
0100
0010
0100
0000
0010
0001
0010
0001
,
0100
0010
2000
0000
3001
0010
0001
0100
,
0010
0000
0010
1000
0001
0000
2002
0000
,
3003
0000
1000
0100
0002
0000
0000
0103
,
2000
0010
0010
0100
,
3100
0000
1001
0000
0001
0000
0100
0010
,
0000
0010
1000
0000
0100
0000
0010
0000
,
0001
0100
0010
0000
2010
0000
3001
0000
,
0102
1003
2100
3001
,
0012
0000
1003
0000
0001
0100
0010
1000
,
0100
0000
0100
0010
0001
0000
0022
0000
,
0033
0000
0001
1000
0020
0000
0000
0130
,
0002
0010
0010
0100
,
0103
0000
1000
0000
0001
0000
0001
0100
,
0000
1000
0100
0000
0001
0000
0110
0000
,
0100
0000
0020
0000
1030
1000
0001
0000
,
0101
1001
1000
0010
,
0100
0001
1000
0000
2001
0000
0001
0000
,
0001
3001
0002
0103
,
0200
0010
0320
1000
,
1000
1030
0200
0010
,
0320
0001
0032
0100
,
1000
0100
0203
0001
,
0302
1000
2003
0100
,
0100
0010
3200
1000
,
1000
0000
1300
0000
1001
0000
0001
0010
,
0000
0010
0001
0000
0100
0000
1000
0100
,
0000
0100
1000
0000
0100
0000
0010
1000
,
0000
1000
0001
0000
1000
0000
0100
0010
,
0000
0001
1000
0000
1001
0000
0000
0000
;

//---------------dance-single - ----------------
#NOTES:
     dance-single:
     :
     Easy:
     3:
     0.243,0.352,0.195,0.444,0.000:
0000
0000
0000
0000
,
0000
0000
0000
0000
,
0000
0000
0000
0000
,
0000
0000
0000
0000
,
0000
0000
0002
0000
,
0000
0003
2002
3003
,
2020
3030
0220
0000
,
0000
0330
0200
0300
,
2002
3003
0202
0000
,
0000
0303
0022
0033
,
2200
3300
0220
0000
,
0000
0330
2002
0000
,
0000
3003
0001
0000
,
0001
0000
0100
0000
,
0100
0000
0010
0000
,
0010
0000
0100
0000
,
0100
0000
0001
0001
,
0001
0000
1000
1000
,
1000
0000
0100
0100
,
0100
0000
0010
0010
,
0010
0000
0100
0000
,
0100
0000
1000
0000
,
1000
0000
0010
0000
,
0010
0000
0100
0000
,
0100
0000
0010
0010
,
0010
0000
0100
0100
,
0100
0000
0001
0001
,
0001
0000
1000
1000
,
1000
0000
0020
0000
,
1030
0010
0100
0000
,
0010
0100
0001
0000
,
1000
1000
0001
0000
,
0001
0001
0100
0000
,
0100
0100
0001
0000
,
1000
1000
0100
0010
,
0001
0100
0010
1000
,
0001
2002
3003
0100
,
0001
0100
0010
2000
,
0000
3001
2002
3003
,
0220
0000
0000
0000
,
0330
0001
0100
0100
,
0100
0000
0100
0100
,
0010
1000
0002
0003
,
0200
0300
0020
0030
,
2000
3000
1000
0100
,
0100
0010
0001
0001
,
0000
0001
0202
0303
,
2002
0000
0000
0000
,
3003
0100
0001
0001
,
0001
0000
0100
0100
,
0100
0000
0010
1000
,
0100
0000
1000
0100
,
0010
0001
0002
0000
,
0000
0003
2200
3300
,
2002
3003
0202
0000
,
0000
0303
2002
3003
,
2020
3030
0220
0000
,
0000
0330
0202
0303
,
2002
3003
2020
0000
,
0000
3030
2200
0000
,
0000
3300
0001
0000
,
0000
0000
1000
0000
,
0000
0000
0001
0000
,
0000
0000
1000
0000
,
0000
0000
1001
0000
;
