#TITLE:make up syndrome;
#SUBTITLE:;
#ARTIST:凛として時雨;
#TITLETRANSLIT:;
#SUBTITLETRANSLIT:;
#ARTISTTRANSLIT:Ling Tosite Sigure;
#GENRE:Anime;
#CREDIT:Frozen_Heat/Azn_Punk_07/GuardianFrozen;
#MENUCOLOR:#d1276e;
#METERTYPE:DDR;
#BANNER:[Qualifier] - make up syndrome.png;
#BACKGROUND:[Qualifier] - make up syndrome-bg.png;
#LYRICSPATH:[Qualifier] - make up syndrome.lrc;
#CDTITLE:!cdtitle.png;
#MUSIC:[Qualifier] - make up syndrome.mp3;
#OFFSET:-0.636;
#SAMPLESTART:50.060;
#SAMPLELENGTH:23.240;
#SELECTABLE:YES;
#LISTSORT:;
#DISPLAYBPM:165.000;
#BPMS:0.000=165.040,168.000=165.500,192.000=165.000,232.000=165.500,256.000=165.000;
#STOPS:;
#BGCHANGES:;
#ATTACKS:;

//---------------dance-single - ----------------
#NOTES:
     dance-single:
     :
     Hard:
     9:
     0.687,0.988,0.452,0.133,0.307: // measure 1
0000
0000
0000
0000
,  // measure 2
0000
0000
0000
0000
,  // measure 3
0000
0000
0000
0000
,  // measure 4
0000
0000
0000
0000
,  // measure 5
1000
0000
0000
0100
1000
0000
0001
0000
0000
0000
0010
0000
0010
0000
0000
0000
,  // measure 6
0001
0000
0000
0100
0001
0000
1000
0000
0000
0000
0010
0000
0010
0000
0000
0000
,  // measure 7
0100
0000
0000
0001
0010
0000
0100
0000
0000
0000
1000
0000
1000
0000
0000
0000
,  // measure 8
0010
0000
0000
0100
0001
0000
1000
0000
0000
0000
0001
0000
0001
0000
0000
0000
,  // measure 9
0010
0000
0000
0001
0000
0000
1001
0000
0000
0000
1000
0000
0000
0000
0020
0000
,  // measure 10
0100
0000
0030
0000
0000
0000
1000
0100
0010
0000
0001
0000
1001
0000
0000
0000
,  // measure 11
0100
0000
0000
0010
0100
0000
0001
0000
0000
0000
1001
0000
0000
0000
1000
0000
,  // measure 12
0001
0010
0100
0000
1000
0001
1000
0000
0100
0010
0001
0000
0110
0000
0000
0000
,  // measure 13
1001
0000
0000
0100
1000
0000
0010
0000
0000
0000
0100
0000
0001
0000
0100
0000
,  // measure 14
0010
0000
0000
1000
0001
0000
0010
0000
0000
0000
0200
0000
0010
0000
0300
0000
,  // measure 15
0011
0000
0000
0001
1000
0000
0100
0000
0000
0000
0010
0000
0100
0000
1000
0000
,  // measure 16
0010
0000
0000
0100
0010
0000
1000
0000
0000
0000
0200
0000
1000
0000
0300
0000
,  // measure 17
1010
0000
0000
0100
0010
0000
0100
0000
0000
0000
0001
0000
1000
0000
0100
0000
,  // measure 18
0010
0000
0000
0001
1000
0000
0010
0000
0000
0000
0200
0000
0001
0000
0300
0000
,  // measure 19
0110
0000
0000
1000
0100
0000
0010
0000
0000
0000
0001
0000
1000
0000
0100
0000
,  // measure 20
0010
0000
0000
0001
0100
0000
0010
0000
0000
0000
1000
0000
0010
0100
0010
0000
,  // measure 21
1000
0100
0000
0010
0000
0001
1000
0010
,  // measure 22
1000
0000
0200
0000
0000
0010
0000
0000
0310
0001
0010
0001
0100
0000
0010
0000
,  // measure 23
1000
0000
1000
0000
0100
0000
0010
0000
0001
1000
0000
0000
0110
0000
0000
0000
,  // measure 24
0001
0010
0001
2000
0010
3010
0100
0010
,  // measure 25
1000
0000
0002
0000
0000
1000
0000
0000
1003
0100
1000
0100
0010
0000
0001
0000
,  // measure 26
0100
0000
0010
0000
0100
0000
0001
0000
1000
0000
0100
0010
0001
0000
0010
0100
,  // measure 27
2000
0000
0000
3000
0000
0000
0000
0000
,  // measure 28
0000
0000
0000
0000
0000
0000
0000
0000
0000
0000
0000
0000
0010
0100
0010
0000
,  // measure 29
0110
0000
1000
0001
0000
0011
0000
0100
,  // measure 30
1000
0100
0000
1100
0000
1000
0001
0000
,  // measure 31
0101
0000
0000
0010
0100
0000
0001
0000
0000
0000
1000
0000
0100
0000
0000
0000
,  // measure 32
0110
0000
0000
1000
0100
0000
0010
0000
0000
0000
0001
0000
1000
0000
0001
0000
,  // measure 33
0011
0000
0000
0100
0010
0000
0001
0000
0000
0000
1000
0000
0010
0000
0100
0000
,  // measure 34
0001
0010
0001
0000
1000
0100
1000
0000
0010
1000
0010
0000
0100
0001
0100
0000
,  // measure 35
1001
0000
0101
0000
1001
0000
0001
0010
,  // measure 36
0000
0110
0000
0001
0100
0100
0010
0010
,  // measure 37
1000
0000
0100
0010
0100
0100
0000
0010
,  // measure 38
0000
0001
1000
0000
0001
0010
0001
0100
,  // measure 39
0001
0010
1000
0010
0001
0000
0001
0100
,  // measure 40
0000
0010
0100
1000
0100
0010
0100
0001
,  // measure 41
1000
1000
0001
0001
0010
0100
0000
0110
,  // measure 42
0000
0010
0100
0000
1000
0001
0100
0000
,  // measure 43
0010
1010
0100
0101
,  // measure 44
1001
0000
0100
0000
0010
0100
1000
0000
,  // measure 45
0100
1100
0010
0011
,  // measure 46
1001
0000
0010
0000
0100
0010
0001
0000
,  // measure 47
0101
0010
1100
0010
,  // measure 48
1001
0010
0110
0010
,  // measure 49
0001
0010
0001
0000
0100
0010
0100
0000
0010
1000
0010
0000
0100
0001
0100
0000
,  // measure 50
0010
0100
0010
0000
1000
0100
1000
0000
0001
1000
0001
0000
1000
0100
1000
0000
,  // measure 51
0001
0000
0011
0000
0100
1000
0100
1000
,  // measure 52
0000
1001
0000
0010
1000
0100
0010
0001
,  // measure 53
1000
1000
0001
0001
0100
0010
0100
0110
,  // measure 54
0000
0220
0000
0330
0000
0001
1000
0001
,  // measure 55
1000
0100
0001
0100
1000
0000
0001
0010
,  // measure 56
0000
0100
1000
0010
0100
0001
1000
0100
,  // measure 57
0001
0001
0100
0100
1000
1000
0000
0110
,  // measure 58
0000
0001
0100
1000
0100
0001
0000
0000
,  // measure 59
1100
0100
0011
0010
,  // measure 60
1001
0100
0001
0000
0010
1000
0100
0000
,  // measure 61
1010
0100
0011
0100
,  // measure 62
1001
0100
0010
0000
0001
0010
0100
0000
,  // measure 63
0011
1000
1010
0001
,  // measure 64
0101
1000
1100
0001
,  // measure 65
1000
0000
1000
0001
0010
0000
0100
0000
0100
1000
0001
0000
0010
0000
0010
0001
,  // measure 66
0100
0000
0001
0000
0001
0010
0100
0000
1000
0000
0100
0010
0100
0000
0010
0000
,  // measure 67
0001
1000
0010
1000
0100
0000
0010
0000
0000
0000
0011
0000
0000
0000
0010
0000
,  // measure 68
0001
0100
0010
0000
1000
0000
0001
0000
0000
0000
0200
0000
0010
0000
0300
0000
,  // measure 69
0001
1000
0010
1000
0001
0000
1000
0000
0000
0000
0011
0000
0000
0000
0100
0000
,  // measure 70
0010
0001
0100
0000
0001
0000
0010
0000
0000
0000
0200
0000
0010
0000
0300
0000
,  // measure 71
1000
0001
0010
0001
0100
0000
0010
0000
0000
0000
1100
0000
0000
0000
0010
0000
,  // measure 72
1000
0001
0100
0000
0001
0000
0010
0000
0000
0000
0200
0000
0010
0000
0300
0000
,  // measure 73
1000
0001
0100
0001
0010
0000
0001
0000
0000
0000
0101
0000
0000
0000
0010
0000
,  // measure 74
1000
0100
0010
0000
0001
0000
0100
0000
0000
0000
0200
0000
0010
0000
0300
0000
,  // measure 75
0001
0011
0001
0101
,  // measure 76
1001
0000
0010
0000
1000
0100
0010
0000
,  // measure 77
1000
1100
1000
1010
,  // measure 78
1001
0000
0010
0000
0001
0100
0010
0000
,  // measure 79
0110
0001
0110
1000
,  // measure 80
0110
0001
0110
1000
,  // measure 81
0001
0000
0001
1000
0100
0000
0010
0000
0010
0001
1000
0000
0100
0000
0100
1000
,  // measure 82
0010
0000
1000
0000
1000
0001
0010
0000
0100
0000
1000
0001
0100
0000
0010
0000
,  // measure 83
1000
0100
0000
0100
0000
0100
0000
0020
,  // measure 84
0001
0000
0030
0000
0000
0000
0001
0010
0100
0000
1000
0000
1001
0000
0000
0000
,  // measure 85
0001
0010
0000
0010
0000
0010
0000
0200
,  // measure 86
1000
0000
0300
0000
0000
0000
0010
0100
1000
0000
0001
0000
1001
0000
0000
0000
,  // measure 87
1000
0000
0000
0010
0000
0000
0100
0000
0100
0000
0000
0000
0000
0000
0000
0000
,  // measure 88
0001
0000
0000
0100
0000
0000
0010
0000
1000
0000
1000
0000
0001
0000
0000
0000
,  // measure 89
0100
0001
0100
0001
0010
0000
0100
1000
0100
1000
0010
0000
0100
0010
0100
0010
,  // measure 90
1000
0000
0001
1000
0001
1000
0100
0000
0010
0001
0010
0100
0010
0001
0010
0100
,  // measure 91
0020
0000
0000
0000
0000
0000
0000
0000
0000
0000
0000
0000
0031
0100
0001
0000
,  // measure 92
2000
0000
0000
0000
,  // measure 93
3000
0000
0000
0000
;

//---------------dance-single - ----------------
#NOTES:
     dance-single:
     :
     Easy:
     6:
     0.470,0.579,0.230,0.326,0.000: // measure 1
0000
0000
0000
0000
,  // measure 2
0000
0000
0000
0000
,  // measure 3
0000
0000
0000
0000
,  // measure 4
0000
0000
0000
0000
,  // measure 5
0001
0000
0001
0000
0100
0010
0100
0000
,  // measure 6
0001
0000
0001
0000
0010
0100
0010
0000
,  // measure 7
0100
0000
0100
0000
1000
0010
1000
0000
,  // measure 8
0100
0000
0100
0000
0010
0100
0010
0100
,  // measure 9
0020
0001
0130
0000
,  // measure 10
0002
0100
1003
0000
,  // measure 11
2000
0010
3100
0000
,  // measure 12
0100
0000
0100
0010
0100
0010
0100
0000
,  // measure 13
0110
0000
1000
0000
0001
0010
0100
0000
,  // measure 14
1000
0000
0010
0100
0001
0000
0100
0000
,  // measure 15
0010
0000
1000
0000
0010
0100
0001
0000
,  // measure 16
1000
0000
0001
0010
0100
0010
0100
0000
,  // measure 17
1000
0000
0010
1000
0100
0000
0010
0000
,  // measure 18
0001
0000
1000
0010
0100
0000
0010
0000
,  // measure 19
1000
0000
0001
1000
0100
0000
1000
0000
,  // measure 20
0001
0000
0100
0010
0100
0001
0010
0001
,  // measure 21
0100
0100
0010
0010
,  // measure 22
1000
0010
1000
0000
0001
0010
0001
0000
,  // measure 23
1000
1000
0001
0101
,  // measure 24
1000
1000
0100
0100
,  // measure 25
0010
0001
0010
0000
0100
1000
0100
1000
,  // measure 26
0100
0100
0010
0110
,  // measure 27
0001
0000
0000
0000
,  // measure 28
0000
0000
0000
0000
,  // measure 29
1000
0000
0001
0000
,  // measure 30
0100
0010
1000
0001
,  // measure 31
1001
0100
0010
1000
,  // measure 32
1001
0010
0100
0010
,  // measure 33
1001
0010
1001
0100
,  // measure 34
0110
1001
0110
1001
,  // measure 35
1000
1000
0001
0001
,  // measure 36
0100
0100
0010
0010
,  // measure 37
1000
0100
0010
0001
,  // measure 38
0200
1000
0001
0010
,  // measure 39
0301
0010
0001
0000
0010
0000
0010
0001
,  // measure 40
0100
0000
0100
0000
0010
0000
0010
1000
,  // measure 41
0100
1000
0100
0000
0010
0000
0001
0000
,  // measure 42
0200
0010
1000
0310
,  // measure 43
2000
3000
0200
0300
0020
0030
0002
0003
,  // measure 44
1002
0003
0100
0000
0010
0000
0001
0000
,  // measure 45
0201
0300
0020
0030
2000
3000
0002
0003
,  // measure 46
0120
0030
0010
0000
1000
0000
0001
0000
,  // measure 47
2010
3000
0000
0000
0002
0003
0000
0000
,  // measure 48
0200
0300
0000
0000
0020
0030
0000
0000
,  // measure 49
1000
0100
0001
0010
,  // measure 50
1000
0100
0001
0010
,  // measure 51
1000
0000
1000
0000
0010
0100
0000
0100
,  // measure 52
0000
0001
0000
0001
0000
1000
0001
1000
,  // measure 53
0001
0000
0001
0000
0010
0001
0010
0001
,  // measure 54
0000
2002
0000
3003
0000
0001
0100
0000
,  // measure 55
0010
1000
0010
0000
0010
0000
0010
0100
,  // measure 56
0010
1000
0010
0000
0010
0100
0001
0100
,  // measure 57
0010
1000
0010
0000
0100
0000
0001
0000
,  // measure 58
0020
0100
0001
0130
,  // measure 59
0002
0003
0020
0030
0200
0300
2000
3000
,  // measure 60
2001
3000
0010
0000
0100
0000
1000
0000
,  // measure 61
1020
0030
0200
0300
0002
0003
2000
3000
,  // measure 62
0210
0300
0100
0000
0001
0000
1000
0000
,  // measure 63
0102
0003
0000
0000
2000
3000
0000
0000
,  // measure 64
0020
0030
0000
0000
0200
0300
0000
0000
,  // measure 65
0001
0000
0000
1000
0000
0000
0001
0000
,  // measure 66
0000
0100
0000
0000
0010
0000
1000
0000
,  // measure 67
0100
0010
0100
0000
0010
0000
0001
0000
,  // measure 68
1000
0001
1000
0000
0010
0000
0100
0000
,  // measure 69
0001
0100
0001
0000
1000
0000
0100
0000
,  // measure 70
0010
0100
0010
0000
0100
0000
1000
0000
,  // measure 71
0010
1000
0010
0000
0100
0000
0001
0000
,  // measure 72
1000
0100
1000
0000
0001
0000
0100
0000
,  // measure 73
0010
1000
0010
0000
0100
0000
0001
0000
,  // measure 74
0010
0001
0010
0000
0100
0000
1000
0000
,  // measure 75
0001
0001
0100
0100
,  // measure 76
0110
0000
0010
1000
0000
0010
0100
0000
,  // measure 77
0010
0010
1000
1000
,  // measure 78
1001
0000
1000
0100
0000
0010
0100
0000
,  // measure 79
0010
0011
0100
1100
,  // measure 80
0001
0101
1000
1010
,  // measure 81
0001
0000
0000
0001
0000
0000
1000
0000
,  // measure 82
0000
1000
0000
0000
0110
0000
0110
0000
,  // measure 83
0002
0000
0103
0000
,  // measure 84
0010
0000
1000
0000
0100
0010
0100
0000
,  // measure 85
2000
0000
3010
0000
,  // measure 86
0100
0000
0001
0000
0010
0100
0010
0000
,  // measure 87
0002
0100
1003
0001
,  // measure 88
2000
0000
0100
0000
3001
0010
0001
0000
,  // measure 89
1000
0000
1000
0010
0000
0010
0100
0000
,  // measure 90
0100
0001
0000
0001
0010
0000
0110
0000
,  // measure 91
2002
0000
0000
3003
,  // measure 92
0220
0000
0000
0000
,  // measure 93
0330
0000
0000
0000
;

//---------------dance-single - ----------------
#NOTES:
     dance-single:
     :
     Medium:
     8:
     0.563,0.579,0.252,0.230,0.007: // measure 1
0000
0000
0000
0000
,  // measure 2
0000
0000
0000
0000
,  // measure 3
0000
0000
0000
0000
,  // measure 4
0000
0000
0000
0000
,  // measure 5
0001
0000
1000
0010
0100
0010
1000
0000
,  // measure 6
0100
0000
0010
0001
0000
0001
0100
0000
,  // measure 7
0001
0000
1000
0100
0010
0100
1000
0000
,  // measure 8
0001
0000
0100
0010
0000
0010
1000
0000
,  // measure 9
0001
0000
0000
0001
0000
0000
1000
0000
0000
0000
1001
0000
0000
0000
1000
0000
,  // measure 10
0200
0000
0300
0010
0100
0010
0100
0000
,  // measure 11
1000
0000
0000
1000
0000
0000
0001
0000
0000
0000
1001
0000
0000
0000
0010
0000
,  // measure 12
0100
0001
0100
0001
1000
0100
1100
0000
,  // measure 13
0001
0000
0100
0010
0100
0001
0100
0010
,  // measure 14
1000
0000
0100
0010
0000
0010
0001
0000
,  // measure 15
1000
0000
0001
0100
0010
0100
0001
1000
,  // measure 16
0010
0000
0100
0010
0000
0010
1000
0000
,  // measure 17
0001
0000
1000
0100
0010
0100
1000
0001
,  // measure 18
0010
0000
0100
1000
0000
0001
0100
0000
,  // measure 19
0010
0000
1000
0001
0100
0010
1000
0001
,  // measure 20
0010
0000
0100
1000
0000
0001
1000
0000
,  // measure 21
0001
0100
0000
0100
0000
0010
1000
0010
,  // measure 22
0000
0100
0001
0000
1000
0100
0010
0100
,  // measure 23
1000
1000
0001
0100
0010
1000
0001
0000
,  // measure 24
0010
0100
0000
0110
0000
0001
0010
0001
,  // measure 25
1000
0010
1000
0010
0100
0001
0100
0000
,  // measure 26
0010
1000
0001
1000
0100
0010
0001
0010
,  // measure 27
0100
0100
0100
0100
,  // measure 28
0100
0100
0100
0100
,  // measure 29
0110
0000
1000
0100
0000
0100
0000
1000
,  // measure 30
0000
1000
0000
0001
0000
0001
0100
0010
,  // measure 31
0100
0000
0001
0010
0100
0010
0001
0000
,  // measure 32
1000
0000
0010
0100
1000
0100
0010
0000
,  // measure 33
1000
0000
0100
0010
0001
0010
0100
1000
,  // measure 34
0001
0001
0100
0001
1000
1000
0100
1000
,  // measure 35
0010
0000
1010
0000
0110
0000
1000
0010
,  // measure 36
0000
0110
0000
0010
1000
0000
1010
0000
,  // measure 37
1001
0000
0001
1000
0001
1000
0000
0100
,  // measure 38
0000
0010
0100
0000
0010
0001
0100
0000
,  // measure 39
0001
0010
0100
0000
0110
0000
0010
0001
,  // measure 40
0000
0011
0000
0001
0100
0010
0100
0001
,  // measure 41
1000
0100
0010
0000
0010
0100
0000
0110
,  // measure 42
0000
1000
0001
0000
0100
0010
1000
0000
,  // measure 43
0002
0203
2300
3200
,  // measure 44
0302
1003
0100
0010
,  // measure 45
0002
0023
2030
3020
,  // measure 46
0032
0103
0010
1000
,  // measure 47
0002
0103
0020
1030
,  // measure 48
0200
0310
0002
1003
,  // measure 49
0010
1000
0010
1000
0001
0010
0001
0010
,  // measure 50
0100
1000
0100
1000
0001
0100
0001
0100
,  // measure 51
0010
0000
1010
0000
1000
0100
0000
1100
,  // measure 52
0000
1001
0000
0101
0000
0001
0010
0100
,  // measure 53
0010
0000
0011
0000
0001
0010
0100
1000
,  // measure 54
0000
1001
0000
0001
0000
1000
0001
1000
,  // measure 55
0001
0100
0010
0000
0110
0000
0001
0100
,  // measure 56
0000
0010
0100
0001
0100
0000
0010
1000
,  // measure 57
0100
0100
0010
0010
0100
1000
0000
1100
,  // measure 58
0000
0010
0100
1000
0100
0010
0001
0000
,  // measure 59
2000
3020
0032
0023
,  // measure 60
2030
3100
0010
0001
,  // measure 61
2000
3200
0302
0203
,  // measure 62
2300
3010
0100
0001
,  // measure 63
2000
3100
0020
0031
,  // measure 64
0200
0310
2000
3001
,  // measure 65
0100
0000
0010
1000
0000
0001
0100
0000
,  // measure 66
0001
0010
0000
0100
1000
0100
0010
0000
,  // measure 67
0001
0010
0100
0010
0001
0000
1000
0000
,  // measure 68
0010
0100
0001
0000
0100
0000
0010
0000
,  // measure 69
1000
0100
0010
0001
1000
0000
0010
0000
,  // measure 70
0100
0001
0010
0000
0100
0000
1000
0000
,  // measure 71
0001
0100
0010
1000
0100
0000
0010
0000
,  // measure 72
0001
1000
0100
0000
0010
0000
0100
0000
,  // measure 73
1000
0001
0100
0001
1000
0000
0100
0000
,  // measure 74
0010
0001
1000
0000
0010
0000
0100
0000
,  // measure 75
0101
0001
1100
1001
,  // measure 76
1010
0100
0010
1000
,  // measure 77
1001
0100
0011
1100
,  // measure 78
0110
0001
1000
0010
,  // measure 79
0101
0010
1100
0010
,  // measure 80
1001
0100
1001
0010
,  // measure 81
0101
0000
0010
1000
0000
0001
0100
0000
,  // measure 82
0010
1000
0000
0001
0100
0010
1000
0000
,  // measure 83
0001
0000
0000
1000
0000
1000
0000
0001
,  // measure 84
0100
0001
0000
1000
0100
0010
0001
0000
,  // measure 85
1000
0000
0000
0001
0000
0001
0000
1000
,  // measure 86
0100
1000
0000
0001
0010
0100
1000
0000
,  // measure 87
0001
0000
0100
0010
0100
0010
0000
1000
,  // measure 88
0001
0000
1000
0100
0010
0100
1000
0000
,  // measure 89
0001
0000
1000
0001
0000
0100
0001
0000
,  // measure 90
1000
0100
0000
0010
0001
0000
1000
0001
,  // measure 91
0200
0000
0000
0000
0000
0000
0310
1000
,  // measure 92
0020
0000
0000
0000
,  // measure 93
0030
0000
0000
0000
;

//---------------dance-single - ----------------
#NOTES:
     dance-single:
     :
     Beginner:
     4:
     0.283,0.337,0.081,0.281,0.000: // measure 1
0000
0000
0000
0000
,  // measure 2
0000
0000
0000
0000
,  // measure 3
0000
0000
0000
0000
,  // measure 4
0000
0000
0000
0000
,  // measure 5
0001
0100
1000
0000
,  // measure 6
1000
0100
0001
0000
,  // measure 7
0001
0100
1000
0000
,  // measure 8
1000
0100
0001
0000
,  // measure 9
1001
0000
0000
0000
,  // measure 10
0110
0000
0000
0000
,  // measure 11
1001
0000
0110
0000
,  // measure 12
0001
0010
0100
1000
,  // measure 13
0001
0100
0000
0010
,  // measure 14
0000
1000
0000
0100
,  // measure 15
0010
0100
0000
1000
,  // measure 16
0000
0010
0000
0100
,  // measure 17
0001
0100
0000
0010
,  // measure 18
0000
1000
0000
0001
,  // measure 19
0010
0100
0000
0010
,  // measure 20
0000
0001
0000
1000
,  // measure 21
0001
0001
0100
0000
,  // measure 22
0010
0010
1000
0000
,  // measure 23
0100
0100
0010
0100
,  // measure 24
1000
1000
0010
0000
,  // measure 25
0100
0100
0001
0000
,  // measure 26
0010
0010
0100
0010
,  // measure 27
0001
0000
0000
0000
,  // measure 28
0000
0000
0000
0000
,  // measure 29
1001
0000
0100
0000
,  // measure 30
0010
0000
1000
0000
,  // measure 31
1100
0001
0010
0000
,  // measure 32
0101
1000
0010
0000
,  // measure 33
1010
0001
0100
0000
,  // measure 34
0011
1000
0100
0010
,  // measure 35
0001
0001
1000
0000
,  // measure 36
0100
0000
0010
0000
,  // measure 37
0001
0001
0100
0010
,  // measure 38
1000
0000
0100
0000
,  // measure 39
1000
1000
0010
0000
,  // measure 40
0100
0000
0001
0000
,  // measure 41
1000
1000
0100
0010
,  // measure 42
0001
0000
1000
0000
,  // measure 43
0002
0003
0200
0300
,  // measure 44
0020
0000
0030
0000
,  // measure 45
2000
3000
0200
0300
,  // measure 46
0020
0000
0030
0000
,  // measure 47
0002
0003
2000
3000
,  // measure 48
0020
0030
0200
0300
,  // measure 49
0002
0000
0000
0000
,  // measure 50
0000
0000
0003
0000
,  // measure 51
1000
1000
0100
0000
,  // measure 52
0010
0010
0001
0000
,  // measure 53
0100
0100
0010
0100
,  // measure 54
0001
0001
0010
0000
,  // measure 55
0100
1000
0100
0000
,  // measure 56
0010
0001
0010
0000
,  // measure 57
0001
1000
0010
0100
,  // measure 58
0001
0000
1000
0000
,  // measure 59
0200
0300
0020
0030
,  // measure 60
0002
0000
0003
0000
,  // measure 61
2000
3000
0020
0030
,  // measure 62
0200
0000
0300
0000
,  // measure 63
0020
0030
2000
3000
,  // measure 64
0002
0003
0020
0030
,  // measure 65
0200
0000
0000
0000
,  // measure 66
0000
0000
0000
0000
,  // measure 67
0300
0100
1000
0100
,  // measure 68
0010
0001
1000
0001
,  // measure 69
0000
0100
0001
0100
,  // measure 70
0010
1000
0001
1000
,  // measure 71
0000
0001
0010
0100
,  // measure 72
1000
0010
0100
0010
,  // measure 73
0000
1000
0010
0100
,  // measure 74
0001
0010
0001
1000
,  // measure 75
0002
0003
2000
3000
,  // measure 76
0200
0000
0310
0000
,  // measure 77
0200
0300
2000
3000
,  // measure 78
0020
0000
0130
0000
,  // measure 79
0002
0003
0200
0300
,  // measure 80
0020
0030
2000
3000
,  // measure 81
0001
0010
0100
1000
,  // measure 82
0001
0100
0010
1000
,  // measure 83
0001
0000
0100
0000
,  // measure 84
0010
0000
1000
0001
,  // measure 85
1000
0000
0100
0000
,  // measure 86
0010
0000
0001
1000
,  // measure 87
0001
0100
1000
0100
,  // measure 88
0001
0010
1000
0010
,  // measure 89
0002
0003
0200
0300
,  // measure 90
0020
0030
2000
3000
,  // measure 91
2002
0000
3003
0000
,  // measure 92
0110
0000
0000
0000
;
