#VERSION:0.81;
#TITLE:in motion;
#SUBTITLE:;
#ARTIST:Ryu☆;
#TITLETRANSLIT:;
#SUBTITLETRANSLIT:;
#ARTISTTRANSLIT:Ryu*;
#GENRE:;
#ORIGIN:;
#CREDIT:;
#BANNER:[Qualifier] - in motion.png;
#BACKGROUND:[Qualifier] - in motion-bg.png;
#PREVIEWVID:;
#JACKET:[Qualifier] - in motion-jacket.png;
#CDIMAGE:;
#DISCIMAGE:;
#LYRICSPATH:;
#CDTITLE:cdtitle.png;
#MUSIC:[Qualifier] - in motion.mp3;
#OFFSET:-0.486;
#SAMPLESTART:16.133;
#SAMPLELENGTH:13.000;
#SELECTABLE:YES;
#BPMS:0.000=138.000,
84.000=69.000,
91.250=138.000;
#STOPS:91.250=0.109,
91.500=0.109,
91.750=0.109,
154.000=0.109,
154.250=0.109,
154.500=0.109,
154.750=0.109;
#DELAYS:;
#WARPS:;
#TIMESIGNATURES:0.000=4=4;
#TICKCOUNTS:0.000=4;
#COMBOS:0.000=1;
#SPEEDS:0.000=1.000=0.000=0;
#SCROLLS:0.000=1.000;
#FAKES:;
#LABELS:0.000=Song Start;
#LASTSECONDHINT:41.842;
#BGCHANGES:;
#KEYSOUNDS:;
#ATTACKS:
;

//---------------dance-single - ----------------
#NOTEDATA:;
#CHARTNAME:;
#STEPSTYPE:dance-single;
#DESCRIPTION:;
#CHARTSTYLE:;
#DIFFICULTY:Hard;
#METER:6;
#RADARVALUES:0.378,0.344,0.145,0.097,0.077,248.000,15.000,10.000,0.000,0.000,0.000,0.000,0.000,0.378,0.344,0.145,0.097,0.077,248.000,15.000,10.000,0.000,0.000,0.000,0.000,0.000;
#CREDIT:;
#NOTES:
// measure 0
0000
0000
0000
0000
,  // measure 1
1000
0000
1000
0000
1000
0000
1000
0001
,  // measure 2
0010
0000
0010
0000
0010
0000
0010
0001
,  // measure 3
0100
0000
0100
0000
0010
0000
1000
0001
,  // measure 4
0010
0000
0010
0000
0100
0000
0010
0001
,  // measure 5
1000
0000
0010
0000
0001
0000
0010
1000
,  // measure 6
0001
0000
0010
0000
0100
0000
0010
0001
,  // measure 7
1000
0100
0010
0001
,  // measure 8
2002
0000
0000
3003
,  // measure 9
1000
0100
1000
0010
,  // measure 10
0100
0000
0000
0001
0010
0000
0100
0000
0010
0000
0000
0001
1000
0000
0010
0000
,  // measure 11
0100
0001
0100
0010
,  // measure 12
1000
0000
0000
0100
0010
0000
0100
0000
1000
0000
0000
0010
0100
0000
0001
0000
,  // measure 13
1000
0100
0010
0001
,  // measure 14
0100
0000
0000
0010
1000
0000
0100
0000
0010
0000
0000
0100
1000
0000
0001
0000
,  // measure 15
0020
0000
0000
0000
,  // measure 16
0031
0100
1000
0010
,  // measure 17
0002
0000
0000
0000
,  // measure 18
0100
0000
0000
0000
,  // measure 19
2003
0000
0000
0000
,  // measure 20
0100
0000
0000
0000
,  // measure 21
3001
0102
1003
2100
,  // measure 22
3001
0012
1003
2010
,  // measure 23
3001
0000
0010
0000
0100
0000
1000
0001
,  // measure 24
0100
0000
0000
0000
0010
1000
0000
0000
1100
0000
0000
0000
0000
0000
0000
0000
,  // measure 25
0010
0000
0001
0000
1000
0000
0001
0100
,  // measure 26
0010
0000
1000
0000
0100
0001
0100
1000
,  // measure 27
0010
0100
0101
0000
,  // measure 28
0001
0000
1000
0100
0010
0000
0001
0000
,  // measure 29
0100
0000
0010
0000
0100
0000
0001
0010
,  // measure 30
0100
0000
1000
0000
0001
0100
0010
0100
,  // measure 31
0001
0000
1000
0000
0100
0000
0010
0001
,  // measure 32
1000
0000
0000
0000
0010
0100
0000
0000
0101
0000
0000
0000
0000
0000
0000
0000
,  // measure 33
0001
0000
0010
0000
1000
0000
0010
0100
,  // measure 34
1000
0000
0010
0000
0100
0001
1000
0100
,  // measure 35
0010
0100
1100
0000
,  // measure 36
1000
0000
0001
0100
0010
0000
0100
0000
,  // measure 37
0010
0000
1000
0000
0010
0000
0100
0001
,  // measure 38
0010
0000
0100
0000
0010
0001
1000
0000
,  // measure 39
0001
0000
0000
0000
0100
0000
0000
0000
0010
0000
0100
0000
0001
0000
0000
1000
,  // measure 40
0100
0000
0010
0000
0100
0000
0000
1000
0001
0000
0100
0000
0010
0000
0000
0000
,  // measure 41
0100
0000
0000
0000
0001
0000
0000
0000
1000
0000
0100
0000
0010
0000
0000
0001
,  // measure 42
0100
0000
0010
0000
0100
0000
0000
0001
0010
0000
0100
0000
1000
0000
0000
0000
,  // measure 43
0001
0000
0000
0000
0100
0000
0000
0000
0001
0000
1000
0000
0100
0000
0000
0010
,  // measure 44
0001
0000
1000
0000
0010
0000
0000
1000
0100
0000
0010
0000
0001
0000
0000
0000
,  // measure 45
0010
0000
0100
0000
1000
0000
0010
0100
,  // measure 46
0001
0000
1000
0000
0100
0000
0010
0000
0100
0000
1000
0000
0010
0100
0000
0000
,  // measure 47
0001
0101
0000
0001
,  // measure 48
1000
0100
0000
0000
1100
0000
0000
0000
0000
0000
0000
0000
1000
0000
0001
0000
,  // measure 49
0010
0011
0000
0001
,  // measure 50
0100
0000
0110
0000
0000
0000
0010
1000
,  // measure 51
0001
1001
0000
1000
,  // measure 52
0100
0110
0000
0010
,  // measure 53
0001
0000
0100
0010
1000
0001
0020
0000
,  // measure 54
0000
0000
0130
0010
0001
1000
0000
0000
;

//---------------dance-single - ----------------
#NOTEDATA:;
#CHARTNAME:;
#STEPSTYPE:dance-single;
#DESCRIPTION:;
#CHARTSTYLE:;
#DIFFICULTY:Challenge;
#METER:8;
#RADARVALUES:0.585,0.608,0.155,0.165,0.436,390.000,16.000,17.000,0.000,0.000,0.000,0.000,0.000,0.585,0.608,0.155,0.165,0.436,390.000,16.000,17.000,0.000,0.000,0.000,0.000,0.000;
#CREDIT:;
#NOTES:
0000
0000
0000
0000
,
1000
0000
0000
0000
1000
0000
0000
0000
1000
0000
0000
0000
1000
0001
0000
0001
,
0010
0000
0000
0000
0010
0000
0000
0000
0010
0000
0000
0000
0010
0001
0000
0001
,
0100
0000
0010
0000
1000
0000
0000
0000
0001
0000
1000
0000
0100
0010
0000
0010
,
0001
0000
1000
0000
0010
0000
0000
0000
0100
0000
0020
0000
0030
0100
0000
0001
,
1000
0000
0100
0000
0010
0000
0000
0000
0100
0000
1000
0000
0001
0100
0000
0100
,
0010
0000
0100
0000
0001
0000
0000
0000
1000
0000
0001
0000
0010
0100
0000
0100
,
1000
0000
0010
0000
0100
0000
0000
0000
0001
0000
0010
0000
0100
0000
0010
0200
,
2000
0000
0000
3300
,
0100
0000
1100
0000
1000
0001
0100
0010
,
0100
0000
0000
0001
1000
0000
0100
0010
0100
0000
0000
0010
0001
0000
1000
0010
,
1000
0000
0101
0000
0001
2000
0000
3100
,
0010
0000
0000
0001
1000
0000
0010
0100
0010
0000
0000
1000
0100
0000
0010
0001
,
1000
0010
0100
0001
1000
0100
0010
0100
,
1000
0000
0000
0010
0100
0000
0001
0010
0001
0000
0000
1000
0100
0000
1000
0001
,
0200
0000
0000
0000
,
0310
1000
0100
0001
0100
0010
0001
0100
,
0020
0000
0000
0000
0000
0000
0000
1000
0000
0000
1030
0000
0000
0100
0000
0000
,
0020
0000
0000
0000
0000
0000
0000
0001
0000
0000
0031
0000
0000
0100
0000
0000
,
0020
0000
0000
0000
0000
0000
0000
1000
0000
0000
1030
0000
0000
0100
0000
0000
,
0020
0000
0000
0000
0000
0000
0000
0001
0000
0000
0031
0000
0000
0100
0000
0000
,
0010
0000
0000
0000
0000
0000
0100
0000
0000
0000
0000
0000
0000
0000
0000
0000
0001
0000
0000
0000
0000
0000
0000
0000
0000
0000
0000
0000
1000
0000
0000
0000
0000
0000
0000
0000
0000
0000
0000
0000
0000
0000
0000
0000
0000
0000
0000
0000
0100
0000
0000
0000
0000
0000
0000
0000
0000
0000
0000
0000
0010
0000
0000
0000
0000
0000
0000
0000
0000
0000
0000
0000
0000
0000
0000
0000
0000
0000
0100
0000
0000
0000
0000
0000
0000
0000
0000
0000
0000
0000
0000
0000
0000
0000
0000
0000
1000
0000
0000
0000
0000
0000
0010
0000
0000
0000
0000
0000
0000
0000
0000
0000
0001
0000
0000
0000
0000
0000
0000
0000
0000
0000
0000
0000
0010
0000
0000
0000
0000
0000
0000
0000
0000
0000
0000
0000
0000
0000
0000
0000
0000
0000
0000
0000
0100
0000
0000
0000
0000
0000
0000
0000
0000
0000
0000
0000
1000
0000
0000
0000
0000
0000
0000
0000
0000
0000
0000
0000
0000
0000
0000
0000
0000
0000
0100
0000
0000
0000
0000
0000
0000
0000
0000
0000
0000
0000
0000
0000
0000
0000
0000
0000
,
0010
0000
0000
0000
0000
0000
1000
0000
0000
0000
0000
0000
0000
0000
0000
0000
0100
0000
0000
0000
0000
0000
0000
0000
0000
0000
0000
0000
0010
0000
0000
0000
0000
0000
0000
0000
0000
0000
0000
0000
0000
0000
0000
0000
0000
0000
0000
0000
0100
0000
0000
0000
0000
0000
0000
0000
0000
0000
0000
0000
1000
0000
0000
0000
0000
0000
0000
0000
0000
0000
0000
0000
0000
0000
0000
0000
0000
0000
0001
0000
0000
0000
0000
0000
0000
0000
0000
0000
0000
0000
0000
0000
0000
0000
0000
0000
0010
0000
0000
0000
0000
0000
0100
0000
0000
0000
0000
0000
0000
0000
0000
0000
0010
0000
0000
0000
0000
0000
0000
0000
0000
0000
0000
0000
0000
0000
0000
0000
0000
0000
0000
0000
0001
0000
0000
0000
0000
0000
1000
0000
0000
0000
0000
0000
0010
0000
0000
0000
0000
0000
0000
0000
0000
0000
0000
0000
0100
0000
0000
0000
0000
0000
0000
0000
0000
0000
0000
0000
0100
0000
0000
0000
0000
0000
0000
0000
0000
0000
0000
0000
0100
0000
0000
0000
0000
0000
0000
0000
0000
0000
0000
0000
,
0001
0000
0101
0000
1000
0100
0010
0100
,
1000
0000
0000
0000
0001
0100
0000
0100
0010
0000
0100
0000
0001
0000
0010
0000
,
0100
0000
1100
0000
1000
0100
0020
0000
,
0130
1000
0001
0100
0010
0100
0100
0001
,
1000
0000
0000
0000
1100
0000
0000
0000
0100
0000
1000
0000
0001
0100
0000
0010
,
0100
0000
0010
0100
0001
0010
0100
1000
,
0001
0000
0101
0000
0001
1000
0100
0010
,
0100
1000
0010
0001
0010
0100
0100
0100
,
0010
0000
1010
0000
1000
0100
0010
0001
,
1000
0000
0000
0000
0010
1000
0000
1000
0001
0000
0010
0000
0001
0000
0100
0000
,
0010
0000
1001
0000
1000
0100
2000
0000
,
3010
0100
0001
1000
0100
0010
0010
0001
,
0100
0000
0000
0000
0110
0000
0000
0000
0010
0000
0100
0000
0001
1000
0000
0100
,
0010
0000
0001
0100
1000
0100
0001
1000
,
0100
0000
0011
0000
1000
0010
0001
0010
,
0100
0000
0001
0000
0010
0000
0100
0000
0010
0001
0001
0001
1000
0000
0000
0000
,
1010
0000
0000
0000
0010
0000
0100
0000
0010
0000
1000
0000
0001
0000
0000
0010
,
0100
0000
0010
0001
1000
0000
0000
0010
0100
0000
0010
1000
0001
0000
0000
0000
,
0011
0000
0000
0000
0100
0000
1000
0000
0010
0000
0100
0000
0001
0000
0000
1000
,
0100
0000
0010
0100
1000
0000
0000
0010
0100
0000
0001
0010
0100
0000
0000
0000
,
1100
0000
0000
0000
0001
0000
0100
0000
0010
0000
1000
0000
0100
0000
0000
0010
,
0001
0000
1000
0010
0100
0000
0000
0010
1000
0000
0001
0010
0100
0000
1000
0000
,
0100
0001
0100
0010
0001
1000
0010
0100
,
0001
0000
1000
0000
0001
0000
0010
0000
0100
0000
1000
0000
0010
0100
0000
0001
,
1000
0100
0010
0000
0100
0000
1000
0000
0001
0000
0100
0000
0010
0100
0000
0000
,
0001
0010
0000
0010
0100
0000
0010
0000
0002
0000
0000
0000
0103
0010
0000
1000
,
0001
0010
0100
0000
0010
0000
0001
0000
2000
0000
0000
0000
3010
0000
0000
0000
,
0101
0000
0001
0010
0100
0010
0001
0000
,
1100
0000
0000
0000
1000
0000
0001
0000
0100
0001
0000
0010
0100
0000
0000
0000
,
0020
0000
0000
0000
0031
0000
0010
0000
0100
1000
0000
1000
0010
0000
0000
0000
,
0110
0000
0000
0000
0100
0000
0010
0000
2000
0000
3001
0010
0002
0000
0000
0000
,
0203
0000
0310
0100
0001
1000
0000
0000
;

//---------------dance-single - ----------------
#NOTEDATA:;
#CHARTNAME:;
#STEPSTYPE:dance-single;
#DESCRIPTION:;
#CHARTSTYLE:;
#DIFFICULTY:Medium;
#METER:4;
#RADARVALUES:0.250,0.238,0.155,0.106,0.000,154.000,16.000,11.000,0.000,0.000,0.000,0.000,0.000,0.250,0.238,0.155,0.106,0.000,154.000,16.000,11.000,0.000,0.000,0.000,0.000,0.000;
#CREDIT:;
#NOTES:
0000
0000
0000
0000
,
1000
1000
1000
0001
,
0010
0010
0010
0001
,
1000
0010
1000
0000
,
0001
0100
0001
1000
,
0100
0000
0100
0010
,
0001
0000
0001
1000
,
0010
0000
0010
0100
,
2002
0000
0000
3003
,
0001
0000
0001
0100
,
0010
0000
0110
0000
,
0100
0000
0001
1000
,
0001
0000
1001
0000
,
1000
0000
1000
0100
,
0010
0000
0110
0000
,
0100
0000
1000
0000
,
0001
0100
0001
0100
,
0020
0000
0000
0030
,
2000
0000
0000
3000
,
0002
0000
0000
0003
,
0020
0000
0000
0030
,
0100
0200
1300
2000
,
3010
0020
0130
0200
,
0301
0000
1001
0000
,
1000
0100
0010
0000
,
0001
0000
0101
0000
,
0100
0010
1000
0000
,
0001
0000
0011
0000
,
0010
0001
1000
0000
,
0010
0000
0110
0000
,
0100
0010
0100
0001
,
1000
0000
1001
0000
,
0001
0010
0100
0000
,
1000
0000
1010
0000
,
0010
0100
0001
1000
,
0100
0000
0110
0000
,
0010
0001
1000
0000
,
0001
0000
0101
0000
,
0100
0010
1000
0001
,
0010
0100
1000
0001
,
0000
0101
0000
0100
,
0010
1000
0100
0010
,
0000
0011
0000
0001
,
1000
0010
0100
0001
,
0000
1001
0000
1000
,
0100
1000
0010
0100
,
0001
0010
0100
0010
,
0001
0100
0010
0000
0000
0000
1000
0000
,
0001
0010
0000
0100
,
1000
0001
0100
0000
0000
0000
0010
0000
,
0100
0001
0000
1000
,
0000
0000
0001
0000
0010
0100
1000
0000
,
0001
0100
0000
0110
,
0000
0010
1000
0002
,
0000
0000
0013
0000
0100
1000
0000
0000
;

//---------------dance-single - ----------------
#NOTEDATA:;
#CHARTNAME:;
#STEPSTYPE:dance-single;
#DESCRIPTION:;
#CHARTSTYLE:;
#DIFFICULTY:Easy;
#METER:3;
#RADARVALUES:0.196,0.185,0.068,0.077,0.000,127.000,7.000,8.000,0.000,0.000,0.000,0.000,0.000,0.196,0.185,0.068,0.077,0.000,127.000,7.000,8.000,0.000,0.000,0.000,0.000,0.000;
#CREDIT:;
#NOTES:
0000
0000
0000
0000
,
1000
0000
1000
0001
,
0010
0000
0010
0001
,
1000
0000
0010
1000
,
0001
0000
0010
0000
,
0100
0000
0100
1000
,
0010
0000
0010
0100
,
0001
0000
0001
1000
,
2002
0000
0000
3003
,
0001
0000
0001
1000
,
0100
0000
1100
0000
,
1000
0000
1000
0001
,
0100
0000
0101
0000
,
0001
0000
0001
1000
,
0010
0000
1010
0000
,
1000
0000
0100
0000
,
1000
0000
0001
0000
,
0200
0000
0000
0300
,
0020
0000
0000
0030
,
2000
0000
0000
3000
,
0002
0000
0000
0003
,
1000
1000
0100
0100
,
0010
0010
0001
0001
,
1000
0000
1000
0000
,
0010
0100
0001
0000
,
1000
0000
1000
0000
,
0001
0000
0001
0000
,
0010
0000
0100
0000
,
1000
0000
0001
0000
,
1000
0000
0010
0000
,
1000
0000
0100
0010
,
0001
0000
0100
0000
,
0101
0000
0001
0000
,
1000
0100
0010
0000
,
0001
0000
0100
0000
,
0001
0000
1000
0000
,
0100
1000
0001
0000
,
1000
0000
0010
0000
,
0100
0000
0001
0010
,
0010
0010
0000
0100
,
0000
1000
0000
0001
,
0001
0001
0000
1000
,
0000
0010
0000
0100
,
0100
0100
0000
0010
,
0000
1000
0000
0001
,
0000
0001
0000
1000
,
0100
1000
0100
0010
,
0000
0010
0000
0011
,
0000
0001
1000
0001
,
0000
0001
0000
0101
,
0000
0100
0000
0010
,
0000
0010
0000
1000
,
0001
1000
0000
0001
,
0000
0001
0000
2000
,
3000
0002
0003
0000
;
