#TITLE:Zenius -I- vanisher;
#SUBTITLE:;
#ARTIST:Tatsh;
#TITLETRANSLIT:;
#SUBTITLETRANSLIT:;
#ARTISTTRANSLIT:;
#GENRE:;
#CREDIT:;
#MENUCOLOR:;
#METERTYPE:DDR;
#BANNER:[Qualifier] - Zenius -I- vanisher.png;
#BACKGROUND:[Qualifier] - Zenius -I- vanisher-bg.png;
#LYRICSPATH:;
#CDTITLE:cdtitle.png;
#MUSIC:[Qualifier] - Zenius -I- vanisher.mp3;
#OFFSET:-0.025;
#SAMPLESTART:44.265;
#SAMPLELENGTH:15.000;
#SELECTABLE:YES;
#LISTSORT:;
#BPMS:0.000=80.000,25.000=160.000;
#STOPS:197.000=0.375
;
#BGCHANGES:0.000=[Qualifier] - Zenius -I- vanisher.avi=1.000=1=0=0,
99999=-nosongbg-=1.000=0=0=0 // don't automatically add -songbackground-
;
#ATTACKS:;

//---------------dance-single - ----------------
#NOTES:
     dance-single:
     :
     Hard:
     8:
     0.561,0.562,0.188,0.165,0.157:
0000
0000
0000
0000
,
0000
0000
0000
0000
,
0000
0000
0000
0000
,
0000
0000
0000
0000
,
1001
0100
0100
0100
,
0100
0000
0100
0000
0100
0010
2002
0000
,
0000
0000
0000
0000
,
3003
1000
1000
0100
,
0100
0010
0010
0001
,
0001
1000
1000
0010
,
0010
0000
0001
0000
0001
0000
0100
1000
,
0100
0000
1000
0010
1000
0010
0100
0010
,
0100
0000
0001
0010
0001
0010
0100
0010
,
0100
0000
1000
0001
1000
0001
0010
0100
,
1000
0000
0001
1000
0001
1000
0010
0100
,
0001
0000
0000
0000
1000
0000
0010
0000
1000
0010
0000
0000
0100
0000
0001
0000
,
0010
0000
0000
0000
0001
0000
0100
0000
0001
0100
0000
0000
0010
0000
1000
0000
,
0100
0000
0000
0000
1000
0000
0010
0000
0100
0010
0000
0000
0100
0000
0001
0000
,
0010
0000
0000
0000
0001
0000
0100
0000
0001
0010
0000
0000
0100
0000
1000
0000
,
0010
0000
0000
0000
0100
0000
0001
0000
0100
0010
0000
0010
1000
0000
0100
0000
,
0010
0100
0000
0000
1000
0000
0001
0000
0100
0010
0000
0010
1000
0000
0100
0000
,
0010
0001
0000
0000
1000
0000
0100
0000
1000
0010
0000
0000
0100
0000
0000
0100
,
0001
0000
0010
0000
0100
0000
0000
0100
1000
0000
0010
0000
0100
0000
0001
0000
,
1000
0100
0010
0001
0100
0010
1000
0100
,
0010
0100
1000
0001
0100
0010
1000
0100
,
1000
0010
0100
0001
0010
0100
1000
0010
,
0100
0001
0010
0100
0010
0001
0100
0010
,
0100
0001
1000
0100
1000
0001
0100
0001
,
0010
0000
0100
0000
2000
0000
0000
0000
3000
0000
0001
0000
0100
0000
0000
0001
,
0010
0100
1000
0000
0010
0100
0010
1000
,
0100
0010
0001
0000
1000
0100
0001
0100
,
1000
0000
0010
0000
1001
0000
0000
0000
0000
0000
0100
0001
0100
0001
0000
0100
,
0001
0000
0010
0000
0200
0000
0000
0000
0300
1000
0100
1000
0100
0000
0010
0000
,
0001
0000
0100
0000
0020
0000
0000
0000
0030
0100
0001
0100
0001
0000
0010
0000
,
0100
0000
1000
0000
0020
0000
0000
0000
0030
0000
0100
0000
0100
0000
0000
0001
,
0000
0000
1000
0000
0200
0000
0000
0000
0300
0010
0001
0010
0001
0000
0100
0000
,
0010
0000
1000
0000
0200
0000
0000
0000
0300
0000
1000
0000
0010
0000
0000
0100
,
0000
0001
0010
0000
0100
0001
0100
0010
,
1000
0010
0001
0000
1000
0001
0110
0000
,
1001
0000
0000
0000
0010
0000
1000
0000
0100
0000
0000
0010
0000
0000
0010
0000
,
0001
0000
0000
1000
0000
0000
1000
0000
0010
0000
0000
0100
0000
0000
0100
0000
,
0001
0000
1000
0000
0100
0000
0010
0000
0001
0000
0000
0001
0000
0000
0100
0000
,
0010
0000
0000
0010
0000
0000
1000
0000
0100
0000
0000
0100
0000
0000
0010
0000
,
0001
0000
0010
0000
0100
0000
1000
0000
0010
0000
0000
0100
0000
0000
0100
0000
,
0001
0000
0000
1000
0000
0000
1000
0000
0100
0000
0000
0010
0000
0000
0010
0000
,
0100
1000
0001
0001
0100
0100
0010
0010
,
1000
1000
0001
0010
0100
1000
0001
0100
,
0010
1000
0001
0100
1000
0100
0001
0010
,
1000
0010
0100
1000
0010
0001
1000
0100
,
0001
1001
0110
0000
1010
0000
0101
0100
,
0001
0010
0100
1000
0000
1000
0100
0010
,
0001
0000
1000
0010
0000
0010
0100
0000
0001
0000
0010
0000
1000
0000
0010
0000
,
0100
1000
0010
0100
0000
0001
0100
0001
,
0010
0000
0100
1000
0000
1000
0001
0000
0100
0000
0000
0000
0010
0000
1000
0000
,
0001
0010
0100
1000
2002
0000
3003
0000
,
1000
0000
0000
0010
0000
0000
0100
0000
0001
0000
0000
0000
1000
0000
0100
0000
,
0001
0100
1000
0010
0220
0000
0330
0000
,
2002
0000
3003
0000
1100
0100
0001
0200
,
1000
0000
0310
0001
0101
0000
0010
1000
,
0100
0010
0001
0100
0001
0010
1000
0020
,
0001
0000
0130
1000
1010
0000
0100
0001
,
0010
0100
1000
0010
0110
0000
1000
0001
,
0100
0001
0010
0100
1000
0000
0010
0100
,
0001
0000
0000
1000
0000
0000
0100
0000
0220
0000
0000
0000
0000
0000
0000
0000
,
0330
0001
0000
1000
0100
0000
0010
0000
,
0011
0000
1100
0000
0001
0000
1000
0001
,
0100
0010
0000
1000
0000
0100
0000
0010
,
0001
0100
1000
0100
0010
0000
1000
0100
,
0010
0001
0000
0100
0001
0000
1000
0010
,
0100
0010
0001
0010
0100
0000
0001
1000
,
0100
0001
0100
0000
1000
0010
0100
0000
,
2002
0000
3003
0000
0110
0001
1000
0100
,
0001
0100
0010
0001
0100
0000
0000
0001
,
1001
0000
0120
1000
,
1000
1000
1000
1000
,
1000
1030
1001
0000
;

//---------------dance-single - ----------------
#NOTES:
     dance-single:
     :
     Medium:
     6:
     0.460,0.444,0.094,0.086,0.043:
0000
0000
0000
0000
,
0000
0000
0000
0000
,
0000
0000
0000
0000
,
0000
0000
0000
0000
,
0001
0001
0010
0010
,
0100
0000
0100
0000
1000
0010
0200
0000
,
0000
0000
0000
0000
,
0300
0001
1000
0100
,
0100
1000
0001
0100
,
0100
0001
1000
0010
,
0010
0000
1000
0000
0001
0000
0010
0100
,
0010
0000
0001
0000
1000
0000
0100
0010
,
0100
0000
1000
0000
0010
0000
0100
0001
,
0100
0000
0001
0000
1000
0000
0100
1000
,
0100
0000
0010
0000
0001
0000
0100
0010
,
0100
0000
0002
0000
1003
0000
0001
0010
,
0100
0000
2000
0000
3010
0000
0100
0001
,
0010
0000
0200
0000
1300
0000
0001
1000
,
0100
0000
0020
0000
0130
0000
1000
0010
,
0100
0000
0002
0010
0013
0000
0001
1000
,
0100
0000
2000
0001
3001
0000
0100
0001
,
0010
0000
0000
0000
0001
0000
0010
0000
0000
0100
0000
0000
0010
0000
0000
0001
,
0000
0000
1000
0000
0010
0000
0000
0100
0000
0000
0010
0000
1000
0000
0001
0000
,
0010
0100
1000
0010
0100
0000
0001
0010
,
0000
1000
0010
0000
0001
0010
0000
1000
,
0010
0001
0100
0010
1000
0000
0001
0100
,
0000
1000
0100
0000
0001
0100
0000
1000
,
0100
0001
0010
0100
1000
0000
0001
1000
,
0100
0000
0010
0000
0001
0000
0000
0000
0000
0000
0100
0000
0010
0000
0000
1000
,
0000
0010
0100
0000
0001
0010
0100
1000
,
0001
0010
0100
0000
0010
0001
1000
0010
,
0100
0000
0001
0000
1001
0000
0000
0000
0000
0000
0001
0000
0100
0000
0000
0100
,
0000
0100
0010
0000
0000
1000
0100
0001
,
0100
1000
0010
0000
0000
0100
0001
0010
,
0100
0000
1000
0000
0010
0000
0000
0000
0000
0000
0100
0000
0100
0000
0000
0001
,
0000
1000
0100
0000
0000
0010
0001
0100
,
1000
0000
0100
0000
0001
0000
0000
0000
0000
0000
1000
0000
0100
0000
0000
0010
,
0000
0100
1000
0000
0001
0100
0010
1000
,
0001
0010
0100
0000
0000
0000
1001
0000
,
0000
0000
1000
0100
0010
0000
1000
0100
,
0010
0000
1000
0100
0010
1000
0010
0100
,
1000
0000
0001
0100
0010
0000
0001
0100
,
0010
0000
0001
0100
0010
0001
0010
0100
,
0001
0000
1000
0001
0100
0000
1000
0001
,
0100
0000
1000
0001
0100
1000
0100
0001
,
1000
0000
0001
0010
0001
0000
0010
1000
,
0010
0000
1000
0100
1000
0000
0100
0001
,
0100
0000
0001
0010
0100
1000
0001
0100
,
0010
0000
1000
0010
0100
0001
1000
0100
,
0010
0000
0110
0000
1001
0000
1000
0100
,
1000
0001
0100
0000
0001
0010
0100
0000
,
1000
0000
0000
0001
0000
0000
0100
0000
0010
0000
0000
0000
1000
0000
0100
0000
,
0010
0000
0010
0100
1000
0000
0001
0100
,
0010
0000
0000
0100
0000
0000
0001
0000
0010
0000
0000
0000
0001
0000
0100
0000
,
0001
1000
0100
0001
0100
0000
1000
0010
,
0100
0000
0000
0001
0000
0000
1000
0000
0100
0000
0000
0000
0010
0000
0100
0000
,
1000
0001
0100
0010
0100
0000
0000
0000
,
1001
0000
0110
0000
1000
0100
0010
0002
,
0000
0003
1000
0001
,
0110
0000
1001
0000
0001
0010
0100
2000
,
0000
3000
0001
1000
,
1010
0000
0101
0000
1000
0000
0001
0100
,
0001
0010
0001
1000
0001
0000
1000
0100
,
0010
0000
0000
0100
0000
0000
1000
0000
1000
0000
0000
0000
0001
0000
0100
0000
,
0010
0000
0010
1000
0100
0000
0010
0001
,
2000
0000
3200
0000
0310
0000
0001
0100
,
0001
0000
0010
0100
0000
0100
0010
0000
,
0100
1000
0010
0000
0100
0000
0001
1000
,
0001
0000
0100
0010
0000
0010
1000
0000
,
0001
0100
0010
0000
1000
0000
0001
0010
,
0001
0000
1000
0000
0010
0100
0010
0000
,
1000
0000
0001
0010
0100
0000
1000
0010
,
0100
0010
1000
0100
0010
0000
0000
0001
,
0001
0000
1001
0100
,
0100
0100
0100
0100
,
0100
0100
1001
0000
;

//---------------dance-single - ----------------
#NOTES:
     dance-single:
     :
     Easy:
     4:
     0.310,0.355,0.110,0.118,0.000:
0000
0000
0000
0000
,
0000
0000
0000
0000
,
0000
0000
0000
0000
,
0000
0000
0000
0000
,
0100
0100
0100
0100
,
0100
0000
0100
0000
0100
0010
2000
0000
,
0000
0000
0000
0000
,
3000
0001
0001
0100
,
0100
1000
1000
0010
,
0010
0001
0001
0010
,
0010
1000
1000
0100
,
0100
0001
0010
0001
,
0001
1000
0010
1000
,
1000
0001
0100
0001
,
0001
1000
0100
1000
,
1000
0002
0013
0100
,
1000
0020
0130
0001
,
1000
0200
0310
0001
,
0010
0200
1300
0010
,
0100
0002
0013
0001
,
1001
2000
3010
1000
,
1001
0100
0100
0100
,
0100
0010
1000
0100
,
0001
0010
1000
0100
,
0010
0100
1000
0010
,
0010
0100
0001
0010
,
0100
0010
0001
0100
,
0100
0010
1000
0001
,
0100
0010
1000
0001
,
0001
1000
0100
0010
,
0001
2000
0000
0002
,
3003
1001
0000
0100
,
0010
0110
0000
1000
,
0001
1001
0000
0001
,
0010
0100
1000
0100
,
0010
0110
0000
1000
,
0001
1001
0000
0001
,
0100
0110
0000
0010
,
1000
0001
0010
0110
,
0000
0001
0001
1000
,
1000
0000
0001
0000
1000
0000
0001
1000
,
0001
1000
1000
0001
,
0001
0000
1000
0000
0001
0000
1000
0001
,
1000
0010
0010
0100
,
0100
0000
0010
0000
0100
0000
0010
0100
,
0010
0100
0001
1000
,
0010
0100
0001
1000
,
0010
1000
0100
0001
,
0010
1000
0100
0001
,
0010
1000
0000
0001
,
0100
0001
1000
0000
,
0001
1000
0100
0000
,
0010
0100
1000
0000
,
0001
0100
0001
0010
,
0100
1000
0010
0000
,
0100
0001
0010
0000
,
0100
1000
0020
0000
,
0200
0330
0001
0100
,
1000
0100
0001
0000
,
1000
1000
1000
0100
,
0001
0100
1000
0000
,
0001
0001
0010
0100
,
1000
0010
0100
0000
,
0001
0100
0010
0000
,
2000
0000
0002
3003
,
1001
0000
0100
0000
,
0100
0001
0010
0100
,
1000
0010
0100
0000
,
0100
0001
0010
0100
,
1000
0010
0100
0000
,
0100
0000
0100
0010
,
1000
0000
0001
0010
,
0100
1000
1001
0000
,
0110
0000
2002
0000
,
0000
0000
0000
0000
,
3003
0000
0110
0000
;

//---------------dance-single - ----------------
#NOTES:
     dance-single:
     :
     Beginner:
     2:
     0.150,0.148,0.024,0.008,0.000:
0000
0000
0000
0000
,
0000
0000
0000
0000
,
0000
0000
0000
0000
,
0000
0000
0000
0000
,
0100
0000
0100
0000
,
0100
0000
0100
0200
,
0000
0000
0000
0000
,
0300
0001
0000
0001
,
0000
1000
0000
1000
,
0000
0001
0000
0001
,
0000
1000
0000
1000
,
0000
0001
0000
0100
,
0000
1000
0000
0100
,
0000
0001
0000
0100
,
0000
1000
0000
0100
,
0000
0001
0000
0010
,
0000
1000
0000
0010
,
0000
0001
0000
0010
,
0000
1000
0000
0010
,
0000
0001
0000
0001
,
0000
1000
0000
1000
,
0000
0001
0000
1000
,
0000
0100
0100
0100
,
0000
0100
0000
0000
,
0000
0010
0000
0001
,
0000
0010
0000
0000
,
0000
0100
0000
1000
,
0000
0100
0000
0000
,
0000
1000
0000
0010
,
0000
1000
0000
0000
,
0000
0001
0000
0100
,
0000
0001
0000
0001
,
0000
1000
0000
1000
,
0000
0001
0000
1000
,
0000
0001
0000
0001
,
0000
1000
0000
1000
,
0000
0001
0000
0001
,
0000
1000
0000
0001
,
0000
1000
0000
1000
,
0000
0010
0000
0010
,
0000
0100
0000
0100
,
0100
0000
0000
0001
,
0000
1000
0000
1000
,
1000
0000
0000
0001
,
0000
0010
0000
0010
,
0010
0010
0000
0010
,
0000
0010
0000
0010
,
0000
0100
0100
0100
,
0000
0100
0100
0100
,
0000
0000
0000
1000
,
0000
0001
0000
1000
,
0000
0001
0001
0000
,
0100
0000
1000
0000
,
0100
0000
0100
0000
,
0000
0000
0100
0000
,
0000
0000
0001
0000
,
0001
0000
1000
0000
,
1000
0000
0001
0001
,
0000
0000
0010
0000
,
0010
0000
0010
0010
,
0000
0000
0100
0000
,
0100
0000
0100
0000
,
0000
0000
1000
0000
,
0000
0000
0001
0000
,
1000
0000
0001
0000
,
0000
0000
0100
0000
,
0000
0000
0100
0000
,
0000
0000
0100
0000
,
0100
0000
0100
0000
,
0100
0000
1001
0000
,
0000
0000
0010
0000
,
0000
0000
1001
0000
,
0000
0000
0100
0000
,
0000
0000
1001
0000
,
0000
0000
0100
0000
,
0100
0000
0100
0000
;

//---------------dance-double - ----------------
#NOTES:
     dance-double:
     :
     Hard:
     9:
     0.596,0.621,0.118,0.133,0.278: // measure 1
00000000
00000000
00000000
00000000
,  // measure 2
00000000
00000000
00000000
00000000
,  // measure 3
00000000
00000000
00000000
00000000
,  // measure 4
00000000
00000000
00000000
00000000
,  // measure 5
11000000
01000000
00010000
00010000
,  // measure 6
00001000
00000000
00001000
00000000
00000100
00000001
00000020
00000000
,  // measure 7
00000000
00000000
00000000
00000000
,  // measure 8
00000030
00000001
00000100
00000010
,  // measure 9
00001000
00000100
00010000
00001000
,  // measure 10
00001000
00010000
01000000
10000000
,  // measure 11
00100000
00000000
01000000
00000000
00001000
00000000
00010000
00000100
,  // measure 12
00010000
00010000
00000010
00001000
00000100
00000100
00010000
00000010
,  // measure 13
00000100
00000000
00000001
00000010
00000100
00000100
00010000
00001000
,  // measure 14
01000000
00000000
00010000
00100000
01000000
01000000
10000000
00100000
,  // measure 15
01000000
00000000
00010000
00100000
00001000
00001000
00010000
00000100
,  // measure 16
00001000
00000000
00000000
00000000
00000001
00000000
00000100
00000000
00000001
00000010
00000000
00000100
00000000
00000000
00001000
00000000
,  // measure 17
00000100
00010000
00000000
00000000
00001000
00000000
01000000
00000000
00010000
00100000
00000000
01000000
00000000
00000000
10000000
00000000
,  // measure 18
01000000
00100000
00000000
00000000
01000000
00000000
00010000
00000000
00001000
00000100
00000000
00000010
00000000
00000000
00001000
00000000
,  // measure 19
00000100
00000010
00000000
00000000
00000001
00000000
00000100
00000000
00000010
00001000
00000000
00000100
00000000
00000000
00010000
00000000
,  // measure 20
00001000
01000000
00000000
00000000
00010000
00000000
10000000
00000000
01000000
00100000
00000000
00100000
00001000
00000000
00010000
00000000
,  // measure 21
00000100
00001000
00000000
00001000
00000010
00000000
00000100
00000000
00000001
00001000
00000000
00001000
00000100
00000000
00010000
00000000
,  // measure 22
00001000
01000000
00000000
01000000
00010000
00000000
00200000
00000000
00000000
01000000
00000000
00000000
00302000
00000000
00000000
01000000
,  // measure 23
00000000
00000000
00013000
00000000
00000200
00000000
00000000
00000010
00000000
00000000
00000301
00000000
00000100
00000000
00001000
00000000
,  // measure 24
00010000
00100000
10000000
00100000
00010000
10000000
01000000
00010000
,  // measure 25
10000000
00100000
00010000
10000000
01000000
00010000
10000000
00100000
,  // measure 26
00010000
00010000
10000000
00100000
00010000
00001000
00000100
00000001
,  // measure 27
00001000
00000010
00000001
00001000
00000100
00000001
00000100
00001000
,  // measure 28
00010000
00100000
10000000
01000000
00010000
00001000
00000010
00000001
,  // measure 29
00000100
00000000
00000010
00000000
00002000
00000000
00000000
00000000
00003000
00000000
00000100
00000000
00010000
00000000
00000000
00010000
,  // measure 30
00001000
01000000
00010000
00100000
01000000
10000000
00010000
01000000
,  // measure 31
00001000
00000000
00010000
00000000
00000100
00000000
00000000
00000000
00001000
00000100
00001000
00000000
00000100
00010000
00000100
00000000
,  // measure 32
00010000
00001000
00010000
00000000
00002000
00000000
00000000
00000000
00003000
00000000
01000000
00100000
01000000
00100000
00000000
10000000
,  // measure 33
01000000
00000000
00100000
00001000
00020000
00000000
00000000
00000000
00030000
00000100
00010000
00000100
00010000
00000000
00000010
00000000
,  // measure 34
00001000
00000000
00000100
00000000
00000020
00000000
00000000
00000000
00000030
00000001
00000100
00000001
00000100
00000000
00000010
00000000
,  // measure 35
00010000
00000000
00100000
00000000
02000000
00000000
00000000
00000000
03000000
00000000
00010000
00000000
00010000
00000000
00000000
00100000
,  // measure 36
00000000
00000000
00001000
00000000
00021000
00000000
00000000
00000000
00030000
00000100
00001000
00000100
00001000
00000000
00000010
00000000
,  // measure 37
00000100
00000000
00000001
00000000
00000020
00000000
00000000
00000000
00000030
00000000
00001000
00000000
00010000
00000000
00000000
01000000
,  // measure 38
00000000
00000000
10000000
00000000
00100000
00000000
01000000
00000000
00010000
00000000
00100000
00000000
00001000
00010000
00001000
00000000
,  // measure 39
00010000
00001000
00010000
00000000
00002000
00000000
00000000
00000000
00000000
00000000
00000000
00000000
02000000
00000000
00000000
00000000
,  // measure 40
03003000
00000000
00000000
00000000
00010000
10000000
00010000
00000000
01000000
00000000
00001000
00100000
00000000
00001000
00100000
00000000
,  // measure 41
00001000
00000000
00010000
00000100
00000000
00010000
00000100
00000000
00001000
00000000
00000010
00000100
00000000
00000010
00001000
00000000
,  // measure 42
00010000
00000000
01000000
00000000
00100000
10000000
00100000
00000000
01000000
00000000
00010000
01000000
00000000
00010000
00100000
00000000
,  // measure 43
00001000
00000000
00010000
00001000
00000000
00010000
00000100
00000000
00001000
00000000
00000010
00001000
00000000
00000010
00000100
00000000
,  // measure 44
00000001
00000000
00001000
00000000
00000010
00001000
00000010
00000000
00010000
00000000
00000100
00010000
00000000
00001000
00010000
00000000
,  // measure 45
00001000
00000000
00100000
00001000
00000000
00100000
00010000
00000000
01000000
00000000
00100000
10000000
00000000
00100000
01000000
00000000
,  // measure 46
00010000
00100000
00001000
01000000
00100000
01000000
00010000
01000000
,  // measure 47
10000000
01000000
00001000
00000100
00000001
00000100
00000010
00000100
,  // measure 48
00010000
00000100
00000001
00000010
00001000
00010000
01000000
10000000
,  // measure 49
00100000
00000000
10000000
00000000
01000000
00000000
00010000
00000000
00001000
00000000
00000100
00000000
00000001
00000010
00000100
00000000
,  // measure 50
00001000
00000010
00000100
00000000
00001001
00000000
00000001
00000000
00000101
00000000
00000000
00000000
00000010
00000000
00001000
00000000
,  // measure 51
00000000
00000100
00010000
00000100
00000000
00010000
00001000
01000000
,  // measure 52
00010000
00000000
00100000
01000000
00000000
01000000
10000000
00000000
00100000
00000000
00000000
00000000
01000000
00000000
00001000
00000000
,  // measure 53
00010000
00000000
00000100
00001000
00000000
00000010
00000100
00000001
,  // measure 54
00000010
00000000
00000100
00001000
00000000
00001000
00000100
00000000
00010000
00000000
00000000
00000000
00001000
00000000
01000000
00000000
,  // measure 55
00100000
01000000
10000000
01000000
00010000
00000000
10000000
01000000
,  // measure 56
00010000
00000000
00000000
00001000
00000000
00000000
00000010
00000000
00000001
00000000
00000100
00000000
00001000
00000000
00000100
00000000
,  // measure 57
00000001
00000010
00000100
00000010
00000001
00000000
00001000
00000000
,  // measure 58
00010000
00000000
10000000
00000000
10000000
01000000
00010000
00012000
,  // measure 59
00000000
00003000
00000010
00000001
00000101
00000000
00000001
00000100
,  // measure 60
00001000
00000100
00000010
00001000
00000001
00000100
00001000
00021000
,  // measure 61
00000000
00030000
00100000
10000000
11000000
00000000
10000000
01000000
,  // measure 62
00010000
01000000
00100000
00010000
10000000
00000000
01000000
00010000
,  // measure 63
00001000
00010000
00000100
00010000
01000000
00000000
00010000
00000100
,  // measure 64
00001000
00000000
00000010
00000100
00000000
00000100
00000001
00000000
00001000
00000000
00000000
00000000
00000100
00000000
00010000
00000000
,  // measure 65
01000000
00100000
00001000
01000000
00010000
00000000
00100000
00000000
,  // measure 66
00110000
00000000
00011000
00000000
00001100
00000000
00001000
00000010
,  // measure 67
00000100
00000001
00000010
00001000
00000010
00000001
00000100
00001000
,  // measure 68
01000000
00100000
01000000
00001000
00100000
00000000
01000000
00100000
,  // measure 69
00010000
01000000
10000000
01000000
00001000
00010000
00000100
00001000
,  // measure 70
00000010
00000100
00000001
00000010
00000100
00000000
00001000
00000100
,  // measure 71
00010000
00001000
01000000
00000000
00010000
00100000
01000000
00000000
,  // measure 72
22000000
00000000
33000000
00000000
10000000
01000000
00010000
00001000
,  // measure 73
00000100
00000001
00000010
00001000
00010000
00000000
00000000
00001000
,  // measure 74
00011000
00000000
00110000
00010000
,  // measure 75
00001000
00001000
00000100
00000100
,  // measure 76
00000001
00000001
00001001
00000000
;

//---------------dance-double - ----------------
#NOTES:
     dance-double:
     :
     Medium:
     6:
     0.395,0.444,0.094,0.078,0.020: // measure 1
00000000
00000000
00000000
00000000
,  // measure 2
00000000
00000000
00000000
00000000
,  // measure 3
00000000
00000000
00000000
00000000
,  // measure 4
00000000
00000000
00000000
00000000
,  // measure 5
00011000
00001000
00001000
00001000
,  // measure 6
00001000
00000000
00001000
00000000
00010000
01000000
20000000
00000000
,  // measure 7
00000000
00000000
00000000
00000000
,  // measure 8
30000000
00100000
00100000
01000000
,  // measure 9
01000000
00001000
00001000
00010000
,  // measure 10
00010000
00000100
00000100
00001000
,  // measure 11
00001000
00000000
00000010
00000000
00000010
00000000
00000100
00000001
,  // measure 12
00000100
00000001
00000010
00000100
,  // measure 13
00010000
00001000
00100000
00010000
,  // measure 14
01000000
00100000
10000000
01000000
,  // measure 15
00010000
00001000
00000100
00000010
,  // measure 16
00001000
00000000
00000001
00000100
00000001
00000000
00002000
00000000
,  // measure 17
00003010
00000000
00010000
00000100
00010000
00000000
00002000
00000000
,  // measure 18
01003000
00000000
00100000
10000000
00100000
00000000
02000000
00000000
,  // measure 19
03010000
00000000
00100000
00001000
00100000
00000000
00002000
00000000
,  // measure 20
00013000
00000000
00000100
00001000
00000010
00000000
00000200
00000000
,  // measure 21
00000301
00000000
00000100
00001000
00010000
00000000
00002000
00000000
,  // measure 22
01003000
00000000
00000000
00000000
00010000
00000000
10000000
00000000
00000000
01000000
00000000
00000000
00100000
00000000
00000000
00001000
,  // measure 23
00000000
00000000
00010000
00000000
00000100
00000000
00000000
00001000
00000000
00000000
00000010
00000000
00000100
00000000
00001000
00000000
,  // measure 24
00010000
00001000
00000100
00000001
00001000
00000000
00000010
00001000
,  // measure 25
00000000
00010000
00001000
00000000
00000010
00001000
00000000
00010000
,  // measure 26
00001000
00000000
00000010
00001000
00000100
00000000
00010000
00001000
,  // measure 27
00000000
01000000
00001000
00000000
00010000
00001000
00000000
01000000
,  // measure 28
00001000
00000000
00000000
00000000
00010000
00000000
01000000
00000000
10000000
00000000
00000000
00000000
00100000
00000000
00000000
01000000
,  // measure 29
00000000
00000000
00100000
00000000
20000000
00000000
00000000
00000000
30000000
00000000
00010000
00000000
01000000
00000000
00000000
00001000
,  // measure 30
00000000
00100000
00010000
00000000
10000000
01000000
00010000
00000000
,  // measure 31
00001000
00000100
00000001
00000000
00001000
00000000
00010000
00000000
,  // measure 32
10000000
00000000
10010000
00000000
01010000
00000000
01000000
00001000
,  // measure 33
00010000
00000000
00011000
00000000
00010100
00000000
00000100
00001000
,  // measure 34
00000010
00000000
00000110
00000000
00000101
00000000
00000001
00001000
,  // measure 35
00000100
00001000
00010000
00100000
,  // measure 36
01000000
00000000
01100000
00000000
00101000
00000000
00100000
00001000
,  // measure 37
00010000
00000000
00010100
00000000
00001100
00000000
00001000
00000010
,  // measure 38
00000100
00000000
00000001
00000010
00000100
00000000
00000010
00000100
,  // measure 39
00001000
00010000
10000000
01000000
,  // measure 40
00100000
00000000
00010000
01000000
00010000
00000000
00010000
00100000
,  // measure 41
00010000
00100000
00001000
00010000
,  // measure 42
00000100
00000000
00001000
00000100
00001000
00000000
00001000
00000010
,  // measure 43
00001000
00000100
00010000
00001000
,  // measure 44
01000000
00000000
00010000
10000000
01000000
00000000
01000000
10000000
,  // measure 45
00010000
00001000
00010000
00100000
,  // measure 46
00001000
00010000
00000100
00001000
,  // measure 47
00000010
00000100
00001000
01000000
,  // measure 48
00010000
00100000
00001000
00010000
,  // measure 49
00000100
00001000
00010000
00100000
,  // measure 50
01000000
10000000
01000000
00000000
10000000
00000000
00010000
01000000
,  // measure 51
00000000
01000000
00001000
00000000
00010000
00000000
00000100
00000000
,  // measure 52
00001000
00000010
00001000
00000000
00000001
00000000
00000010
00000000
,  // measure 53
00000100
00000000
00010000
00001000
00000000
00001000
01000000
00000000
,  // measure 54
00010000
00100000
01000000
00000000
10000000
00000000
00100000
00000000
,  // measure 55
01000000
00001000
00010000
00000010
,  // measure 56
00000100
00000000
00000001
00000000
00000010
00000100
00001000
00000000
,  // measure 57
00000100
00000000
00010000
00001000
00000000
00001000
01000000
00000000
,  // measure 58
00010000
00000000
10000000
00000000
01000000
00100000
00001000
00020000
,  // measure 59
00000000
00030000
00000100
00001000
,  // measure 60
00000010
00000000
00000100
00000000
00000010
00000100
00001000
00020000
,  // measure 61
00000000
00030000
00001000
01000000
,  // measure 62
00010000
00100000
01000000
10000000
,  // measure 63
01000000
00010000
01000000
10000000
,  // measure 64
00100000
01000000
00001000
00000000
00010000
00000000
00000100
00000000
,  // measure 65
00001000
00000010
00000100
00000000
00000001
00000000
00001000
00000000
,  // measure 66
00010000
10000000
00010000
00010000
,  // measure 67
01000000
00001000
01000000
00000000
00001000
00000000
00010000
00000000
,  // measure 68
00000100
00000010
00000001
00000010
00000100
00000000
00000100
00000000
,  // measure 69
00010000
00001000
00010000
00000000
00001000
00000000
01000000
00000000
,  // measure 70
10000000
01000000
00010000
00100000
,  // measure 71
00001000
00000100
00000010
00001000
,  // measure 72
00000100
00000010
00000001
00000100
,  // measure 73
00010000
00000000
01000000
00000000
00100000
00000000
00000000
10000000
,  // measure 74
10000000
00000000
00010000
00010000
,  // measure 75
00010000
00010000
00010000
00010000
,  // measure 76
00100000
00001000
00011000
00000000
;

//---------------dance-double - ----------------
#NOTES:
     dance-double:
     :
     Easy:
     4:
     0.306,0.296,0.047,0.008,0.000: // measure 1
00000000
00000000
00000000
00000000
,  // measure 2
00000000
00000000
00000000
00000000
,  // measure 3
00000000
00000000
00000000
00000000
,  // measure 4
00000000
00000000
00000000
00000000
,  // measure 5
10000000
10000000
10000000
10000000
,  // measure 6
10000000
00000000
10000000
00000000
10000000
00010000
20000000
00000000
,  // measure 7
00000000
00000000
00000000
00000000
,  // measure 8
30000000
10000000
00000000
10000000
,  // measure 9
00000000
01000000
00100000
01000000
,  // measure 10
00000000
00100000
00000000
00100000
,  // measure 11
00000000
00000000
00001000
00000000
00010000
00000000
00001000
00010000
,  // measure 12
00001000
00010000
00000100
00001000
,  // measure 13
00001000
00000010
00000100
00000001
,  // measure 14
00000001
00000010
00000100
00010000
,  // measure 15
00010000
00001000
01000000
00100000
,  // measure 16
00100000
10000000
11000000
01000000
,  // measure 17
00100000
00001000
00010000
00000100
,  // measure 18
00000100
00001000
00001010
00000010
,  // measure 19
00000100
00000001
00001000
00000100
,  // measure 20
00000100
00010000
00011000
00001000
,  // measure 21
01000000
00010000
00100000
01000000
,  // measure 22
01000000
10000000
01000000
00010000
,  // measure 23
01000000
00010000
00001000
00010000
,  // measure 24
00001000
00000000
00000100
00000000
00000100
00000000
00000100
00000010
,  // measure 25
00000000
00000010
00001000
00000000
00001000
00000010
00000000
00000010
,  // measure 26
00000100
00000000
00000010
00000000
00000010
00000000
00010000
00001000
,  // measure 27
00000000
00001000
01000000
00000000
01000000
00001000
00000000
00001000
,  // measure 28
00010000
00001000
00001000
00100000
,  // measure 29
00010000
01000000
00000000
00100000
,  // measure 30
10000000
01000000
00100000
00001000
,  // measure 31
00010000
00001000
00010000
00000100
,  // measure 32
00001000
00000001
00000000
00001000
,  // measure 33
00001000
00000100
00010000
00001000
,  // measure 34
00001000
01000000
00000000
00010000
,  // measure 35
00010000
00100000
01000000
10000000
,  // measure 36
10000000
00010000
00000000
10000000
,  // measure 37
10000000
01000000
00100000
00001000
,  // measure 38
00001000
00010000
00000100
00010000
,  // measure 39
00000100
00001000
00000001
00001001
,  // measure 40
00000000
00000001
00000001
00000100
,  // measure 41
00000100
00001000
00001000
00010000
,  // measure 42
00000000
00001000
00001000
00010000
,  // measure 43
00010000
01000000
01000000
10000000
,  // measure 44
00000000
10000000
10000000
01000000
,  // measure 45
01000000
00010000
00010000
00001000
,  // measure 46
00000000
00010000
00010000
00001000
,  // measure 47
00001000
00000100
00000100
00000001
,  // measure 48
00000001
00001000
00000001
00001000
,  // measure 49
00000001
00000010
00000100
00000010
,  // measure 50
00000100
00001000
00001000
00000000
00000000
00000000
00000100
00000000
,  // measure 51
00000100
00010000
00000100
00010000
,  // measure 52
00001000
01000000
00001000
00001000
,  // measure 53
00100000
00010000
01000000
00100000
,  // measure 54
10000000
10000000
01000000
00010000
,  // measure 55
01000000
00010000
00001000
00010000
,  // measure 56
00001000
00010000
00001000
00000100
,  // measure 57
00001000
00000100
00000001
00001000
,  // measure 58
00001001
00000000
00000001
00000001
,  // measure 59
00000010
00000100
00010000
00010000
,  // measure 60
00001000
01000000
00010000
00010000
,  // measure 61
10000000
01000000
00100000
00100000
,  // measure 62
00001000
00010000
00000100
00001000
,  // measure 63
00000100
00000010
00000001
00000100
,  // measure 64
00000001
00000010
00000001
00000000
,  // measure 65
00001000
00000000
00010000
00000000
,  // measure 66
10000000
00000000
00010000
00100000
,  // measure 67
01000000
01000000
00100000
00001000
,  // measure 68
00010000
00000000
00000100
00001000
,  // measure 69
00000010
00000010
00000100
00000001
,  // measure 70
00000010
00000000
00000001
00000100
,  // measure 71
00000010
00001000
00000100
00010000
,  // measure 72
00001000
00000000
00100000
00010000
,  // measure 73
01000000
00000000
00100000
00000000
10000000
00000000
00000000
00010000
,  // measure 74
00010000
00000000
01000000
01000000
,  // measure 75
01000000
01000000
01000000
01000000
,  // measure 76
01000000
01000000
01100000
00000000
;
