#TITLE:この青空の下で;
#SUBTITLE:;
#ARTIST:TAG meets "eimy";
#TITLETRANSLIT:;
#SUBTITLETRANSLIT:;
#ARTISTTRANSLIT:;
#GENRE:;
#CREDIT:;
#BANNER:Under this Blue Sky.png;
#BACKGROUND:Under this Blue Sky bg.png;
#LYRICSPATH:;
#CDTITLE:;
#MUSIC:Under this Blue Sky.mp3;
#OFFSET:-0.040;
#SAMPLESTART:36.400;
#SAMPLELENGTH:12.000;
#SELECTABLE:YES;
#BPMS:0.000=165.000
,203.000=82.500
,219.000=165.000
;
#STOPS:
;
#BGCHANGES:;
#KEYSOUNDS:;
#ATTACKS:;

//---------------dance-single - ----------------
#NOTES:
     dance-single:
     :
     Hard:
     9:
     0.671,0.901,0.233,0.285,0.401,484.000,27.000,33.000,0.000,0.000,0.000,0.671,0.901,0.233,0.285,0.401,484.000,27.000,33.000,0.000,0.000,0.000:
0000
0000
0000
0000
,
0000
0000
0000
0000
,
0000
0000
0000
0000
,
0000
0000
0000
0000
,
0000
0000
0000
0000
0000
0000
0001
0010
,
0100
0000
1000
0000
0001
0000
0100
0000
0010
0000
1000
0000
0001
0000
0000
0100
,
0000
0000
1000
0000
0000
0100
0000
0000
0001
0000
0001
0000
1000
0000
0100
0000
,
0010
0000
0001
0000
1000
0000
0010
0000
0100
0000
0001
0000
1000
0000
0000
0100
,
0000
0001
0000
0100
1000
1000
0001
0100
,
1000
0000
0001
0010
1000
0000
0001
0010
,
1000
1000
0001
0010
1000
0000
0001
0010
,
0100
0000
0100
0010
0001
0000
1000
0010
,
0001
0010
1000
0100
0010
0001
1000
0010
,
0001
0000
1000
0100
0001
0000
1000
0100
,
0001
0001
1000
0100
0001
0000
1000
0100
,
0010
0000
0010
0100
1000
0000
0001
0100
,
1000
0100
0001
0010
0100
1000
1001
0000
,
1000
0100
0010
0100
1000
0010
0100
0001
,
0010
1000
0010
0001
0100
0010
1000
0000
,
0001
0100
0010
0100
0001
0010
0100
1000
,
0010
0001
0010
1000
0100
0010
0001
0000
,
1000
0010
0100
0001
0010
0100
1000
0010
,
0001
0010
1000
0001
0100
1000
0100
0001
,
0010
0100
1000
0001
0100
0010
1000
0100
,
0010
0001
1000
0010
0100
0001
1001
1001
,
0000
0000
0001
0000
0100
0000
1000
0000
0100
0000
0001
0000
2001
0000
0000
0100
,
0000
0000
3100
0000
0002
0000
0000
0010
0000
0000
0013
0000
2000
0000
0000
0001
,
0000
0000
3001
0010
0100
0000
0000
0000
1000
0000
0001
0000
1002
0000
0000
0010
,
0000
0000
0013
0000
2000
0000
0000
0100
0000
0000
3100
0000
0002
0000
0000
1000
,
0000
0000
1003
0100
0010
0000
0000
0000
1001
0000
0000
0000
1000
0000
0000
0010
,
0000
0100
0001
0000
1000
0100
0010
0000
,
0010
0100
1000
0000
0001
0010
0100
0000
,
0100
0010
0001
0000
0110
0000
1000
0100
,
0010
0000
0001
0000
1000
0000
0100
0000
0010
0000
0001
0000
2001
0000
0000
0100
,
0000
0000
3010
0000
0000
0000
0100
0000
0001
0000
0010
0000
0100
0000
0000
1000
,
0000
0000
1100
0000
0000
0000
1000
0000
0100
0000
0010
0000
1002
0000
0000
0100
,
0000
0000
0103
0000
2000
0000
0000
0010
0000
0000
3010
0000
0002
0000
0000
1000
,
0000
1003
0000
0001
0010
0100
1000
0010
,
0001
0010
1000
0100
0010
0001
0100
1000
,
0100
0001
0010
0100
1000
0010
0100
0001
,
1000
0000
0100
0000
0010
0000
0001
0000
0100
0000
0010
0000
1000
0000
0000
0001
,
0000
0000
1001
0000
1002
0000
0000
0000
0103
0000
0000
0000
0020
0000
0000
1000
,
0000
0000
0100
0000
0000
0031
0000
0000
0200
0000
0000
0001
0000
0000
0010
0000
,
0000
1300
0000
0000
0110
0000
0000
1001
0000
0000
1000
0010
0200
0000
0000
1000
,
0000
0000
0010
0000
0000
0301
0000
0000
0020
0000
0000
0001
0000
0000
0100
0000
,
0000
1030
0000
0000
0110
0000
0000
1001
0000
0000
0001
0000
0010
0000
0100
0000
,
1000
0001
0010
0100
1000
1000
0010
0100
,
0001
1000
0010
0100
0001
0001
0100
1000
,
0001
0010
1000
0100
0001
1000
0010
0001
,
0100
0010
1000
0100
0010
0001
1001
1001
,
0000
0000
0000
0000
1000
0000
0000
0000
0100
0000
0000
0000
0001
0000
0000
0000
0100
0000
0000
0000
1000
0000
0000
0000
1002
0000
0000
0010
0000
0000
0013
0000
,
0200
0000
0000
1000
0000
0000
1300
0000
0020
0000
0000
0100
0000
0000
0100
0000
0130
0000
0000
0000
0001
0000
1000
0000
2001
0000
0000
0100
0000
0000
3100
0000
,
0020
0000
0000
0001
0000
0000
0031
0000
0200
0000
0000
0010
0000
0000
0010
0000
0310
0000
0000
0000
0000
0000
1000
0000
1000
0000
0000
0010
0000
0000
0210
0000
,
0000
0000
0301
0000
0000
0000
0001
0000
0001
0000
0000
0100
0000
0000
0120
0000
0000
0000
1030
0000
0000
0000
0010
0000
0100
0000
0000
0002
0000
0000
2000
0000
,
0000
3003
0000
0000
1000
0010
0100
0001
1000
0010
0100
0001
1002
0000
0000
0100
,
0000
0000
0013
0000
0000
0000
0100
0000
1000
0000
0010
0000
0100
0000
0000
0001
,
0000
0000
0101
0000
0000
0000
0001
0000
0010
0000
0100
0000
2001
0000
0000
0100
,
0000
0000
3100
0000
0002
0000
0000
0010
0000
0000
0013
0000
2000
0000
0000
0001
,
0000
3001
0000
1000
0010
0100
0001
0010
,
1000
0010
0001
0100
0010
1000
0100
0001
,
0100
1000
0010
0100
0001
1000
0100
0010
,
0001
0000
0100
0000
0010
0000
1000
0000
0001
0000
0010
0000
0100
0000
0000
1000
,
0000
2002
0000
0000
3003
0000
0001
0010
,
0100
1000
0000
1000
0010
0000
0100
0001
0000
0001
0010
0000
0100
0010
0000
0010
,
0000
0000
0010
0100
0000
0100
0000
0000
0010
0000
0100
0000
1000
0000
0010
0000
,
0100
0001
0000
0001
0010
0000
0100
1000
0000
1000
0010
0000
0100
0000
0001
0010
,
0000
0001
0010
0000
0100
1000
0000
0100
1000
0000
0001
0000
0010
0000
0100
0000
,
1000
0010
0000
0010
0100
0000
0001
0010
0000
0010
0100
0000
0010
0100
0000
0100
,
0000
0000
0100
0010
0000
0010
0000
0000
0100
0000
0010
0000
0001
0000
0100
0000
,
0010
1000
0000
1000
0100
0000
0010
0001
0000
0001
0100
0000
0010
0100
0000
0100
,
0000
0010
0000
1000
0001
1000
2002
0000
,
0000
0000
0000
0000
,
3003
0000
0000
0000
;

//---------------dance-single - ----------------
#NOTES:
     dance-single:
     :
     Medium:
     5:
     0.343,0.458,0.190,0.000,0.004,256.000,22.000,0.000,0.000,0.000,0.000,0.343,0.458,0.190,0.000,0.004,256.000,22.000,0.000,0.000,0.000,0.000:
0000
0000
0000
0000
,
0000
0000
0000
0000
,
0000
0000
0000
0000
,
0000
0000
0000
0000
,
0000
0000
0000
0001
,
0010
0100
1000
0001
,
0001
1000
1000
0010
,
0100
0001
1000
0010
,
0000
1000
0000
0000
0001
0000
0010
0000
,
0100
0010
0001
0100
,
1000
0100
0001
0010
,
0010
0100
0100
1000
,
1000
0001
0001
1000
,
0100
0001
0100
1000
,
0010
0001
0010
1000
,
1000
0010
0010
0100
,
0100
0001
0001
1000
,
0100
0001
0100
1000
,
0100
0001
0100
1000
,
0001
0100
1000
0100
,
0001
0100
1000
0100
,
0001
0010
0100
1000
,
0001
0010
0100
1000
,
0010
0100
0001
1000
,
0010
0000
0100
0000
0001
0000
1001
1001
,
0000
0000
0000
0001
,
1001
1000
1001
0001
,
0011
0011
0000
1000
,
1001
0001
1001
1000
,
1100
1100
0000
0001
,
0100
1000
0100
0001
,
0001
0010
0010
0100
,
0100
1000
0000
0010
,
1000
0100
1000
0010
,
1000
1010
0000
0100
,
0001
0101
0000
0001
,
0010
1000
0010
0001
,
0100
0101
0000
0010
,
1000
0001
0010
1000
,
0010
0001
0100
0010
,
1000
0001
0010
0100
,
1000
0001
0000
0001
,
0010
0100
0010
0001
,
0010
0100
1000
0010
,
0100
0010
1000
0010
,
0100
0010
1000
0001
,
0010
1000
1010
0010
,
0001
0100
0101
0100
,
0110
0010
1010
1000
,
1001
0000
0001
0000
1001
0000
1001
1001
,
0000
0010
0100
1000
,
1000
0000
1000
1000
1000
0000
0001
0000
,
0001
0000
0001
0001
0001
0000
1000
0000
,
0000
0001
0000
1000
,
0000
0000
0001
0010
0100
1000
0001
0000
,
0001
0001
0001
1000
,
1000
1000
1000
0010
,
0100
0001
0010
0100
,
1000
0001
0000
1000
,
0010
0100
0001
1000
,
0010
0100
0001
0010
,
0100
1000
0001
0010
,
0100
1000
0000
0001
,
0001
1000
1000
0010
,
1000
0100
1000
0010
,
0010
0100
0100
0001
,
0010
0100
1000
0001
,
0001
1000
1000
0010
,
0100
0001
0010
0100
,
0100
0000
0000
0000
1000
0000
0000
0000
1000
0000
0000
0000
0010
0000
0000
1000
,
0000
0001
0000
1000
0001
1000
1001
0000
;

//---------------dance-single - ----------------
#NOTES:
     dance-single:
     :
     Easy:
     3:
     0.242,0.275,0.017,0.000,0.000,194.000,2.000,0.000,0.000,0.000,0.000,0.242,0.275,0.017,0.000,0.000,194.000,2.000,0.000,0.000,0.000,0.000:
0000
0000
0000
0000
,
0000
0000
0000
0000
,
0000
0000
0000
0000
,
0000
0000
0000
0000
,
0000
0000
0000
0001
,
0000
0001
0000
1000
,
0000
1000
0000
0001
,
0000
0010
0000
0100
,
0000
1000
0000
0001
,
0000
0001
0000
1000
,
0000
1000
0000
0001
,
0001
0001
0000
1000
,
1000
1000
0000
0001
,
0000
0001
0000
1000
,
0000
1000
0000
0001
,
0000
1000
0000
0001
,
1000
0001
0000
0001
,
0010
0100
1000
0001
,
0010
0100
0100
1000
,
0010
0100
0001
1000
,
0010
0100
0100
0001
,
0000
1000
0000
0001
,
0000
1000
0000
0001
,
0010
0100
1000
0001
,
0010
0100
1000
0001
,
0000
0000
0000
1000
,
0000
0001
0000
1000
,
0001
1000
0000
0001
,
0000
1000
0000
0001
,
1000
0001
0000
1000
,
0000
1000
0000
0001
,
0000
0001
0000
1000
,
0000
0001
0000
1000
,
0001
1000
0001
0001
,
0001
0001
0000
1000
,
1000
1000
0000
0010
,
0010
0100
0100
0001
,
0001
0001
0000
0010
,
0000
0100
0000
1000
,
0000
0010
0000
0100
,
0000
0001
0000
1000
,
0001
1000
0000
0001
,
0001
0001
0001
0001
,
0001
1000
0001
1000
,
1000
1000
1000
1000
,
1000
0001
1000
0001
,
0001
0001
0001
1000
,
1000
1000
1000
0001
,
0010
0100
1000
0001
,
0010
0100
1000
1001
,
0000
0000
0000
0001
,
0000
0001
0000
1000
,
0000
1000
0000
0001
,
0000
1000
0000
0001
,
1000
0001
1000
0001
,
0001
0001
0001
1000
,
1000
1000
1000
0001
,
0010
0100
1000
0001
,
0010
0100
1000
0001
,
0000
1000
0000
0001
,
0000
1000
0000
0001
,
0010
0100
1000
0001
,
0100
0010
1000
0001
,
0000
0001
0000
1000
,
0001
1000
0001
1000
,
0000
1000
0000
0001
,
1000
0001
1000
0001
,
0000
0001
0000
1000
,
0001
1000
0001
1000
,
0000
1000
0000
0001
,
1000
0001
1000
1001
;

//---------------dance-single - ----------------
#NOTES:
     dance-single:
     :
     Beginner:
     1:
     0.143,0.275,0.035,0.000,0.000,112.000,4.000,0.000,0.000,0.000,0.000,0.143,0.275,0.035,0.000,0.000,112.000,4.000,0.000,0.000,0.000,0.000: // measure 0
0000
0000
0000
0000
,  // measure 1
0000
0000
0000
0000
,  // measure 2
0000
0000
0000
0000
,  // measure 3
0000
0000
0000
0000
,  // measure 4
0000
0000
0000
0001
,  // measure 5
0000
0000
0000
0001
,  // measure 6
0000
0001
0000
1000
,  // measure 7
0000
0000
0000
1000
,  // measure 8
0000
1000
0000
1000
,  // measure 9
0000
0001
0000
1000
,  // measure 10
0000
0001
0000
1000
,  // measure 11
0000
1000
0000
0001
,  // measure 12
0000
0001
0000
1000
,  // measure 13
0000
0001
0000
1000
,  // measure 14
0000
1000
0000
0001
,  // measure 15
0000
0001
0000
1000
,  // measure 16
0000
1000
0000
0010
,  // measure 17
0000
0000
0000
0100
,  // measure 18
0000
0000
0000
0001
,  // measure 19
0000
0000
0000
1000
,  // measure 20
0000
0000
0000
0100
,  // measure 21
0000
0000
0000
0010
,  // measure 22
0000
0000
0000
0001
,  // measure 23
0000
1000
0000
0001
,  // measure 24
0000
1000
0000
1001
,  // measure 25
0000
0000
0000
0001
,  // measure 26
0000
0001
0000
0001
,  // measure 27
0000
0001
0000
1000
,  // measure 28
0000
1000
0000
1000
,  // measure 29
0000
1000
0000
0001
,  // measure 30
0000
0000
0000
1000
,  // measure 31
0000
0000
0000
0001
,  // measure 32
0000
0000
0000
1000
,  // measure 33
0000
0001
0000
1000
,  // measure 34
0000
1000
0000
0001
,  // measure 35
0000
0001
0000
0010
,  // measure 36
0000
0100
0000
1000
,  // measure 37
0000
1000
0000
0010
,  // measure 38
0000
0100
0000
0010
,  // measure 39
0000
0100
0000
0010
,  // measure 40
0000
0100
0000
0001
,  // measure 41
0000
0001
0000
1000
,  // measure 42
0000
0000
0000
1000
,  // measure 43
0000
1000
1000
0001
,  // measure 44
0000
0000
0001
0000
,  // measure 45
0000
0001
0001
1000
,  // measure 46
1000
1000
0000
0001
,  // measure 47
0001
0001
0000
1000
,  // measure 48
0001
1000
0001
1000
,  // measure 49
0001
1000
0001
1001
,  // measure 50
0000
0000
0000
0001
,  // measure 51
0000
0001
0000
1000
,  // measure 52
0000
1000
0000
0001
,  // measure 53
0000
0001
0000
1000
,  // measure 54
0000
1000
0000
0001
,  // measure 55
0000
0000
0000
0010
,  // measure 56
0000
0000
0000
0100
,  // measure 57
0000
0000
0000
1000
,  // measure 58
0000
0000
0000
0010
,  // measure 59
0000
0000
0000
0100
,  // measure 60
0000
0000
0000
0001
,  // measure 61
0000
0000
0000
1001
,  // measure 62
0000
0000
0000
0001
,  // measure 63
0000
0000
0000
0001
,  // measure 64
0000
0001
0000
0001
,  // measure 65
0000
0000
0000
1000
,  // measure 66
0000
0000
0000
1000
,  // measure 67
0000
0000
0000
1000
,  // measure 68
0000
1000
0000
1000
,  // measure 69
0000
0000
0000
0001
,  // measure 70
0000
0000
0000
1001
;
