#TITLE:Top The Charts;
#SUBTITLE:;
#ARTIST:J-Mi & Midi-D feat. Hanna Stockzell;
#TITLETRANSLIT:;
#SUBTITLETRANSLIT:;
#ARTISTTRANSLIT:;
#GENRE:;
#CREDIT:;
#BANNER:Top The Charts.png;
#BACKGROUND:Top The Charts-bg.png;
#LYRICSPATH:;
#CDTITLE:;
#MUSIC:Top The Charts.mp3;
#OFFSET:1.456;
#SAMPLESTART:51.023;
#SAMPLELENGTH:12.000;
#LASTBEATHINT:1.216;
#SELECTABLE:YES;
#BPMS:0.000=160.000
;
#STOPS:
;
#BGCHANGES:;
#KEYSOUNDS:;
#ATTACKS:;

//---------------dance-single - ----------------
#NOTES:
     dance-single:
     :
     Medium:
     6:
     0.350,0.353,0.105,0.158,0.000,208.000,10.000,15.000,0.000,0.000,0.000,0.350,0.353,0.105,0.158,0.000,208.000,10.000,15.000,0.000,0.000,0.000:
0000
0000
0000
0000
,
0000
0000
0000
0000
,
0000
0000
0000
0000
,
0000
0000
0000
0000
,
0000
0000
0000
0000
,
0000
0000
0000
0000
,
1000
0000
1000
0000
0010
0100
0001
0000
,
0001
0001
0010
0000
,
0010
0000
0001
0000
0100
0010
1000
0000
,
2002
0000
0000
3003
,
1000
1000
0010
0000
,
0010
0000
0010
0000
0100
0001
0010
0000
,
0001
0001
1000
0000
,
1000
0000
0010
0000
0100
0010
1000
0000
,
1000
1000
0100
0000
,
0010
0000
0001
0000
0001
0010
0100
0000
,
1000
1000
0100
0100
,
0010
0100
0101
0000
,
0010
0010
1000
1000
,
0010
0010
1000
1000
,
0100
0001
0010
0000
0001
0000
0001
0000
,
0001
0100
0010
0000
0010
0000
0010
0000
,
1000
1000
0100
0100
,
1000
1000
0010
0010
,
0100
0001
0010
0000
0001
0000
0001
0000
,
2002
0000
0000
3003
,
1000
1000
0010
0010
,
0100
0001
0010
0010
,
0001
1000
0001
0000
0100
0000
0000
0000
,
0010
0100
0010
0000
0010
0000
0000
0000
,
1000
0100
1000
0010
,
0100
0001
0100
0100
,
0001
0010
0001
1000
,
0220
0000
0000
0330
,
1000
1000
1000
1001
,
0010
0000
1000
0000
0100
0010
0001
0000
,
0100
0100
0010
0000
,
0010
0000
1000
0000
0100
1000
0100
0000
,
0010
0001
0100
0100
,
0001
0000
0010
0000
0001
0100
0010
0000
,
1000
1000
0010
0000
,
0020
0000
0130
0100
,
0010
1000
0000
1000
0000
0000
1001
0000
,
0010
0000
0100
0000
0001
0010
0001
0000
,
0100
0010
0110
1001
,
0010
1000
0100
1000
,
0010
0000
0010
0000
0100
0001
0010
0001
,
0100
0000
0100
0000
0100
0000
0010
1000
,
0100
1000
1000
0010
,
0020
0000
0200
0330
,
0001
1000
0000
1000
0000
1000
0010
0000
,
0101
1000
0010
0000
,
0010
0000
1000
0000
0100
0010
0001
0000
,
0100
0100
0010
0000
,
0010
0000
1000
0000
0100
1000
0100
0000
,
0010
0010
0100
0000
,
0001
0010
0010
0000
,
0001
0100
0010
1000
,
0200
0300
0020
0030
,
0200
0300
0020
0030
,
2002
0000
0000
0000
,
3003
0000
0000
0000
;

//---------------dance-single - ----------------
#NOTES:
     dance-single:
     :
     Beginner:
     2:
     0.162,0.189,0.063,0.011,0.000,101.000,6.000,1.000,0.000,0.000,0.000,0.162,0.189,0.063,0.011,0.000,101.000,6.000,1.000,0.000,0.000,0.000:
0000
0000
0000
0000
,
0000
0000
0000
0000
,
0000
0000
0000
0000
,
0000
0000
0000
0000
,
0000
0000
0000
0000
,
0000
0000
0000
0000
,
1000
0000
0000
0000
,
1000
0000
0000
0000
,
1000
0000
0001
0000
,
1001
0000
0000
0000
,
0100
0000
0010
0000
,
1000
0000
0100
0000
,
1000
0000
0010
0000
,
0100
0000
0001
0000
,
0010
0000
0001
0000
,
0100
0000
0010
0000
,
1000
0000
0100
0000
,
1000
1000
1001
0000
,
0001
0000
0001
0000
,
1000
0000
1000
0000
,
0001
0000
0010
0000
,
0001
0000
0100
0000
,
0010
0000
0010
0000
,
1000
0000
1000
0000
,
0100
0000
1000
0000
,
0010
0000
0000
0000
,
0100
0000
0001
0000
,
0010
0000
0001
0000
,
1000
1000
1000
0000
,
0001
0001
0001
0000
,
0100
0000
0010
0000
,
1000
0000
0100
0000
,
1000
0000
0000
0000
,
0001
0000
0000
0000
,
0200
0000
0000
0300
,
0010
0000
1000
0000
,
0100
0000
0000
0000
,
0010
0000
0001
0000
,
0100
0000
0000
0000
,
0010
0000
1000
0000
,
0100
0000
0000
0000
,
0010
0000
0001
0000
,
0100
0000
0000
0000
,
0010
0000
0010
0000
,
0100
0000
0100
0000
,
0001
0000
1000
0000
,
0001
0000
1000
0000
,
0010
0000
0010
0000
,
1000
0000
1000
0000
,
0100
0000
0100
0000
,
1000
0000
0001
0000
,
1000
0000
1000
0000
,
0001
0000
0001
0000
,
0100
0000
0100
0000
,
0010
0000
0010
0000
,
1000
0000
1001
0000
,
0001
0000
1001
0000
,
0100
0000
0110
0000
,
0010
0000
0100
0000
,
0010
0000
0100
0000
,
1001
0000
0000
0000
;

//---------------dance-single - ----------------
#NOTES:
     dance-single:
     :
     Easy:
     4:
     0.302,0.385,0.179,0.168,0.000,168.000,17.000,16.000,0.000,0.000,0.000,0.302,0.385,0.179,0.168,0.000,168.000,17.000,16.000,0.000,0.000,0.000:
0000
0000
0000
0000
,
0000
0000
0000
0000
,
0000
0000
0000
0000
,
0000
0000
0000
0000
,
0000
0000
0000
0000
,
0000
0000
0000
0000
,
1000
0000
1000
0000
,
0001
0000
0001
0000
,
1000
0000
0001
0000
,
2002
0000
0000
3003
,
0100
0010
1010
0000
,
1000
0100
0011
0000
,
0001
0100
0110
0000
,
0010
1000
0100
0100
,
1000
0010
1001
0000
,
0100
0010
1010
0000
,
1000
0100
0011
0000
,
0001
0100
0220
0330
,
1000
1000
0100
0100
,
1000
1000
0100
0100
,
0010
0001
0100
0000
,
0100
0010
1000
0000
,
1000
1000
0001
0001
,
0100
0010
1000
0100
,
1000
1000
0001
0001
,
2002
0000
0000
3003
,
0100
0010
1000
0000
,
1000
0100
0010
0000
,
0010
0001
0200
0300
,
0010
0001
0200
0300
,
0010
1000
0100
0000
,
0100
1000
0010
0000
,
0100
0100
0010
0010
,
1010
0101
1100
0000
,
0011
0110
1001
1001
,
0010
0010
1000
0100
,
1000
1000
0010
0000
,
0010
0100
0001
0010
,
0001
0001
0100
0000
,
0100
0010
1000
0100
,
1000
1000
0010
0000
,
1000
0001
0100
0010
,
0001
0000
0002
2000
0000
0000
3003
0000
,
1000
1000
0010
0000
,
0010
0010
0100
0000
,
0001
0010
0100
0010
,
0001
0001
1000
0000
,
1000
1000
0010
0000
,
0010
0100
0001
0000
,
1000
1000
0010
0010
,
0100
0000
0100
0000
,
0001
0010
0001
0000
,
0001
1000
0100
0000
,
1000
0010
0100
0100
,
0001
0010
0001
0000
,
0100
0100
0010
0000
,
0010
1000
0100
0000
,
0100
1000
0010
0000
,
0200
0300
0002
0003
,
0020
0030
2000
3000
,
2002
0000
0000
0000
,
3003
0000
0000
0000
;

//---------------dance-single - ----------------
#NOTES:
     dance-single:
     :
     Hard:
     8:
     0.596,0.586,0.378,0.105,0.116,351.000,36.000,10.000,0.000,0.000,0.000,0.596,0.586,0.378,0.105,0.116,351.000,36.000,10.000,0.000,0.000,0.000: // measure 0
0000
0000
0000
0000
,  // measure 1
0000
0000
0000
0000
,  // measure 2
0000
0000
0000
0000
,  // measure 3
0000
0000
0000
0000
,  // measure 4
0000
0000
0000
0000
,  // measure 5
0000
0000
0000
0000
,  // measure 6
1100
0000
2000
0000
0001
0001
3001
0000
,  // measure 7
0110
0000
0020
0000
0100
0100
0130
0000
,  // measure 8
1010
0000
0200
0000
1000
1000
1300
0000
,  // measure 9
2002
0000
3000
0000
0100
0100
0103
0000
,  // measure 10
0110
0000
0000
0010
1000
0000
0100
0000
0010
0000
0000
0000
0110
0000
0000
0000
,  // measure 11
1000
0000
0000
1000
0100
0000
0010
0000
0001
0000
1000
0000
0001
0000
0100
0000
,  // measure 12
0010
0000
0000
1000
0010
0000
0010
0000
0100
0000
0001
0000
0010
0000
0000
0000
,  // measure 13
0100
0000
0000
1000
0100
0000
0010
0000
0001
0000
0001
0000
0110
0000
0000
0000
,  // measure 14
1001
0000
0000
0100
0001
0000
0010
0000
0100
0000
0000
0000
0110
0000
0000
0000
,  // measure 15
0001
0000
0000
0001
0010
0000
0100
0000
1000
0000
0001
0000
1000
0000
0000
0000
,  // measure 16
0100
0000
0000
0001
0100
0000
0100
0000
0010
0000
1000
0000
0100
0000
0000
0000
,  // measure 17
0010
0000
0000
0001
0000
0000
0100
0000
1010
0000
0000
0000
0101
0000
0000
0000
,  // measure 18
0110
0000
0110
0000
1000
0100
1000
0000
,  // measure 19
0001
0010
0001
0000
0100
0010
0100
0000
,  // measure 20
0010
1000
0100
0001
0100
1000
0100
1000
,  // measure 21
0100
0100
1000
0010
0001
0010
1000
0010
,  // measure 22
1100
0000
0011
0000
0100
0010
0100
0000
,  // measure 23
1000
0100
1100
0000
0010
0001
0011
0000
,  // measure 24
0100
0010
1000
0100
0001
0010
1000
0100
,  // measure 25
1000
0000
1000
0100
1000
0000
0001
0100
0001
0000
0100
0000
0110
0000
0000
0000
,  // measure 26
1001
0000
1100
0000
1000
0010
0100
0000
,  // measure 27
0001
0001
0010
0000
1000
1000
0100
0000
,  // measure 28
0010
0001
0100
0001
1000
1000
1000
0000
,  // measure 29
0100
1000
0010
1000
0001
0001
0001
0000
,  // measure 30
1000
0010
1000
0000
0100
0001
0100
0000
,  // measure 31
1000
0010
0100
0000
0100
0010
0001
0000
,  // measure 32
0010
1000
0100
0010
0001
0100
0001
0000
,  // measure 33
0011
1100
2002
3003
,  // measure 34
0100
0000
0010
0000
1000
0100
0011
0000
,  // measure 35
0001
1000
0100
0010
0100
0010
0001
0100
,  // measure 36
0010
1000
0100
0001
0100
1000
0110
0000
,  // measure 37
1000
1000
1000
0000
0001
0001
0001
0000
,  // measure 38
1000
0000
0010
0000
0100
0000
0001
0000
1010
0000
0000
0001
0100
0000
0100
0000
,  // measure 39
0010
1000
0100
0010
0001
0100
1000
0100
,  // measure 40
0001
0010
0100
0010
0001
0000
1000
1000
,  // measure 41
1000
0100
1000
0000
0001
0010
0001
0000
,  // measure 42
0100
0010
0000
1000
0000
0010
0110
0000
,  // measure 43
1000
0010
0100
0010
1000
0100
0001
0100
,  // measure 44
0010
0001
0100
1000
0100
0001
0010
0010
,  // measure 45
0001
0100
1000
0100
0001
0010
0001
0010
,  // measure 46
1000
0010
0001
0100
0001
0001
1000
1000
,  // measure 47
0010
0010
0100
0000
0100
0100
0010
1000
,  // measure 48
0100
0010
0001
0100
0010
0010
0100
0001
,  // measure 49
1000
1000
0010
0010
0000
0100
0100
0000
,  // measure 50
0002
1000
0000
1000
0000
1000
0003
0000
,  // measure 51
0110
0000
0000
0010
1000
0000
0100
0000
0010
0000
0000
0000
0110
0000
0000
0000
,  // measure 52
1000
0000
0000
1000
0100
0000
0010
0000
0001
0000
1000
0000
0001
0000
0100
0000
,  // measure 53
0010
0000
0000
1000
0010
0000
0010
0000
0100
0000
0001
0000
0010
0000
0000
0000
,  // measure 54
0100
0000
0000
1000
0100
0000
0010
0000
0001
0000
0000
0001
0100
0000
0100
0000
,  // measure 55
1001
0000
0000
0100
0001
0000
0010
0000
0100
0000
0000
0000
0110
0000
0000
0000
,  // measure 56
0001
0000
0000
0001
0010
0000
0100
0000
1000
0000
0001
0000
1000
0000
0000
0000
,  // measure 57
0001
0000
0000
0001
0100
0000
0100
0000
0010
0000
1000
0000
0100
0000
0000
0000
,  // measure 58
0010
0000
0000
0001
0000
0000
0101
0000
1000
0000
0000
0010
0000
0000
0011
0000
,  // measure 59
0100
0000
0000
1000
0000
0000
1010
0000
0011
0000
0000
0000
0000
0000
0000
0000
,  // measure 60
2002
0000
0000
0000
,  // measure 61
0000
0000
0000
0000
,  // measure 62
3003
0000
0000
0000
;
