#TITLE:Todestrieb;
#SUBTITLE:;
#ARTIST:Rche;
#TITLETRANSLIT:;
#SUBTITLETRANSLIT:;
#ARTISTTRANSLIT:;
#CREDIT:;
#BANNER:bn.png;
#BACKGROUND:bg.png;
#JACKET:jk.png;
#LYRICSPATH:;
#CDTITLE:cdtitle.png;
#MUSIC:24 Todestrieb.mp3;
#OFFSET:-2.981;
#SAMPLESTART:41.900;
#SAMPLELENGTH:12.000;
#SELECTABLE:YES;
#BPMS:0.000=185.000;
#STOPS:;
#BGCHANGES:;

//---------------dance-single - ----------------
#NOTES:
     dance-single:
     :
     Hard:
     9:
     0.564,0.687,0.400,0.185,0.439:
0000
0000
0000
0000
,
0000
0000
0000
0000
,
0000
0000
0000
0000
,
0000
0000
0000
0000
,
0000
0000
0000
0000
,
0000
0000
0000
0000
,
0001
0100
0000
0001
1000
0000
0001
0010
,
0000
0001
1000
0000
0001
0100
0010
1000
,
0000
0000
0000
1000
0010
0000
1000
0001
,
0000
1000
0100
0000
1000
0010
0100
0010
,
1010
0000
0000
0010
1000
0000
0010
0100
,
0000
0010
0001
0000
0010
0100
0001
1000
,
0000
0000
0000
0100
0010
0000
0010
0001
,
0000
0001
0010
0000
0010
0100
1000
0010
,
0100
0001
0010
0100
0010
0001
0100
1000
,
0100
0010
1000
0001
0010
0000
0110
0000
,
0100
0010
0001
0100
1000
0100
0010
1000
,
0010
0100
0001
0010
0100
0000
1100
0000
,
0100
0010
0010
0100
1000
1000
0010
0100
,
0100
0001
0010
0010
0100
0000
1100
0000
,
0100
0010
0010
0100
1000
1000
0010
0100
,
0100
0001
0010
0010
0001
0100
1000
0100
,
0020
0000
0000
0000
,
0230
0000
0000
0000
,
0302
0000
0000
0000
,
2003
0000
0100
0000
,
3200
0000
0000
0000
,
2300
0000
0000
0000
,
3020
0000
0000
0000
,
0130
0000
0000
0000
0000
0001
1000
0001
,
1000
0000
0100
0000
0000
0010
0000
0000
0001
0010
0000
0100
0000
0000
0100
0000
,
0000
0000
0010
0000
0000
0001
0000
0000
0100
0001
0000
0100
0000
0000
0010
0000
,
0000
0000
0100
0000
0000
0010
0000
0000
1000
0010
0000
1000
0000
0000
0100
0000
,
0000
0000
1000
0000
0000
0100
0000
0000
0010
0001
0000
0010
0000
0000
0100
0000
,
0000
0000
0010
0000
0000
0001
0000
0000
0100
0010
0000
1000
0000
0000
0010
0000
,
0000
0000
0100
0000
0000
0001
0000
0000
1000
0001
0000
1000
0000
0000
0100
0000
,
0000
0000
1000
0000
0000
0010
0000
0000
0100
0001
0000
0010
0000
0000
0100
0000
,
0000
0000
0010
0000
0000
0100
0000
0000
1000
0010
0000
0100
0000
0000
0001
0000
,
1001
0000
0000
0000
1001
0000
0000
0000
0001
0100
0000
0010
0000
0000
0100
0000
,
0110
0000
0000
0000
0110
0000
0000
0000
0010
1000
0000
0100
0000
0000
0010
0000
,
0110
0000
0000
0000
0110
0000
0000
0000
0010
0001
0000
0010
0000
0000
0001
0000
,
0101
0000
0000
0000
0101
0000
0000
0000
0001
0100
0000
0010
0000
0000
1000
0000
,
1010
0000
0000
0000
1100
0000
0000
0000
0100
0010
0000
0001
0000
0000
0010
0000
,
0110
0000
0000
0000
1100
0000
0000
0000
1000
0001
0000
0100
0000
0000
0001
0000
,
0011
0000
0000
0000
1010
0000
0000
0000
0010
0100
0000
0001
0000
0000
1000
0000
,
1100
0000
0000
0000
0011
0000
0000
0000
0001
0010
0000
0100
0000
0000
1000
0000
,
0002
0000
0000
0000
,
0000
0000
0000
0000
,
2003
0000
3200
0000
,
2300
0000
0000
0000
,
0000
0000
0000
0000
,
3020
0000
0230
0000
,
0302
0000
2003
0000
,
0200
0000
0000
0000
,
3300
0000
0000
0000
0000
0000
1000
0000
0100
0000
0010
0000
0001
0000
0000
0010
0000
0000
0000
0000
0000
0000
0000
0000
,
0000
0000
0000
0000
0000
0000
0001
0000
0010
0000
0100
0000
1000
0000
0000
0100
0000
0000
0000
0000
0000
0000
0000
0000
,
0000
0000
0000
0000
0000
0000
1000
0000
0100
0000
0010
0000
0001
0000
0000
0010
0000
0000
0000
0000
0000
0000
0000
0000
,
0000
0000
0000
0000
0000
0000
0001
0000
0010
0000
0100
0000
1000
0000
0000
0100
0000
0000
0000
0000
0000
0000
0000
0000
,
0000
0000
0000
0000
0000
0000
1000
0000
0010
0000
0100
0000
0001
0000
0000
0100
0000
0000
0000
0000
0000
0000
0000
0000
,
0000
0000
0000
0000
0000
0000
0010
0000
0100
0000
0001
0000
1000
0000
0000
0100
0000
0000
0000
0000
0000
0000
0000
0000
,
0000
0000
0000
0000
0000
0000
0010
0000
0001
0000
0010
0000
0100
0000
0000
1000
0000
0000
0000
0000
0000
0000
0000
0000
,
0000
0000
0000
0000
0000
0000
0010
0000
0100
0000
1000
0000
0001
0000
0000
0100
0000
0000
0000
0000
0000
0000
0000
0000
,
0010
1000
1010
0000
0011
0000
1010
0000
,
1000
0100
1100
0000
0101
0000
1100
0000
,
1000
0100
0110
0000
1001
0000
0110
0000
,
0100
0001
0101
0000
1010
0000
1001
0000
,
0001
0100
0101
0000
1100
0000
0101
0000
,
0001
0010
0011
0000
1010
0000
0011
0000
,
0001
0010
0110
0000
1001
0000
0110
0000
,
0100
0010
1010
0000
0011
0000
1001
0000
,
0011
0000
0000
0001
0010
0000
0000
0010
0100
0000
0000
0100
1000
0000
0000
0000
,
1001
0000
0000
1000
0100
0000
0000
0100
0010
0000
0000
0010
0001
0000
0000
0000
,
1001
0000
0000
0001
0100
0000
0000
0100
0010
0000
0000
0010
1000
0000
0000
0000
,
1001
0000
0000
1000
0100
0000
0000
0010
0001
0000
0000
0001
0100
0000
0000
0000
,
0001
0000
0100
0000
0110
0000
0000
0100
0010
0000
0000
0010
1000
0000
0000
0000
,
1000
0000
0010
0000
0110
0000
0000
0100
0001
0000
0000
0001
1000
0000
0000
0000
,
1000
0000
0100
0000
0110
0000
0000
0010
0001
0000
0000
0001
0100
0000
0000
0000
,
0100
0000
0010
0000
1010
0000
0000
1000
0010
0000
0000
0010
0100
0000
0000
0100
,
0001
0000
0001
0100
0000
0100
0010
0000
0100
0000
0010
1000
0000
0000
0100
0000
,
0100
0000
0010
0000
0010
0001
0000
0010
0100
0010
0000
0100
0000
0000
1000
0000
,
0000
0000
1000
0000
0001
0100
0000
0100
0010
1000
0000
0010
0000
0100
0001
0000
,
0000
0000
0001
0000
1000
0100
0000
0100
0010
0001
0000
0010
0000
0010
0100
0000
,
0000
0000
0010
0000
0001
0010
0000
0010
0100
1000
0000
0010
0000
0100
0001
0000
,
0000
0000
0001
0000
1000
0100
0000
1000
0010
0100
0000
0010
0000
0100
0001
0000
,
0000
0000
0010
0000
0100
1000
0000
1000
0100
1000
0000
0100
0000
0010
0001
0000
,
0000
0000
0001
0000
0100
0001
0000
0001
0100
0010
0000
0100
0000
0001
1000
0000
,
0200
0000
0000
0000
,
2300
0000
0000
0000
,
3002
0000
0000
0000
,
2003
0000
0000
0000
,
3200
0000
0000
0000
,
2300
0000
0000
0000
,
3020
0000
0000
0000
,
0230
0000
0000
0000
,
0310
0000
0000
0000
;

//---------------dance-single - ----------------
#NOTES:
     dance-single:
     :
     Medium:
     7:
     0.415,0.543,0.431,0.177,0.185:
0000
0000
0000
0000
,
0000
0000
0000
0000
,
0000
0000
0000
0000
,
0000
0000
0000
0000
,
0000
0000
0000
0000
,
0000
0000
0000
0000
,
1001
0000
0000
0001
0000
0000
0100
0000
,
0000
0001
0000
0000
0010
0100
0010
0100
,
1000
0000
0000
0001
0000
0000
0100
0000
,
0000
0001
0000
0000
1000
0100
1000
0100
,
0010
0000
0000
0100
0000
0000
1000
0000
,
0000
0010
0000
0000
0100
0001
0100
0001
,
0010
0000
0000
0100
0000
0000
0010
0000
,
0000
0001
0000
0000
1000
0010
1000
0010
,
0100
0010
1000
0001
,
0010
0001
0011
1100
,
0001
0001
1000
1000
,
0010
0100
0101
1010
,
1001
0001
1000
0100
,
0001
0100
0110
1100
,
0100
1000
0010
0100
,
0001
0100
0001
0000
0001
0100
1000
0100
,
0020
0000
0000
0000
,
2030
0000
0000
0000
,
3002
0000
0000
0000
,
0023
0000
0230
0000
,
2300
0000
0000
0000
,
3200
0000
0000
0000
,
2300
0000
0000
0000
,
3001
0000
0000
0000
,
0001
0000
0100
0000
0000
0001
0000
0000
0100
0000
0000
0010
0000
0000
1000
0000
,
0000
0000
0100
0000
0000
0010
0000
0000
0100
0000
0000
1000
0000
0000
0001
0000
,
0000
0000
0100
0000
0000
0001
0000
0000
0100
0000
0000
0010
0000
0000
1000
0000
,
0000
0000
0001
0000
0000
0010
0000
0000
0100
0000
0000
0010
0000
0000
0001
0000
,
0000
0000
1000
0000
0000
0001
0000
0000
0100
0000
0000
0001
0000
0000
1000
0000
,
0000
0000
0100
0000
0000
0010
0000
0000
0001
0000
0000
0010
0000
0000
0100
0000
,
0000
0000
0010
0000
0000
0001
0000
0000
0100
0000
0000
0010
0000
0000
1000
0000
,
0000
0000
0001
0000
0000
0100
0000
0000
0001
0000
0000
1000
0000
0000
0100
0000
,
0100
0000
1000
0000
0000
0100
0000
0000
1000
0000
0000
0001
0000
0000
0010
0000
,
0000
0000
0001
0000
0000
0001
0000
0000
1000
0000
0000
0010
0000
0000
0100
0000
,
0000
0000
0010
0000
0000
0100
0000
0000
0001
0000
0000
1000
0000
0000
0010
0000
,
0000
0000
0100
0000
0000
0001
0000
0000
1000
0000
0000
0001
0000
0000
0100
0000
,
0000
0000
0010
0000
0000
0100
0000
0000
1000
0000
0000
0100
0000
0000
0010
0000
,
0000
0000
1000
0000
0000
0001
0000
0000
0100
0000
0000
0001
0000
0000
1000
0000
,
0000
0000
0001
0000
0000
0100
0000
0000
1000
0000
0000
0100
0000
0000
0010
0000
,
0000
0000
0010
0000
0000
1000
0000
0000
0001
0000
0000
0010
0000
0000
0100
0000
,
2000
0000
0000
3000
,
0002
0000
0000
0003
,
0200
0000
0000
0300
,
0002
0000
0000
0003
,
2000
0000
0000
3000
,
0200
0000
1000
0000
,
1000
0000
1000
0000
,
2000
0000
0000
0000
,
3300
1000
0100
0001
,
0000
0001
0100
1000
,
0000
1000
0010
0001
,
0000
0001
0010
1000
,
0000
1000
0010
0100
,
0000
0100
1000
0001
,
0000
0001
0100
0010
,
0000
0010
1000
0001
,
0000
1001
1001
1001
,
0000
0101
1010
0101
,
0000
1100
0011
1100
,
0000
1001
0101
1001
,
0000
1010
0011
1010
,
0000
1100
0101
1100
,
0000
1001
1001
0101
,
0000
0101
1010
1001
,
0001
0101
1010
0101
,
0001
0011
0110
1100
,
0100
1100
0110
0011
,
0001
1001
0101
1001
,
0001
0101
0110
1010
,
1000
1100
0110
0011
,
0001
0101
1001
1100
,
0100
1100
0110
0011
,
0010
0000
0100
0000
0000
1000
0000
0000
0010
0000
0000
0100
0000
0000
0001
0000
,
0000
0000
0010
0000
0000
0100
0000
0000
0010
0000
0000
0001
0000
0000
1000
0000
,
0000
0000
0010
0000
0000
1000
0000
0000
0010
0000
0000
0100
0000
0000
0001
0000
,
0000
0000
1000
0000
0000
0100
0000
0000
0010
0000
0000
0100
0000
0000
1000
0000
,
0000
0000
0001
0000
0000
1000
0000
0000
0010
0000
0000
1000
0000
0000
0001
0000
,
0000
0000
0010
0000
0000
0100
0000
0000
1000
0000
0000
0100
0000
0000
0010
0000
,
0000
0000
0100
0000
0000
1000
0000
0000
0010
0000
0000
0100
0000
0000
0001
0000
,
0000
0000
1000
0000
0000
0010
0000
0000
1000
0000
0000
0001
0000
0000
0010
0000
,
0200
0000
0000
0000
,
2300
0000
0000
0000
,
3020
0000
0000
0000
,
0230
0000
0000
0000
,
0302
0000
0000
0000
,
2003
0000
0000
0000
,
3020
0000
0000
0000
,
0230
0000
0000
0000
,
0301
0000
0000
0000
;

//---------------dance-single - ----------------
#NOTES:
     dance-single:
     :
     Easy:
     4:
     0.296,0.506,0.200,0.123,0.000:
0000
0000
0000
0000
,
0000
0000
0000
0000
,
0000
0000
0000
0000
,
0000
0000
0000
0000
,
0000
0000
0000
0000
,
0000
0000
0000
0000
,
1001
0000
0000
0001
,
0000
0000
0100
0001
,
0100
0000
0000
0010
,
0000
0000
1000
0010
,
0110
0000
0000
0100
,
0000
0000
0010
1000
,
0001
0000
0000
1000
,
0000
0000
0100
1000
,
1010
0010
0100
0001
,
0010
0100
0010
0010
,
0100
1000
0100
0010
,
0100
1000
0001
0001
,
0101
0001
0100
1000
,
0100
0010
1000
1000
,
0010
0100
0001
1000
,
1100
1100
0101
0011
,
1001
0000
0000
0000
,
0100
0000
0000
0000
,
0001
0000
0000
0000
,
1000
0000
0100
0000
,
0010
0000
0000
0000
,
0100
0000
0000
0000
,
1000
0000
0000
0000
,
1001
0000
0000
0000
,
0001
0100
0010
0100
,
0001
1000
0100
0001
,
0100
0010
0010
0100
,
1000
0010
0100
0100
,
0001
1000
0100
0010
,
0100
1000
0010
0100
,
0001
0010
0001
1000
,
0100
0001
0100
0010
,
0001
0010
0100
0100
,
1000
0010
0100
0100
,
0010
1000
0001
0001
,
1000
0100
0010
0010
,
0100
1000
0010
0010
,
0100
0001
1000
1000
,
0001
0100
0001
0100
,
0010
1000
0010
1000
,
0200
0000
0000
0000
,
0000
0000
0000
0000
,
0000
0000
2300
0000
,
0002
0000
0000
0000
,
0000
0000
0000
3003
,
0200
0000
0302
0000
,
2003
0000
3200
0000
,
2000
0000
0000
0000
,
3300
0100
0000
0000
,
0000
1000
0000
0000
,
0000
0010
0000
0000
,
0000
0100
0000
0000
,
0000
0001
0000
0000
,
0000
1000
0000
0000
,
0000
0100
0000
0000
,
0000
0100
0000
0000
,
1000
1000
0010
1010
,
0000
0010
0100
0110
,
0000
0100
0001
0101
,
0000
0001
1000
1001
,
0000
0001
0100
0101
,
0000
0001
0010
0011
,
0000
0010
0100
0110
,
0000
0100
1000
1100
,
0000
1000
0001
0101
,
0000
0001
1000
1100
,
0000
1000
0001
0101
,
0000
0001
1000
1001
,
0000
1000
0010
1010
,
0000
1000
0001
0011
,
0000
0001
0010
0011
,
0000
0001
1000
1010
,
0010
0100
0001
0001
,
0100
0010
1000
1000
,
0010
0100
0001
0001
,
0100
0010
1000
0100
,
0010
0100
1000
1000
,
0100
1000
0001
0001
,
0100
0010
1000
1000
,
0010
0100
0001
0001
,
2000
0000
0000
0000
,
3200
0000
0000
0000
,
0320
0000
0000
0000
,
0032
0000
0000
0000
,
2003
0000
0000
0000
,
3200
0000
0000
0000
,
0320
0000
0000
0000
,
0032
0000
0000
0000
,
1003
0000
0000
0000
;

//---------------dance-single - ----------------
#NOTES:
     dance-single:
     :
     Beginner:
     2:
     0.167,0.253,0.054,0.000,0.000: // measure 1
0000
0000
0000
0000
,  // measure 2
0000
0000
0000
0000
,  // measure 3
0000
0000
0000
0000
,  // measure 4
0000
0000
0000
0000
,  // measure 5
0000
0000
0000
0000
,  // measure 6
0000
0000
0000
0000
,  // measure 7
1001
0000
0000
0001
,  // measure 8
0000
0000
0100
0100
,  // measure 9
0001
0000
0000
0100
,  // measure 10
0000
0000
0010
0010
,  // measure 11
0110
0000
0000
0100
,  // measure 12
0000
0000
0010
0010
,  // measure 13
1000
0000
0000
0100
,  // measure 14
0000
0000
1000
1000
,  // measure 15
1001
0000
0000
0001
,  // measure 16
0000
0000
0100
0001
,  // measure 17
0100
0000
0000
0010
,  // measure 18
0000
0000
0100
0100
,  // measure 19
0110
0000
0000
0010
,  // measure 20
0000
0000
1000
1000
,  // measure 21
0100
0000
0000
0000
,  // measure 22
1000
0000
0001
0000
,  // measure 23
0100
0000
0000
0000
,  // measure 24
0001
0000
0000
0000
,  // measure 25
1000
0000
0000
0000
,  // measure 26
0100
0000
1000
0000
,  // measure 27
0100
0000
0000
0000
,  // measure 28
1000
0000
0000
0000
,  // measure 29
0010
0000
0000
0000
,  // measure 30
0110
0000
0000
0000
,  // measure 31
1001
0000
0000
0000
,  // measure 32
0001
0000
0000
0000
,  // measure 33
0100
0000
0000
0000
,  // measure 34
0001
0000
1000
0000
,  // measure 35
0100
0000
0000
0000
,  // measure 36
1000
0000
0000
0000
,  // measure 37
0010
0000
0000
0000
,  // measure 38
0100
0000
0001
0000
,  // measure 39
0010
0000
0000
0000
,  // measure 40
0100
0000
0000
0000
,  // measure 41
0001
0000
0000
0000
,  // measure 42
1000
0000
0100
0000
,  // measure 43
1000
0000
0000
0000
,  // measure 44
0010
0000
0000
0000
,  // measure 45
0100
0000
0000
0000
,  // measure 46
0001
0000
1000
0000
,  // measure 47
0010
0000
0000
0000
,  // measure 48
0000
0000
0100
0000
,  // measure 49
0001
0000
0001
0000
,  // measure 50
0001
0000
0000
0000
,  // measure 51
0000
0000
0000
0000
,  // measure 52
0001
0000
0010
0000
,  // measure 53
0100
0000
1000
0000
,  // measure 54
0001
0000
0000
0000
,  // measure 55
0000
1000
0000
0000
,  // measure 56
0000
0001
0000
0000
,  // measure 57
0000
1000
0000
0000
,  // measure 58
0000
0100
0000
0000
,  // measure 59
0000
1000
0000
0000
,  // measure 60
0000
0010
0000
0000
,  // measure 61
0000
0010
0000
0000
,  // measure 62
0000
0100
0000
0000
,  // measure 63
0000
0001
0001
0001
,  // measure 64
0000
0100
0100
0100
,  // measure 65
0000
0010
0010
0010
,  // measure 66
0000
1000
1000
1000
,  // measure 67
0000
0001
0001
0001
,  // measure 68
0000
1000
1000
1000
,  // measure 69
0000
0010
0010
0010
,  // measure 70
0000
0100
0100
0100
,  // measure 71
0000
0010
0010
0010
,  // measure 72
0000
0100
0100
0100
,  // measure 73
0000
0001
0001
0001
,  // measure 74
0000
1000
1000
1000
,  // measure 75
0000
0100
0100
0100
,  // measure 76
0000
1000
1000
1000
,  // measure 77
0000
0001
0001
0001
,  // measure 78
0000
0100
0100
0100
,  // measure 79
0010
0000
0000
0000
,  // measure 80
0100
0000
0000
0000
,  // measure 81
0001
0000
0000
0000
,  // measure 82
1000
0000
0010
0000
,  // measure 83
0100
0000
0000
0000
,  // measure 84
0001
0000
0000
0000
,  // measure 85
1000
0000
0000
0000
,  // measure 86
0100
0000
0010
0000
,  // measure 87
0001
0000
0000
0000
,  // measure 88
0010
0000
0000
0000
,  // measure 89
0001
0000
0000
0000
,  // measure 90
0100
0000
0000
0000
,  // measure 91
0001
0000
0000
0000
,  // measure 92
0010
0000
0000
0000
,  // measure 93
0100
0000
0000
0000
,  // measure 94
1000
0000
0000
0000
,  // measure 95
1001
0000
0000
0000
;
