#TITLE:空色デイズ;
#SUBTITLE:(Tengen Toppa Gurren Lagann OP1);
#ARTIST:Nakagawa Shoko;
#TITLETRANSLIT:Sorairo Days;
#SUBTITLETRANSLIT:;
#ARTISTTRANSLIT:;
#GENRE:;
#CREDIT:;
#BANNER:sorairo.png;
#BACKGROUND:sorairo-bg.png;
#LYRICSPATH:;
#CDTITLE:;
#MUSIC:sorairo.ogg;
#OFFSET:0.160;
#SAMPLESTART:34.323;
#SAMPLELENGTH:12.000;
#SELECTABLE:YES;
#BPMS:0.000=174.000;
#STOPS:;
#BGCHANGES:;
#KEYSOUNDS:;

//---------------dance-single - TaroNuke----------------
#NOTES:
     dance-single:
     TaroNuke:
     Hard:
     8:
     0.636,0.617,0.340,0.454,0.062:
0000
0000
0000
0000
,
0000
0000
0000
0000
,
0000
0000
0000
0000
,
0000
0000
2000
3002
,
1003
0010
0010
0100
0100
0001
0000
0010
,
0010
0100
0100
0000
1000
1000
0001
0001
,
0000
0100
0100
0010
0010
1000
0000
0001
,
0001
0010
0010
0000
0200
2300
3001
0000
,
0100
0100
0100
0100
0100
0001
0000
1000
,
0100
0100
0100
0020
0000
0000
0000
0000
,
0000
0000
0000
0031
,
2000
0000
0000
3001
1000
0000
0000
1010
,
0000
0101
0000
0001
2000
0000
3100
0000
,
0002
0000
0000
1003
0001
0000
0010
0100
,
0000
1000
0010
0000
0110
0000
1001
0000
,
1200
0000
0000
1300
0100
0000
0000
0011
,
0000
1100
0000
1000
0002
0000
1003
0001
,
1001
0000
0001
0101
0000
0100
0120
0000
,
0000
0000
0000
0000
0000
0000
0000
0000
1030
0000
0001
0000
1000
0010
1000
0010
,
1000
0000
0000
0000
0001
0000
0000
1000
0010
0000
0100
0000
0010
0000
0110
0000
,
0000
0000
1001
0000
0000
0000
1000
0000
0100
0000
0010
0000
0001
0010
0001
0010
,
0001
0000
0000
0000
1000
0000
0000
0001
0010
0000
0100
0000
0010
0000
0110
0000
,
0000
1000
0001
0100
0001
0010
0100
1000
,
0001
0000
0000
0000
0100
0000
0000
0010
1000
0000
0100
0000
0010
0000
0011
0000
,
0000
0000
0110
0000
0000
0000
1000
0000
0001
0000
0100
0000
0010
1000
0010
0000
,
1010
0000
0000
1001
0000
0100
0010
0012
,
0000
0000
1003
0000
1000
0001
0100
0010
,
1000
0100
1000
0001
1000
0100
1000
0001
,
0010
0100
1000
0001
0200
0000
0301
0000
,
1000
0001
0100
0001
0010
0100
0000
0110
,
0000
2002
0000
0000
3003
0000
0000
0001
,
0001
0100
0001
1000
0001
0100
0001
1000
,
0010
0100
0001
1000
0200
0000
1300
0001
,
2000
0000
0000
0010
0020
0000
0000
0000
,
0000
0030
3002
0203
,
0301
1000
0010
1000
0100
0010
0001
0100
,
0001
1000
0010
1000
0100
0010
0001
0100
,
0002
0000
0013
0011
0000
0110
0000
1100
,
0000
0001
0010
0001
0100
0010
2000
0000
,
3010
1000
0010
1000
0100
0010
0100
0010
,
0001
0100
0001
0100
0010
1000
0020
0000
,
2030
0000
0000
3200
0000
0302
0000
0023
,
0000
0000
0000
0000
1030
0010
1000
0010
,
1000
0001
0010
0001
0100
0010
1000
0100
,
1000
0001
0010
0001
0100
0010
1000
0100
,
2000
0000
3010
1010
0000
0110
0000
0101
,
0000
1000
0010
1000
0100
0010
0002
0000
,
0013
0001
0010
0001
0100
0010
0100
0010
,
1000
0100
1000
0100
0010
0001
0020
0000
,
0032
0000
0000
0203
0000
2300
0000
3020
,
0000
0000
0000
0000
0000
0000
0000
0000
0031
0000
1000
0010
1000
0010
1000
0010
,
0200
0000
0000
0000
,
0000
0000
0000
0310
,
1010
1000
0100
0110
0000
0011
0000
2001
,
0000
0000
3020
0000
,
1030
0010
0010
0100
0100
0001
0000
0010
,
0010
0100
0100
0000
1000
1000
0001
0001
,
0000
0100
0100
0010
0010
1000
0000
0001
,
0001
0010
0010
0000
0200
2300
3001
0000
,
0100
0100
0100
0100
0100
0001
0000
1000
,
0100
0100
0100
0020
0000
0000
0000
0000
,
0000
0000
0000
0000
,
0000
0000
0000
0000
,
0000
0000
0000
0000
,
0030
0000
0000
0000
;

//---------------dance-single - TaroNuke----------------
#NOTES:
     dance-single:
     TaroNuke:
     Beginner:
     2:
     0.146,0.171,0.045,0.091,0.000:
0000
0000
0000
0000
,
0000
0000
0000
0000
,
0000
0000
0000
0000
,
0000
0000
0000
0000
,
1000
0000
1000
0000
,
0001
0000
0000
0000
,
0001
0000
0001
0000
,
0100
0000
0000
0000
,
0010
0000
0010
0000
,
0010
0000
0000
1001
0000
0000
0000
0000
,
0000
0000
0000
0000
,
1000
0000
0000
0000
,
1000
0000
0000
0000
,
0100
0000
0000
0000
,
0100
0000
0000
0000
,
0001
0000
0000
0000
,
0001
0000
0000
0000
,
0010
0000
0000
0010
0000
0000
0010
0000
,
0000
0000
0000
0000
,
1000
0000
0100
0000
,
1000
0000
0000
0000
,
0001
0000
0100
0000
,
0001
0000
0000
0000
,
0010
0000
0100
0000
,
0010
0000
0000
0000
,
0001
0000
0000
0001
0000
0000
0000
0001
,
0000
0000
0000
0000
,
1000
0000
0100
0000
,
0010
0000
0001
0000
,
1000
0000
0010
0000
,
0100
0000
0000
0000
,
0001
0000
0010
0000
,
0100
0000
1000
0000
,
0010
0000
0010
0000
,
0010
0000
1001
0000
,
2000
0000
0000
0000
,
3010
0000
0000
0000
,
0002
0000
0000
0000
,
0013
0000
0000
0000
,
0020
0000
0000
0000
,
0031
0000
0000
0000
,
0200
0000
0000
0000
,
1300
0000
0000
0000
,
2000
0000
0000
0000
,
3100
0000
0000
0000
,
0200
0000
0000
0000
,
0301
0000
0000
0000
,
0002
0000
0000
0000
,
0013
0000
0000
0000
,
0020
0000
0000
0000
,
1030
0000
0000
0000
,
1000
0000
0100
0000
,
0001
0000
0000
0000
,
1000
0000
0100
0000
,
0001
0000
0000
0000
,
1001
0000
1000
0000
,
0001
0000
0000
0000
,
0001
0000
0001
0000
,
0100
0000
0000
0000
,
0010
0000
0010
0000
,
0010
0000
0000
1001
0000
0000
0000
0000
;

//---------------dance-single - TaroNuke----------------
#NOTES:
     dance-single:
     TaroNuke:
     Easy:
     4:
     0.253,0.308,0.204,0.011,0.000:
0000
0000
0000
0000
,
0000
0000
0000
0000
,
0000
0000
0000
0000
,
0000
0000
0000
0000
,
1000
1000
0001
0001
,
1000
0001
1000
0001
,
0100
0100
0010
0010
,
0100
0010
0100
0010
,
1000
1000
1000
0000
,
1001
0000
0000
0110
0000
0000
0000
0000
,
0000
0000
0000
0000
,
0001
0000
0001
0000
,
0100
0000
0100
0000
,
0010
0000
0010
0000
,
1000
0100
1000
0000
,
0001
0000
0001
0000
,
0010
0000
0010
0000
,
1001
0000
0000
1001
0000
0000
1001
0000
,
0000
0000
0000
0000
,
1000
0000
1000
0000
,
0100
0000
0100
0000
,
0010
0000
0010
0000
,
0001
0010
0001
0000
,
1000
0000
1000
0000
,
0010
0000
0010
0000
,
0110
0000
0000
0110
0000
0000
0000
0110
,
0000
0000
0000
0000
,
1001
0000
0110
0000
,
1001
0000
0000
0000
,
1000
0000
0100
0000
,
0001
0000
0010
0000
,
1000
0000
0110
0000
,
1001
0000
0000
0000
,
0020
0000
0000
0000
,
0000
0000
0130
0000
,
1000
0100
1000
0100
,
0010
0000
0000
0000
,
0001
0100
0001
0100
,
0010
0000
0000
0000
,
1000
0010
1000
0010
,
0001
0000
0000
0000
,
1000
0100
1000
0100
,
0001
0000
0000
0000
,
1000
0100
1000
0100
,
0001
0000
0000
0000
,
0100
0001
0100
0001
,
0010
0000
0000
0000
,
0001
0010
0001
0010
,
1000
0000
0000
0000
,
0010
1000
0010
1000
,
0001
0000
0000
0000
,
1000
0010
0100
0001
,
1000
0000
0000
0000
,
0001
0010
0100
1000
,
1001
0000
0110
0000
,
1001
1000
0001
0001
,
1000
0001
1000
0001
,
0100
0100
0010
0010
,
0100
0010
0100
0010
,
1000
1000
1000
0000
,
1001
0000
0000
0110
0000
0000
0000
0000
;

//---------------dance-single - TaroNuke----------------
#NOTES:
     dance-single:
     TaroNuke:
     Medium:
     6:
     0.426,0.472,0.113,0.136,0.000:
0000
0000
0000
0000
,
0000
0000
0000
0000
,
0000
0000
0000
0000
,
0000
0000
0000
0000
,
1000
0100
1000
0000
0100
0001
0100
0000
,
0001
0010
0001
0000
0010
1000
0010
0000
,
1000
0100
1000
0000
0001
0100
0001
0000
,
1000
0010
1000
0000
0001
0010
0001
0000
,
1000
0100
1000
0100
1000
0001
0000
0100
,
0010
0001
0010
0200
0000
0000
0000
0000
,
0000
0000
0000
0300
,
1002
0000
0000
0000
0100
0000
0000
1000
,
0000
1000
0000
0000
0103
0000
0000
0000
,
2001
0000
0000
0000
0100
0000
0000
0010
,
0000
0010
0000
0000
3001
0000
0000
0000
,
1020
0000
0000
0000
0100
0000
0000
1000
,
0000
1000
0000
0000
0130
0000
0000
0000
,
1001
0000
0000
0110
0000
0000
1001
0000
,
0000
0000
0000
0000
,
1000
0000
0001
0010
0001
0000
0010
0100
,
0000
1000
0000
0001
0100
0000
0010
1000
,
0001
0000
1000
0100
1000
0000
0010
0100
,
0000
0001
0010
0000
0100
0000
0010
0001
,
1000
0000
0001
0100
0001
0000
0100
0010
,
0000
1000
0000
0001
0010
0000
0100
1000
,
0001
0000
0100
0010
0000
1000
0200
0000
,
0000
0000
1000
1300
,
1000
0100
0010
0100
1000
0000
0001
0000
,
0100
0010
1000
0100
0010
0000
0001
0000
,
1000
0010
0100
0010
1000
0000
0001
0000
,
0010
0100
0010
0000
0100
0010
0100
0000
,
0010
0001
0100
0010
1000
0000
0001
0000
,
1000
0010
0100
0001
0010
0000
0001
0000
,
0020
0000
0000
0000
,
0000
0000
0000
0000
0100
0130
0000
0000
,
1000
0000
0100
0001
0000
0100
0000
1000
,
0000
0000
0000
0000
0000
0100
0010
0001
,
1000
0000
0010
0001
0000
0010
0000
1000
,
0000
0000
0010
0100
,
0001
0010
0100
1000
,
0001
0100
0010
1000
,
0001
0000
0000
1000
0000
0010
0100
0001
,
2000
0001
0001
3001
,
0001
0000
0100
1000
0000
0100
0000
0001
,
0000
0000
0000
0000
0000
0100
0010
1000
,
0001
0000
0010
1000
0000
0010
0000
0001
,
0000
0000
0010
0100
,
1000
0010
0100
0001
,
1000
0100
0010
0001
,
0011
0000
0000
0110
0000
0110
0000
1002
,
0000
1000
1000
1003
,
1000
0000
0010
0100
0000
0001
0000
0020
,
0000
0000
0000
0031
,
0001
0000
0010
0100
0000
1000
0000
0020
,
0000
0000
0230
0000
,
0301
0100
0001
0000
0100
1000
0100
0000
,
1000
0010
1000
0000
0010
0001
0010
0000
,
0001
0100
0001
0000
1000
0100
1000
0000
,
0001
0010
0001
0000
1000
0010
1000
0000
,
0001
0100
0001
0100
0001
1000
0000
0100
,
0010
1000
0010
0200
0000
0000
0000
0000
,
0000
0000
0000
0000
,
0000
0000
0000
0000
,
0000
0000
0000
0000
,
0300
0000
0000
0000
;
