#TITLE:RPG;
#SUBTITLE:;
#ARTIST:school food punishment;
#TITLETRANSLIT:;
#SUBTITLETRANSLIT:;
#ARTISTTRANSLIT:;
#GENRE:;
#CREDIT:;
#BANNER:[Qualifier] - RPG.png;
#BACKGROUND:[Qualifier] - RPG-bg.png;
#LYRICSPATH:;
#CDTITLE:cdtitle.png;
#MUSIC:[Qualifier] - RPG.mp3;
#OFFSET:-0.298;
#SAMPLESTART:46.873;
#SAMPLELENGTH:12.000;
#SELECTABLE:YES;
#BPMS:0.000=175.000
;
#STOPS:
;
#BGCHANGES:;
#KEYSOUNDS:;
#ATTACKS:;

//---------------dance-single - ----------------
#NOTES:
     dance-single:
     :
     Hard:
     8:
     0.642,0.572,0.356,0.100,0.022,363.000,32.000,9.000,0.000,0.000,0.000,0.642,0.572,0.356,0.100,0.022,363.000,32.000,9.000,0.000,0.000,0.000: // measure 0
0000
0000
0000
0000
,  // measure 1
0001
0000
1010
0000
1000
0001
0000
0011
,  // measure 2
0000
0010
0100
1000
0000
0001
0100
0010
,  // measure 3
0100
0000
0001
1000
0100
0010
0000
0110
,  // measure 4
0000
0010
0001
0100
1000
0100
0010
1000
,  // measure 5
0001
0000
0010
0100
1000
0010
0000
0101
,  // measure 6
0000
0000
0001
0000
0000
1000
0000
0000
0100
0000
0000
1000
0000
0000
0010
0000
,  // measure 7
0100
0000
0001
1000
0100
0010
0000
0011
,  // measure 8
0000
0001
1000
0100
0010
0100
1000
0000
,  // measure 9
0001
0000
0100
0000
0001
0010
0000
0100
,  // measure 10
0000
1000
0010
0100
0010
1000
0001
0000
,  // measure 11
1000
0000
0100
0000
1000
0010
0100
0001
,  // measure 12
0000
1001
0000
1100
0000
1000
0010
0100
,  // measure 13
0010
1000
0002
0000
,  // measure 14
1003
0000
0000
0001
0000
0010
0000
0000
,  // measure 15
0100
0000
0010
0000
0001
0100
0001
0000
,  // measure 16
1000
0100
0001
0100
1000
0010
0100
0000
,  // measure 17
0001
1000
0100
0000
0010
0001
0000
0101
,  // measure 18
0000
0100
0010
0100
0001
0010
0100
1000
,  // measure 19
0010
0000
0000
0000
0110
0000
0000
0000
0001
0000
0000
1000
0000
0000
0100
0000
,  // measure 20
0000
0010
0000
0100
1000
0010
0100
0001
,  // measure 21
1000
0000
0001
0000
0020
0000
0000
0130
,  // measure 22
0000
0000
0000
1000
0000
1100
0000
0001
,  // measure 23
1000
0010
0100
0010
1000
0001
0010
0100
,  // measure 24
0010
0000
0110
0000
0100
1000
0100
0010
,  // measure 25
0002
0000
0010
0000
0010
0000
0013
0100
,  // measure 26
2000
0000
0100
0000
3100
0010
0001
1000
,  // measure 27
0020
0000
0100
0000
0100
0000
0130
0001
,  // measure 28
2000
0000
0100
0000
3100
1000
0010
0100
,  // measure 29
0001
0000
1000
0100
1100
0000
1000
0001
,  // measure 30
0010
0100
0010
0001
0100
0000
0010
1000
,  // measure 31
0001
0010
0100
1000
0010
0100
0000
0101
,  // measure 32
0000
0001
1001
0000
1000
0100
1100
0000
,  // measure 33
0002
0000
0000
0003
,  // measure 34
1000
0000
0101
0000
0001
0010
0100
1000
,  // measure 35
0000
0010
0100
0010
1000
0100
0001
0100
,  // measure 36
0010
0000
0011
0000
0001
0100
0010
0100
,  // measure 37
0000
0001
1000
0100
0001
0100
1000
0001
,  // measure 38
0100
0000
1010
0000
1000
0100
0000
0010
,  // measure 39
0100
1000
0010
0001
0010
1000
0000
0001
,  // measure 40
0100
0000
0010
1000
0100
0000
0010
0001
,  // measure 41
1000
0010
0100
0010
1000
0100
0010
0001
,  // measure 42
1000
1000
0010
0110
0000
0100
0101
0000
,  // measure 43
0001
1100
0000
1000
0010
0100
0001
1000
,  // measure 44
0100
0010
0100
1000
0000
1000
0001
0000
,  // measure 45
0001
0100
1000
0100
0001
0010
0100
1000
,  // measure 46
0100
0000
0011
0000
1010
0000
0001
0100
,  // measure 47
0010
0100
1000
0100
0010
1000
0000
0001
,  // measure 48
0010
0000
0100
1000
0001
0000
0100
0010
,  // measure 49
1000
0100
0010
0100
1000
0001
0100
0010
,  // measure 50
1000
0100
0010
0001
0010
0100
1000
0001
,  // measure 51
0000
0100
0110
0000
0010
1000
0001
0100
,  // measure 52
0001
0000
1000
0100
0010
0000
0100
1100
,  // measure 53
0000
1000
0001
0100
0010
0100
0001
0010
,  // measure 54
0100
0000
1100
0000
0101
0000
0010
0100
,  // measure 55
0001
0010
0100
1000
0010
1000
0001
0010
,  // measure 56
0100
0000
0010
0001
0100
0000
0010
1000
,  // measure 57
0100
0000
0000
0010
0000
0000
0100
0000
1000
0000
0010
0000
0100
0000
0010
0000
,  // measure 58
1000
0000
0101
0000
1001
0000
1000
0100
,  // measure 59
0000
1000
0001
0100
0000
0010
0100
0001
,  // measure 60
0010
0000
1100
0000
1001
0000
0001
0100
,  // measure 61
0001
0010
0100
1000
0010
0100
0001
1000
,  // measure 62
2002
0000
0000
0000
,  // measure 63
0000
0000
0000
0000
,  // measure 64
0000
3003
0000
0000
;

//---------------dance-single - ----------------
#NOTES:
     dance-single:
     :
     Medium:
     6:
     0.392,0.357,0.178,0.100,0.000,222.000,16.000,9.000,0.000,0.000,0.000,0.392,0.357,0.178,0.100,0.000,222.000,16.000,9.000,0.000,0.000,0.000:
0000
0000
0000
0000
,
0001
0000
0100
0000
0001
0000
0000
1001
,
0000
1000
0100
0000
,
0010
0000
0001
0000
0100
0010
0000
0100
,
0000
0001
0100
0010
,
1000
0000
0100
0000
0010
0000
0000
0011
,
0000
0001
0010
0000
,
0100
1000
0010
0000
,
0220
0000
0000
0330
,
0001
0000
0001
0000
,
1000
0010
0100
0010
,
1000
0000
0000
0000
0001
0000
0010
0100
,
0000
1000
0000
0001
0100
0000
0000
0000
,
0001
1000
0020
0000
,
0130
0000
0000
0000
,
0100
0001
0100
0010
,
1000
0000
0001
0000
1000
0100
0010
0000
,
0001
0010
0100
0000
,
1100
0000
0011
0000
,
0001
1000
0010
0010
,
0100
0000
0010
1000
,
0100
0000
0020
0000
,
0031
0000
0000
0001
,
0100
0010
1000
0001
,
1000
0000
0100
0000
0010
0100
1000
0000
,
0002
0100
0100
0100
,
0100
0100
0103
0010
,
2000
0100
0100
0100
,
0100
0000
0100
0000
3100
1000
0010
0000
,
0100
0000
0101
0000
,
0001
0000
1001
0000
,
1000
0100
0010
0100
,
1000
0000
0010
0000
0100
0001
1000
0000
,
0002
0000
0000
0003
,
1000
0000
0100
0000
1000
0000
0010
0100
,
0000
0010
1000
0010
,
0100
0000
0001
0000
0010
0000
0100
1000
,
0000
0001
0100
0010
,
0100
0000
0001
0000
1000
0100
0000
0000
,
1000
0000
0001
0100
0010
0100
0000
0000
,
0101
0000
1010
0000
,
1000
0000
0100
0000
0010
0001
1000
0100
,
0010
0000
0000
0011
0000
0000
0001
0000
,
0000
0101
0000
0000
0001
0100
0001
0000
,
1000
0000
0000
1010
0000
0000
0010
0000
,
0000
0110
0000
0000
0100
0001
0100
0000
,
0001
0000
0010
0000
0100
0000
1000
0100
,
1000
0000
0010
0000
0100
0000
0000
0010
,
1000
0000
0000
0001
0100
0000
0000
0001
,
0010
0100
1000
0100
,
0010
0001
1000
0000
0010
0100
0001
0010
,
0000
0100
1000
0001
,
0100
0000
0010
0100
0000
0000
0010
0000
,
0100
0001
0010
0100
,
0010
0000
0100
0000
1000
0000
0010
0100
,
0010
0000
1000
0100
0010
0000
0000
0001
,
0100
0000
0000
0010
0100
0000
0000
0001
,
1000
0100
0010
0001
,
1000
0010
0110
0000
,
0100
0000
0010
0000
1000
0100
0010
0000
,
0001
0100
0110
0000
,
0010
0100
0001
1000
,
2002
0000
0000
0000
,
0000
0000
0000
0000
,
0000
3003
0000
0000
;

//---------------dance-single - ----------------
#NOTES:
     dance-single:
     :
     Easy:
     4:
     0.262,0.250,0.122,0.100,0.000,145.000,11.000,9.000,0.000,0.000,0.000,0.262,0.250,0.122,0.100,0.000,145.000,11.000,9.000,0.000,0.000,0.000:
0000
0000
0000
0000
,
0001
0000
1000
0000
,
0001
0100
0001
0000
,
1000
0000
0100
0000
,
1000
0010
1000
0001
,
0010
0000
0100
0000
,
1000
0100
0010
0001
,
1000
0000
0001
0000
,
0220
0000
0330
0000
,
0100
0000
0100
0000
,
0010
0000
1000
0100
,
1000
0000
0001
0001
,
0010
0000
0100
0000
,
0010
0000
0002
0000
,
0003
0000
0000
0000
,
0001
0000
0100
0000
,
0010
1000
0010
0000
,
1000
0000
1100
0000
,
1000
0010
1000
0000
,
0001
0000
0100
0100
,
0010
0000
0100
0000
,
0001
0000
2000
0000
,
3000
0000
0000
1000
,
0100
0000
1000
0000
,
0001
0100
0010
1000
,
0002
0000
0100
0000
,
0100
0000
0103
0000
,
2000
0000
0100
0000
,
0100
0000
3100
1000
,
0001
0000
0101
0000
,
0001
0000
1001
0000
,
1000
0000
0100
0000
,
0010
0000
0001
1000
,
0002
0000
0000
0003
,
1000
1000
1000
0000
,
0010
0100
0010
0100
,
0001
0001
0001
0000
,
0010
0100
0010
0100
,
1000
0000
1000
0000
,
0001
0000
0001
0000
,
1000
0000
1010
0000
,
1000
0000
1001
0000
,
0001
0000
0000
0001
0000
0000
0100
0000
,
0000
0100
0000
0000
0000
0000
0000
0000
,
0010
0000
0000
0010
0000
0000
1000
0000
,
0000
1000
0000
0000
0000
0000
0000
0000
,
0001
0000
0001
0000
,
1000
0100
1000
0000
,
0001
0000
0101
0000
,
0001
0000
1001
0000
,
1000
1000
1000
1000
,
0001
0000
0100
0000
,
0001
0001
0001
0000
,
1000
0000
0100
0000
,
0010
0000
0010
0000
,
0001
1000
0001
0000
,
1000
0000
1010
0000
,
0010
0000
0110
0000
,
0100
0000
0001
0000
,
1000
0100
1000
0000
,
0010
0000
0100
0000
,
0001
0010
0001
0000
,
2002
0000
0000
0000
,
0000
0000
0000
0000
,
0000
3003
0000
0000
;
