#TITLE:Like A Robot;
#SUBTITLE:;
#ARTIST:Aqua;
#TITLETRANSLIT:;
#SUBTITLETRANSLIT:;
#ARTISTTRANSLIT:;
#CREDIT:Lisek;
#BANNER:bn.png;
#BACKGROUND:bg.png;
#LYRICSPATH:;
#CDTITLE:Lisek.png;
#MUSIC:Like A Robot.ogg;
#OFFSET:-0.823;
#SAMPLESTART:53.163;
#SAMPLELENGTH:16.300;
#SELECTABLE:YES;
#BPMS:0.000=125.000,80.000=62.500,96.000=125.000;
#STOPS:;
#BGCHANGES:;

//---------------dance-single - Lisek----------------
#NOTES:
     dance-single:
     Lisek:
     Hard:
     8:
     0.445,0.475,0.541,0.030,0.148:
0000
0000
0000
0000
,
0000
0000
0000
0000
0000
0000
0001
0100
,
0010
0100
0010
0100
,
0010
0100
0010
0000
,
1100
0000
0000
0100
0000
0000
0010
0000
0000
0001
0000
0000
1000
0000
0000
0000
,
0011
0000
0000
0010
0000
0000
0100
0000
0000
1000
0000
0000
0001
0000
0100
0000
,
0110
0000
0000
0010
0000
0000
1000
0000
0000
0100
0000
0000
1000
0000
0000
0000
,
0110
0000
0000
0100
0000
0000
0001
0000
0100
0000
0010
0000
1000
0000
0000
0000
,
1010
0000
1000
0100
0010
0001
0010
0100
,
0010
0001
0000
0000
0001
0010
0100
1000
,
0010
0000
0100
0010
1000
0000
0001
0010
,
0100
1000
0000
0020
0000
0130
0002
0000
,
1003
0000
0001
0000
1000
0100
0010
0000
,
0100
0000
0010
0001
1000
0000
0110
0000
,
0100
0000
0001
0010
0100
0000
1000
0010
,
0100
0000
0001
0010
0100
0000
1001
0000
,
1010
0000
0000
0010
0000
0000
0100
0000
0000
0001
0000
0000
0010
0000
0000
0000
,
0011
0000
0000
0001
0000
0000
0100
0000
0000
0010
0000
0000
1000
0000
0100
0000
,
1100
0000
0000
1000
0000
0000
0010
0000
0000
0100
0000
0000
0001
0000
0000
0000
,
0101
0000
0000
0001
0000
0000
2000
0000
0000
0000
3010
0000
0200
0000
0000
0000
,
0301
0000
1000
0000
0001
0000
0100
0000
0001
1000
0010
1000
0001
0000
0000
0000
,
1000
0000
0001
0000
0100
0000
0001
0000
1000
0000
0010
0100
0010
0000
0000
0000
,
1000
0000
0001
0000
0010
0010
0010
0000
0100
0000
1000
0000
0010
0010
0010
0000
,
1000
0001
0100
0010
1000
0000
0010
0000
0100
0000
0000
0000
0000
0000
0000
0000
,
1100
0101
1100
0101
,
1100
0000
0000
1000
0000
0000
0010
0000
0000
0000
0100
0000
0001
0000
0100
0000
,
0101
1100
0101
1100
,
0101
0000
0000
0001
0000
0000
1000
0000
0000
0000
0010
0000
1000
0000
0001
0000
,
0100
0000
1000
0001
0100
0000
1000
0001
,
0100
0000
0000
0001
0000
0000
0100
0000
0010
0000
1000
0000
0100
0000
1000
0000
,
1100
0101
1100
0101
,
1100
0101
1100
0000
,
1000
0001
0100
0100
0010
1000
0001
0001
,
0100
0010
1000
1000
0001
0100
0010
0010
,
0100
0010
0100
0010
,
0100
0000
0000
0100
0000
0100
0000
0100
,
0010
1000
0100
0100
1000
0010
1000
1000
,
0001
0100
0001
0001
0100
0001
0010
0010
,
0100
0010
0100
0010
,
0100
0010
0100
0010
,
0100
0000
0000
1000
0000
0000
0001
0000
0000
0000
0100
0000
0000
0001
0000
0000
,
1000
0000
0000
0100
0000
0000
1000
0000
0000
0000
0001
0000
0000
0100
0000
0000
,
0010
0000
0000
0100
0000
0000
0001
0000
0000
0000
0010
0000
0000
0001
0000
0000
,
0100
0000
0000
0010
0000
0000
0100
0000
0000
0000
0001
0000
0000
0010
0000
0000
,
0100
1000
0001
0010
0100
0000
0110
0000
,
0010
0001
1000
0100
0010
0000
0000
0001
,
1000
0100
0001
1000
0010
0000
0100
0000
,
1100
1010
0101
0011
,
1001
0000
0000
0000
,
1010
0011
1010
0011
,
1010
0000
0000
1000
0000
0000
0010
0000
0000
0000
0100
0000
0001
0000
0010
0000
,
0011
1010
0011
1010
,
0011
0000
0000
0001
0000
0000
0100
0000
0000
0000
0001
0000
0100
0000
0010
0000
,
1000
0000
0100
0010
1000
0000
0100
0010
,
1000
0000
0000
0001
0000
0000
0010
0000
0100
0000
1000
0000
0010
0000
1000
0000
,
1010
0011
1010
0011
,
1010
0000
0011
0000
1010
1000
1000
0001
,
0101
0000
0000
0110
0000
0000
1010
0000
0000
0000
0001
0000
0001
0000
1000
0000
,
1010
0000
0000
0110
0000
0000
0101
0000
0000
0000
0001
0000
1000
0000
0100
0000
,
1100
0101
1100
0101
,
1100
0000
0000
1000
0000
0000
0010
0000
0000
0000
0100
0000
0100
0000
0001
0000
,
0101
0000
0000
0110
0000
0000
1010
0000
0000
0000
0010
0000
0010
0000
1000
0000
,
1010
0000
0000
0110
0000
0000
0101
0000
0000
0000
0000
0000
0001
0000
1000
0000
,
1010
0011
1010
0011
,
1010
0000
0000
0000
;

//---------------dance-single - Lisek----------------
#NOTES:
     dance-single:
     Lisek:
     Beginner:
     1:
     0.076,0.119,0.000,0.044,0.000:
0000
0000
0000
0000
,
0000
0000
0000
0000
,
0000
0000
0000
0000
,
0000
0000
0000
0000
,
0002
0000
0000
0000
,
0003
0000
0000
0000
,
2000
0000
0000
0000
,
3000
0000
0000
0000
,
0001
0000
0000
0000
,
0100
0000
0000
0000
,
0010
0000
0000
0000
,
1000
0000
0000
0000
,
0001
0000
0000
0000
,
1000
0000
0000
0000
,
0010
0000
0000
0000
,
0100
0000
0000
0000
,
0020
0000
0000
0000
,
0030
0000
0000
0000
,
0200
0000
0000
0000
,
0300
0000
0000
0000
,
0001
0000
0000
0000
,
1000
0000
0000
0000
,
0010
0000
0000
0000
,
0100
0000
0000
0000
,
0001
0000
0001
0000
,
0001
0000
0000
0000
,
1000
0000
1000
0000
,
1000
0000
0000
0000
,
0001
0000
1000
0000
,
0001
0000
0000
0000
,
1000
0000
1000
0000
,
1000
0000
1000
0000
,
1000
0000
0000
0000
,
0001
0000
0000
0000
,
2000
0000
0000
0000
,
3000
0000
0000
0000
,
0001
0000
0000
0000
,
1000
0000
0000
0000
,
0002
0000
0000
0000
,
0000
0000
0000
0003
,
1000
0000
0000
0000
,
0010
0000
0000
0000
,
0100
0000
0000
0000
,
0001
0000
0000
0000
,
1000
0000
0000
0000
,
0001
0000
0000
0000
,
0100
0000
0000
0000
,
0010
0000
0000
0000
,
0000
0000
0000
0000
,
1000
0000
1000
0000
,
1000
0000
0000
0000
,
0001
0000
0001
0000
,
0001
0000
0000
0000
,
1000
0000
0001
0000
,
1000
0000
0000
0000
,
0001
0000
0001
0000
,
0001
0000
0001
0000
,
0001
0000
0000
0000
,
0100
0000
0000
0000
,
0001
0000
0001
0000
,
0001
0000
0000
0000
,
1000
0000
0000
0000
,
0010
0000
0000
0000
,
1000
0000
1000
0000
,
1000
0000
0000
0000
;

//---------------dance-single - Lisek----------------
#NOTES:
     dance-single:
     Lisek:
     Medium:
     5:
     0.353,0.403,0.356,0.015,0.015:
0000
0000
0000
0000
,
0000
0000
0000
0000
,
1000
0001
1000
0001
,
1000
0001
1000
0000
,
0001
0000
0100
0000
0001
1000
0010
0000
,
0100
0000
0010
0000
1000
0100
0010
0000
,
0001
0000
1000
0000
0001
0100
0010
0000
,
1000
0000
0010
0000
0100
0010
1000
0000
,
0001
0000
0010
0100
1000
0000
0001
0000
,
1001
0000
0000
0000
1000
0000
0010
0100
,
0001
0000
1000
0010
0100
0000
0010
0000
,
1010
0000
0000
1000
0000
0001
1000
0000
,
0000
0010
0100
0010
,
1000
0000
0010
1000
0010
0000
1010
0000
,
0000
0001
0100
0001
,
0010
0000
0001
0100
0001
0000
0101
0000
,
0002
0000
0000
0000
0000
0000
1003
0001
,
0000
0000
1000
0100
0010
0001
1000
0001
,
2000
0000
0000
0000
0000
0000
3001
1000
,
0000
0000
0000
0001
0000
1000
0001
0000
,
1000
0010
0100
0100
0010
1000
0001
0000
,
0001
0100
0010
0010
1000
0001
1000
0000
,
0001
0010
0100
0100
1000
0010
0100
0000
,
0001
0100
0010
1000
0001
0000
0000
0000
,
1001
1001
1001
1001
,
1001
0000
0000
1000
0001
0100
0001
1000
,
1001
1001
1001
1001
,
1001
0000
0000
0000
0000
0001
0100
0001
,
1000
0000
1000
0001
0100
0000
0100
0001
,
1000
0000
0000
0001
0100
0010
1000
0001
,
1001
1001
1001
1001
,
1001
1001
1001
0000
,
1000
1000
0001
0001
,
1000
1000
0010
0010
,
0100
0010
0100
0010
,
0100
0000
0000
0100
0000
0100
0000
0000
,
0001
0001
0010
0010
,
0001
0001
0100
0100
,
0010
0100
0010
0100
,
0010
0100
0010
0100
,
0001
1000
0001
0100
,
0001
1000
0001
0100
0001
0000
0000
0000
,
1000
0001
1000
0010
,
1000
0000
0001
1000
0010
0000
0000
0000
,
1000
0001
0100
0001
,
1000
0001
0100
0001
1000
0000
0000
0001
,
1000
0100
1000
0010
1000
0000
0001
0000
,
1001
0110
1001
0110
,
1001
0000
0000
0000
,
1001
1001
1001
1001
,
1001
0000
0000
0001
0100
0010
1000
0001
,
1001
1001
1001
1001
,
1001
0000
0000
0000
0000
1000
0001
0100
,
0001
0000
0001
0100
0010
0000
0010
0100
,
0001
0000
0000
1000
0001
0100
0001
1000
,
1001
1001
1001
1001
,
1001
0000
1001
0000
1001
1000
1000
0001
,
1000
0000
0000
0001
0000
0000
1000
0000
0000
0000
0010
0000
0010
0000
0100
0000
,
0010
0000
0000
0100
0000
0000
0010
0000
0000
0000
0000
0000
0100
0000
0001
0000
,
1001
1001
1001
1001
,
1001
0000
0000
0000
0000
0001
0001
0100
,
0001
0000
0000
0100
0000
0000
0001
0000
0000
0000
1000
0000
1000
0000
0010
0000
,
1000
0000
0000
0010
0000
0000
1000
0000
0000
0000
0000
0000
0001
0000
0100
0000
,
0010
0100
0010
0100
,
0010
0000
0000
0000
;

//---------------dance-single - Lisek----------------
#NOTES:
     dance-single:
     Lisek:
     Easy:
     2:
     0.151,0.214,0.000,0.030,0.000: // measure 1
0000
0000
0000
0000
,  // measure 2
0000
0000
0000
0000
,  // measure 3
0000
0000
0000
0000
,  // measure 4
0000
0000
0000
0000
,  // measure 5
0002
0000
0000
0000
,  // measure 6
0003
0000
1000
0010
,  // measure 7
0200
0000
0000
0000
,  // measure 8
0300
0000
0000
0000
,  // measure 9
0001
0000
1000
0000
,  // measure 10
0010
0000
0000
0000
,  // measure 11
1000
0000
0001
0000
,  // measure 12
0100
0000
0000
0000
,  // measure 13
0001
0000
1000
0000
,  // measure 14
0001
0000
0100
0000
,  // measure 15
0010
0000
1000
0000
,  // measure 16
0010
0000
0100
0000
,  // measure 17
0020
0000
0000
0000
,  // measure 18
0030
0000
1000
0001
,  // measure 19
0200
0000
0000
0000
,  // measure 20
0300
0000
0000
0000
,  // measure 21
0001
1000
0001
1000
,  // measure 22
0010
0100
0010
0100
,  // measure 23
0001
1000
0001
1000
,  // measure 24
0010
0100
0010
0000
,  // measure 25
1000
1000
1000
1000
,  // measure 26
1000
0000
0001
1000
,  // measure 27
0001
0001
0001
0001
,  // measure 28
0001
0000
0000
0000
,  // measure 29
1000
0000
0001
0000
,  // measure 30
0100
0000
0001
1000
,  // measure 31
0001
0001
0001
0001
,  // measure 32
0001
0001
0001
0000
,  // measure 33
1000
0000
0010
0000
,  // measure 34
1000
0000
0100
0000
,  // measure 35
1000
0000
1000
0000
,  // measure 36
1000
0000
0000
0000
,  // measure 37
0001
0000
0100
0000
,  // measure 38
0010
0000
0100
0000
,  // measure 39
0001
0000
0001
0000
,  // measure 40
0001
0000
0001
0000
,  // measure 41
1000
0000
0010
0000
,  // measure 42
0100
0000
0001
0000
,  // measure 43
0100
0000
0010
0000
,  // measure 44
1000
0000
0001
0000
,  // measure 45
1000
0000
0100
0000
,  // measure 46
0010
0000
0001
0000
,  // measure 47
1000
0001
1000
0001
,  // measure 48
1000
1000
1000
1000
,  // measure 49
1000
0000
0000
0000
,  // measure 50
0001
0001
0001
0001
,  // measure 51
0001
0000
1000
0001
,  // measure 52
1000
1000
1000
1000
,  // measure 53
1000
0000
0000
0000
,  // measure 54
0001
0000
0100
0000
,  // measure 55
0010
0000
1000
0001
,  // measure 56
1000
1000
1000
1000
,  // measure 57
1000
1000
1000
0000
,  // measure 58
0001
0000
0100
0000
,  // measure 59
0001
0000
1000
0000
,  // measure 60
0001
0001
0001
0001
,  // measure 61
0001
0000
0000
0000
,  // measure 62
1000
0000
0010
0000
,  // measure 63
0100
0000
0010
0000
,  // measure 64
1000
1000
1000
1000
,  // measure 65
1000
0000
0000
0000
;
