#TITLE:Koubuki Beatrix;
#SUBTITLE:;
#ARTIST:Alicia*;
#TITLETRANSLIT:;
#SUBTITLETRANSLIT:;
#ARTISTTRANSLIT:;
#GENRE:;
#CREDIT:;
#MENUCOLOR:;
#METERTYPE:DDR;
#BANNER:Koubuki Beatrix.png;
#BACKGROUND:Koubuki Beatrix-bg.png;
#LYRICSPATH:;
#CDTITLE:;
#MUSIC:Koubuki Beatrix.mp3;
#OFFSET:0.014;
#SAMPLESTART:91.850;
#SAMPLELENGTH:14.000;
#SELECTABLE:YES;
#LISTSORT:;
#BPMS:0.000=222.000;
#STOPS:;
#BGCHANGES:;
#ATTACKS:;

//---------------dance-single - ----------------
#NOTES:
     dance-single:
     :
     Hard:
     8:
     0.770,0.758,0.483,0.557,0.000:
0000
0000
0000
0000
,
0000
0000
0000
0000
,
0000
0000
0000
0000
,
0000
0000
0000
0000
,
2001
0000
0000
3100
0000
0010
0100
0000
,
1000
0000
0020
0000
0000
0130
0000
0001
,
0010
0000
0100
0000
0020
0000
0000
0031
,
0000
0100
0001
0000
1000
0000
0020
0000
,
2030
3200
2300
3002
,
0203
0000
0320
0000
0000
0130
0000
0001
,
1000
0000
0100
0000
0020
0000
0000
0130
,
0000
0010
0001
0000
0100
0000
0020
0000
,
0000
1030
0000
0100
0001
0000
0100
0000
,
2000
3020
0230
0302
,
0023
0000
0130
0000
2001
0000
0000
3010
,
0000
0100
0001
0000
0011
0000
2100
0000
,
0000
3010
0000
0100
0001
0000
0011
0000
,
0210
0000
0000
1300
0000
0010
1000
0000
,
1100
0021
0230
2300
,
3020
0230
0301
1020
,
0000
0130
0000
0010
1000
0000
1001
0000
,
0021
0000
0000
0130
0000
1000
0010
0000
,
0110
0000
0012
0000
0000
1003
0000
0010
,
1000
1100
1002
0203
,
0302
0023
0230
1300
,
0110
0000
0010
0001
0000
1000
0100
0000
,
0010
0000
0100
0000
1000
0000
0001
0100
,
0000
0010
0100
0000
0001
0000
1000
0000
,
0100
0000
0010
0100
0000
0010
0001
0000
,
0100
0000
0010
0000
1000
0000
0100
1000
,
0000
0010
0100
0000
0001
0000
0010
0000
,
0100
0000
0010
0001
0000
0010
0100
0000
,
0010
0000
0100
0000
1000
0000
0010
1000
,
0000
0001
0100
0000
0001
0000
0010
0000
,
0001
0000
1000
0010
0000
1000
0100
0000
,
0010
0000
0100
0000
1000
0000
0010
0100
,
0000
0001
0010
0000
0100
0000
1000
0000
,
0001
0010
0100
0010
0001
0100
0010
0100
,
0001
0010
0100
1000
0100
0010
0100
1000
,
0000
0010
0100
0000
0011
0000
0201
0000
,
0310
1000
0100
0010
0100
1000
0010
0100
,
0001
0010
0100
1000
0100
0010
0001
0100
,
0000
0010
1000
0000
0101
0000
0012
0000
,
1003
0100
0010
0100
0010
0001
0100
0010
,
1000
0100
0010
0001
0100
0010
1000
0100
,
0000
1000
0010
0000
0101
0000
0120
0000
,
1030
0100
0010
0001
0010
0100
1000
0010
,
1000
0001
0100
0001
0020
0000
2030
0000
,
3020
0032
0203
0310
,
2001
0000
0000
3020
0000
0130
0002
0000
,
0000
0000
0013
0100
2000
0000
3020
0000
,
0230
0302
0023
0230
,
0320
0000
0000
0032
0000
0103
0020
0000
,
2030
3200
2300
0000
,
0010
0010
0000
3002
,
0203
0000
0000
0320
0000
0130
0002
0000
,
0023
0000
0230
0000
0320
0000
0000
0130
,
1000
0010
0200
0000
0000
0000
0301
0010
,
0200
0000
0000
0320
0000
0130
2000
0000
,
3020
0230
0302
0010
,
0000
0000
1003
0100
0010
0100
0010
0001
,
0100
0000
0010
1000
0000
0100
1000
0100
,
1000
0001
0010
0000
0100
0000
0010
0001
,
0000
0100
0001
0100
0010
1000
0100
0000
,
1000
0000
0001
0010
0000
0100
0010
0001
,
0100
0010
1000
0000
0100
0000
0010
0001
,
0000
0100
0010
1000
0100
0000
0010
0000
,
0100
0000
0010
0001
0000
0100
0010
1000
,
0100
0010
0100
0000
0010
0000
0001
0100
,
0000
0001
0100
0010
1000
0100
1000
0000
,
0010
0000
1000
0100
0000
0010
0100
0010
,
0001
0100
0010
0000
0100
0000
0010
1000
,
0000
0100
0010
0001
0100
0010
1000
0100
,
1000
0010
0100
0001
0010
0000
0100
0000
,
0010
0000
0001
0000
0100
0001
0100
0010
,
1000
0100
1000
0001
,
1000
0001
0100
0001
0010
0000
0100
0010
,
0100
1000
0010
0000
1000
0100
1000
0001
,
0100
0010
0100
0001
,
1000
0100
0010
0001
0010
0000
0100
0000
,
0010
0000
0001
0000
0100
0001
0100
0010
,
1000
0100
1000
0001
,
0100
0001
0010
0100
0010
0000
0001
0100
,
0010
1000
0100
0000
1000
0010
0000
0110
,
0000
0100
0001
0000
0011
0000
1001
0000
,
0110
0000
0100
0001
0000
0010
0100
1000
,
0010
1000
0100
1000
0010
0000
0100
0001
,
0000
0010
0100
1000
0010
0100
0010
0000
,
0100
0000
0001
0010
0000
0100
0010
0001
,
0100
0010
0100
0001
1000
0000
0001
0100
,
0000
0001
0010
0100
0010
0001
0100
0000
,
0010
0000
0100
0001
1000
0000
0100
0000
,
1000
0000
0010
0000
0100
0000
0001
0010
,
0100
0000
0010
0000
0001
0100
0010
1000
,
0100
0000
1000
0010
0000
0100
0001
0010
,
0100
0010
0001
0100
0010
0000
0100
0001
,
0000
1000
0100
1000
0010
0100
0010
0000
,
0110
0000
0001
0010
0000
0100
0010
0001
,
0100
0010
1000
0100
1000
0000
0010
0100
,
0000
0001
0010
0100
0010
0001
0100
0000
,
0010
0000
0100
0001
0000
1000
0100
0010
,
0001
0100
0010
1000
0100
0000
1000
0010
,
0000
0100
0001
0010
0100
0010
0001
0000
,
1000
0000
0010
0100
0001
0000
0010
0000
,
0100
0000
1000
0000
0010
0000
0100
0001
,
0010
0000
0200
0000
0000
0000
0310
0001
,
2000
0000
0000
0000
3001
0100
0020
0000
,
0000
0000
1030
0100
0020
0000
0000
0031
,
0100
0010
0100
0010
0100
0010
0100
0001
,
1000
0100
0000
1000
0010
0000
0110
0000
,
0101
0000
0010
0100
0000
1000
0010
0000
,
1100
0000
0101
0000
0010
0100
0000
0001
,
0100
0000
0011
0000
1001
0000
0010
0100
,
0000
0001
1000
0000
0101
0000
0011
0000
,
1100
0000
0001
0100
0000
0010
1000
0000
,
1100
0000
0011
0000
0100
0010
0000
1000
,
0001
0000
0011
0000
0101
0000
1000
0010
,
0000
1000
0100
0000
0110
0000
0101
0000
,
0010
1000
0000
0100
0010
0000
1100
0000
,
0110
0000
0011
0000
1002
0000
0000
0103
,
0000
0010
1000
0000
0110
0000
0102
0000
,
0000
0013
0000
0100
1000
0000
0110
0000
,
0012
0000
0000
0103
0000
0010
1000
0000
,
1100
1010
0101
0011
,
1010
0110
0101
1002
,
0000
0103
0000
0010
1000
0000
1100
0000
,
0201
0000
0000
0310
0000
1000
0100
0000
,
0110
0000
0102
0000
0000
0013
0000
0100
,
1000
1010
0110
1001
,
0011
0110
0101
1010
,
2002
0000
0000
0000
,
0000
3003
0000
0000
;

//---------------dance-single - ----------------
#NOTES:
     dance-single:
     :
     Medium:
     6:
     0.677,0.714,0.251,0.625,0.000:
0000
0000
0000
0000
,
0000
0000
0000
0000
,
0000
0000
0000
0000
,
0000
0000
0000
0000
,
2001
0000
0000
3010
0000
0010
0100
0000
,
0001
0000
0020
0000
0000
0130
0000
0100
,
0010
0000
0001
0000
0200
0000
0000
0310
,
0000
0010
0100
0000
0001
0000
2000
0000
,
3200
0320
0230
0320
,
0032
0000
2003
0000
0000
3010
0000
0010
,
0100
0000
0001
0000
0020
0000
0000
0130
,
0000
0100
1000
0000
0010
0000
0200
0000
,
0000
0301
0000
0001
0010
0000
0100
0000
,
0020
0032
0203
0302
,
2003
0000
3010
0000
0210
0000
0000
0301
,
0000
0010
0100
0000
1000
0000
2010
0000
,
0000
3001
0000
0100
0001
0000
0010
0000
,
2100
0000
0000
3010
0000
0100
0001
0000
,
0010
0200
0320
0032
,
2003
3020
1030
1002
,
0000
0013
0000
0100
0010
0000
0001
0000
,
2010
0000
0000
3100
0000
0010
0001
0000
,
0100
0000
0120
0000
0000
1030
0000
0100
,
0010
0001
2000
3020
,
0230
0302
0023
0130
,
1001
0000
0001
0100
0000
0001
0010
0000
,
0100
0000
1000
0000
0010
0000
1000
0001
,
0000
0100
0001
0000
0010
0000
0100
0000
,
0010
0000
0001
0100
0000
0010
1000
0000
,
0100
0000
1000
0000
0010
0000
0100
0001
,
0000
0010
0100
0000
0010
0000
0001
0000
,
0100
0000
0001
1000
0000
0010
1000
0000
,
0100
0000
0010
0000
0001
0000
0100
0010
,
0000
1000
0100
0000
0010
0000
0001
0000
,
0010
0000
0100
1000
0000
0010
1000
0000
,
0010
0000
0100
0000
0001
0000
0100
0010
,
0000
0100
0001
0000
1000
0000
0010
0000
,
0110
0000
0100
0001
0000
1000
0100
0000
,
0010
0001
0000
0010
0100
0000
0010
0001
,
0000
0100
0001
0000
1000
0000
0020
0000
,
1030
0000
0100
0010
0000
0001
0100
0000
,
0001
1000
0000
0010
0100
0000
0001
0010
,
0000
0100
0010
0000
0001
0000
0200
0000
,
0310
0000
0100
0001
0000
1000
0010
0000
,
1000
0100
0000
0010
0100
0000
0010
0001
,
0000
0100
0001
0000
0100
0000
0020
0000
,
1030
0000
0100
0010
0000
0001
0010
0000
,
0100
0010
0000
0001
0200
0000
0320
0000
,
2030
3200
2300
3001
,
0210
0000
0000
0302
0000
0013
0200
0000
,
0000
0000
1300
0010
2000
0000
3002
0000
,
0203
0320
2030
3200
,
0320
0000
0000
0032
0000
0103
0020
0000
,
2030
3200
0020
0000
,
0000
0000
0300
0032
,
2003
0000
0000
3020
0000
0130
0002
0000
,
0023
0000
0230
0000
0320
0000
0000
0031
,
0100
0000
0020
0000
0000
0000
1030
0001
,
2000
0000
0000
3200
0000
0310
0002
0000
,
0203
0320
2000
0000
,
0030
0000
3001
0010
0100
0000
0010
0100
,
1000
0000
0100
1000
0000
0100
0010
0000
,
0001
0010
0001
0000
1000
0000
0010
1000
,
0000
0100
0010
0000
0001
0010
0001
0000
,
0100
0000
0010
1000
0000
0100
0010
0000
,
0100
1000
0100
0000
1000
0000
0001
0100
,
0000
0010
0100
0010
1000
0000
0010
0000
,
0100
0000
0001
0010
0000
0100
1000
0000
,
0010
0100
0010
0000
0100
0000
0001
0010
,
0000
0001
1000
0000
0100
1000
0100
0000
,
1000
0000
0001
0100
0000
0001
0010
0000
,
0100
0010
0100
0000
0010
0000
0001
0100
,
0000
0010
0100
0000
0010
1000
0010
0000
,
0100
0001
0100
0000
0001
0000
1000
0000
,
0100
0000
0010
0000
0100
0010
0100
0000
,
0010
0001
0000
0000
,
0100
0001
0100
0000
0010
0000
1000
0100
,
1000
0000
0010
0000
0100
0010
0100
0000
,
0001
1000
0001
0000
,
0100
0001
0100
0000
0010
0000
1000
0000
,
0100
0000
0010
0000
0100
0010
0100
0000
,
0010
0001
0100
0010
,
0100
0010
0100
0000
0001
0000
1000
0100
,
1000
0000
0010
0000
0100
0001
0000
1001
,
0000
1000
0010
0000
1100
0000
0011
0000
,
1001
0000
1000
0100
0000
0010
0001
0000
,
0100
0000
0010
0000
0100
0000
0001
0010
,
0100
0010
0001
0100
,
0010
0000
0100
0001
0000
1000
0100
0000
,
1000
0000
0010
0000
0100
0000
0001
0010
,
0100
0000
0010
0001
0100
0000
0010
0000
,
0100
0000
0001
0010
0100
0000
0010
0000
,
0001
0000
0100
0000
0010
0000
1000
0100
,
1000
0000
0010
0000
0100
0000
0001
0010
,
0001
0000
0100
0010
0000
1000
0100
0000
,
1000
0000
0001
0000
0010
0000
0100
0010
,
0000
0001
0100
0000
0010
1000
0100
0000
,
1001
0000
0001
0100
0000
0010
1000
0000
,
0100
0000
0010
0000
0001
0000
0010
0100
,
0010
0001
0100
0010
,
1000
0000
0100
0010
0000
0001
1000
0000
,
0010
0000
0100
0000
0001
0000
0010
0100
,
0010
0001
0100
0010
,
1000
0000
0100
0010
0001
0000
0010
0000
,
0100
0000
0010
0000
0001
0000
0100
0001
,
0100
0000
0020
0000
0000
0000
0130
0001
,
2000
0000
0000
0000
3100
0010
0200
0000
,
0000
0000
0310
0001
0200
0000
0000
0310
,
1000
0001
0100
0010
,
0100
0001
0000
0010
0100
0000
1000
0000
,
1010
0000
1000
0001
0000
0100
0001
0000
,
0010
0000
0110
0000
0010
0001
0000
0100
,
0010
0000
1000
0000
1100
0000
1000
0001
,
0000
0100
0001
0000
0010
0000
0011
0000
,
1100
0000
1000
0010
0000
0100
0001
0000
,
0010
0000
0110
0000
0010
0001
0000
0100
,
0010
0000
1000
0000
1100
0000
1000
0010
,
0000
1000
0100
0000
0010
0000
0110
0000
,
0010
0100
0000
0010
0001
0000
0010
0000
,
0011
0000
1100
0000
1002
0000
0000
0103
,
0000
0001
0010
0000
0110
0000
2100
0000
,
0000
3010
0000
0100
0001
0000
0011
0000
,
0201
0000
0000
0310
0000
1000
0100
0000
,
0110
0002
0203
0320
,
2030
3200
0310
0012
,
0000
0103
0000
0010
1000
0000
1100
0000
,
0120
0000
0000
0031
0000
0100
0010
0000
,
1000
0000
1200
0000
0000
0310
0000
0001
,
0100
0101
0002
0023
,
0230
2300
3200
0310
,
2002
0000
0000
0000
,
0000
3003
0000
0000
;

//---------------dance-single - ----------------
#NOTES:
     dance-single:
     :
     Easy:
     5:
     0.566,0.669,0.245,0.816,0.000: // measure 1
0000
0000
0000
0000
,  // measure 2
0000
0000
0000
0000
,  // measure 3
0000
0000
0000
0000
,  // measure 4
0000
0000
0000
0000
,  // measure 5
2001
0000
0000
3010
0000
0000
0100
0000
,  // measure 6
0001
0000
0020
0000
0000
0130
0000
0000
,  // measure 7
0010
0000
0001
0000
0200
0000
0000
0310
,  // measure 8
0000
1000
0100
2000
,  // measure 9
3020
0230
0302
0023
,  // measure 10
0230
0000
0320
0000
0000
0031
0000
0000
,  // measure 11
0100
0000
0010
0000
2000
0000
0000
3100
,  // measure 12
0000
0010
0001
0200
,  // measure 13
0000
0310
0000
0000
0100
0000
0001
0000
,  // measure 14
2000
3200
0320
0230
,  // measure 15
0320
0000
0031
0000
2001
0000
0000
3010
,  // measure 16
0000
0100
0001
0102
,  // measure 17
0000
0013
0000
0000
0100
0000
1000
0000
,  // measure 18
2100
0000
0000
3010
0000
0000
0100
0000
,  // measure 19
0001
0020
0230
0320
,  // measure 20
0032
0203
0310
0120
,  // measure 21
0000
0130
0000
0000
0001
0000
1000
0000
,  // measure 22
2001
0000
0000
3010
0000
0000
0100
0000
,  // measure 23
0001
0000
0201
0000
0000
0310
0000
0000
,  // measure 24
1000
0010
2000
3200
,  // measure 25
0320
0032
0023
0031
,  // measure 26
1001
0000
0000
1000
0000
0000
0010
0000
,  // measure 27
0100
0000
0001
0000
0010
0000
0000
0100
,  // measure 28
0000
0010
0001
0100
,  // measure 29
0001
0000
0000
0100
0000
0000
0010
0000
,  // measure 30
1000
0000
0100
0000
0010
0000
0000
0100
,  // measure 31
0000
0010
0001
0100
,  // measure 32
0010
0000
0000
0100
0000
0000
0001
0000
,  // measure 33
0100
0000
0010
0000
1000
0000
0000
0100
,  // measure 34
0000
0010
0001
0100
,  // measure 35
0001
0000
0000
0010
0000
0000
0100
0000
,  // measure 36
0010
0000
0001
0000
1000
0000
0000
0010
,  // measure 37
0000
1000
0100
1000
,  // measure 38
1001
1000
0010
0100
,  // measure 39
0001
0010
0100
0010
,  // measure 40
0001
0100
0010
2000
,  // measure 41
3100
0010
0001
0010
,  // measure 42
0100
0010
0100
0010
,  // measure 43
0001
0100
0010
2000
,  // measure 44
3001
1000
0001
0100
,  // measure 45
0001
0010
0100
0010
,  // measure 46
0001
0100
0010
2000
,  // measure 47
3100
0010
0001
0010
,  // measure 48
0100
0010
0002
0023
,  // measure 49
0230
2300
3200
0310
,  // measure 50
2001
0000
0000
3020
0000
0000
0230
0000
,  // measure 51
0000
0301
0020
0230
,  // measure 52
0320
0032
0203
0320
,  // measure 53
2030
0000
0000
3200
0000
0000
0320
0000
,  // measure 54
0032
0203
0020
0000
,  // measure 55
0000
0000
0300
2030
,  // measure 56
3200
0000
0000
0320
0000
0000
0032
0000
,  // measure 57
0203
0320
2030
0000
,  // measure 58
3100
0020
0000
0032
,  // measure 59
0203
0000
0000
0320
0000
0000
0230
0000
,  // measure 60
0302
0023
0200
0000
,  // measure 61
0030
0310
0001
0100
,  // measure 62
0010
0000
0000
0100
0000
0000
0001
0000
,  // measure 63
0010
0000
0100
0000
0010
0000
0000
0001
,  // measure 64
0000
0100
0001
1000
,  // measure 65
0100
0000
0000
1000
0000
0000
0010
0000
,  // measure 66
0100
0000
0001
0000
0010
0000
0000
0100
,  // measure 67
0000
0010
0001
0100
,  // measure 68
0001
0000
0000
0100
0000
0000
0010
0000
,  // measure 69
0100
0000
0001
0000
1000
0000
0000
0100
,  // measure 70
0000
0010
0001
0100
,  // measure 71
0010
0000
0000
0100
0000
0000
0001
0000
,  // measure 72
0010
0000
0100
0000
1000
0000
0000
0010
,  // measure 73
0000
1000
0001
0100
,  // measure 74
0010
0000
0100
0001
,  // measure 75
1000
0100
0010
0000
,  // measure 76
0100
0010
0000
0000
,  // measure 77
0001
0000
0100
0010
,  // measure 78
1000
0100
0010
0000
,  // measure 79
0100
0010
0000
0000
,  // measure 80
0001
0000
1000
0010
,  // measure 81
0100
0001
0010
0000
,  // measure 82
0100
0010
0001
0100
,  // measure 83
0010
0100
0001
1000
,  // measure 84
0100
0000
0010
0000
0110
0000
0000
1001
,  // measure 85
0000
1100
0110
0011
,  // measure 86
2001
0000
0000
3010
0000
0000
1000
0000
,  // measure 87
0100
0010
0002
0000
,  // measure 88
0013
0100
0010
0001
,  // measure 89
0020
0000
0000
0130
0000
0000
0010
0000
,  // measure 90
0001
0100
0020
0000
,  // measure 91
0130
0001
1000
0100
,  // measure 92
2000
3020
0230
0302
,  // measure 93
0023
0230
0320
0032
,  // measure 94
0203
0320
0000
0130
,  // measure 95
0002
0000
0000
0013
0000
0000
0100
0000
,  // measure 96
1000
0010
0200
0000
,  // measure 97
0301
0020
0032
0103
,  // measure 98
0120
0000
0000
0130
0000
0000
0001
0000
,  // measure 99
0010
0100
2000
0000
,  // measure 100
3010
0100
0001
0010
,  // measure 101
0200
0000
0000
0310
0000
0000
0001
0000
,  // measure 102
0100
0010
2000
0000
,  // measure 103
3100
0010
0001
0100
,  // measure 104
0020
0230
0302
0023
,  // measure 105
0230
0320
0032
0203
,  // measure 106
0320
2030
0000
3001
,  // measure 107
0200
0000
0310
2000
,  // measure 108
0000
3001
0020
0000
,  // measure 109
0200
0000
0000
0030
,  // measure 110
0301
0000
0000
1000
0000
0000
1010
0000
,  // measure 111
1010
0000
1000
0000
0000
0100
0000
0000
,  // measure 112
0011
0000
0011
0000
0010
0000
0000
0100
,  // measure 113
0000
1100
1100
1000
,  // measure 114
0000
0010
0000
0000
0100
0000
0001
0000
,  // measure 115
0010
0000
0001
0000
0000
0010
0000
0000
,  // measure 116
0110
0000
0110
0000
0100
0000
0000
1000
,  // measure 117
0000
1010
1010
0010
,  // measure 118
0000
0100
0000
0000
0101
0000
0101
0000
,  // measure 119
0001
0000
0000
0010
0000
0000
0100
0000
,  // measure 120
1000
0000
0010
0000
0210
0000
0000
0301
,  // measure 121
0000
0010
0100
0000
1000
0000
2100
0000
,  // measure 122
0000
3010
0000
1000
0001
0000
0100
0000
,  // measure 123
0201
0000
0000
0301
0000
0010
0100
0000
,  // measure 124
0010
0001
0100
0010
,  // measure 125
1000
0100
1000
2100
,  // measure 126
0000
3001
0000
1000
0001
0000
0100
0000
,  // measure 127
0201
0000
0000
0310
0000
0100
0001
0000
,  // measure 128
0010
0000
0120
0000
0000
0031
0000
0010
,  // measure 129
0100
1000
0200
0320
,  // measure 130
0230
2300
3020
0130
,  // measure 131
2002
0000
0000
0000
,  // measure 132
0000
3003
0000
0000
;

//---------------dance-single - ----------------
#NOTES:
     dance-single:
     :
     Beginner:
     2:
     0.247,0.309,0.054,0.000,0.000: // measure 1
0000
0000
0000
0000
,  // measure 2
0000
0000
0000
0000
,  // measure 3
0000
0000
0000
0000
,  // measure 4
0000
0000
0000
0000
,  // measure 5
1001
0000
0000
0010
,  // measure 6
0000
0100
0000
0000
,  // measure 7
0001
0000
0010
0000
,  // measure 8
0000
0100
0000
0010
,  // measure 9
0000
0100
0000
1000
,  // measure 10
0000
0001
0000
0000
,  // measure 11
0010
0000
0100
0000
,  // measure 12
0000
1000
0000
0010
,  // measure 13
0000
0000
0100
0000
,  // measure 14
0010
0000
1000
0000
,  // measure 15
0001
0000
0100
0000
,  // measure 16
0000
0010
0010
1000
,  // measure 17
0000
0000
0100
0100
,  // measure 18
0010
0000
0000
0100
,  // measure 19
0100
1000
0000
0001
,  // measure 20
0000
0100
0000
0010
,  // measure 21
0000
0000
1000
1000
,  // measure 22
0100
0000
0000
0010
,  // measure 23
0010
0001
0000
0000
,  // measure 24
0100
0100
0010
0000
,  // measure 25
0100
0000
0001
0000
,  // measure 26
1001
0000
0000
0001
,  // measure 27
0000
0000
1000
0000
,  // measure 28
0000
0010
0000
0000
,  // measure 29
0100
0000
0000
0001
,  // measure 30
0000
0000
0010
0000
,  // measure 31
0000
0100
0000
0000
,  // measure 32
0010
0000
0000
0001
,  // measure 33
0000
0000
1000
0000
,  // measure 34
0000
0010
0000
0000
,  // measure 35
0100
0000
0000
0001
,  // measure 36
0000
0000
0010
0000
,  // measure 37
0000
0100
0000
0000
,  // measure 38
0110
0000
0000
0010
,  // measure 39
0000
0000
0001
0000
,  // measure 40
0000
1000
1000
1000
,  // measure 41
0100
0000
0000
1000
,  // measure 42
0000
0000
0010
0000
,  // measure 43
0000
0100
0100
0100
,  // measure 44
0001
0000
0000
0010
,  // measure 45
0000
0000
0100
0000
,  // measure 46
0000
1000
1000
1000
,  // measure 47
0100
0000
0000
0010
,  // measure 48
0000
0000
0001
0000
,  // measure 49
0100
0000
0010
0000
,  // measure 50
1001
0000
0000
0001
,  // measure 51
0000
0000
0100
0000
,  // measure 52
0000
0010
0000
0000
,  // measure 53
1000
0000
0000
0100
,  // measure 54
0000
0000
0010
0000
,  // measure 55
0000
0000
0000
0000
,  // measure 56
0100
0000
0000
1000
,  // measure 57
0000
0000
0001
0000
,  // measure 58
0000
0100
0000
0000
,  // measure 59
0010
0000
0000
1000
,  // measure 60
0000
0000
0100
0000
,  // measure 61
0000
0010
0000
0000
,  // measure 62
0100
0000
0000
0010
,  // measure 63
0010
0010
0001
0000
,  // measure 64
0000
1000
1000
1000
,  // measure 65
0010
0000
0000
0100
,  // measure 66
0100
0100
0001
0000
,  // measure 67
0000
0010
0010
0010
,  // measure 68
0100
0000
0000
1000
,  // measure 69
1000
1000
0010
0000
,  // measure 70
0000
0100
0100
0100
,  // measure 71
0001
0000
0000
0010
,  // measure 72
0010
0010
0100
0000
,  // measure 73
0000
1000
1000
1000
,  // measure 74
0010
0000
0000
0100
,  // measure 75
0000
0010
0000
1000
,  // measure 76
0000
0001
0000
0000
,  // measure 77
0010
0000
0000
0100
,  // measure 78
0000
0010
0000
0001
,  // measure 79
0000
0100
0000
0000
,  // measure 80
0010
0000
0000
0100
,  // measure 81
0000
0000
0001
0000
,  // measure 82
0000
1000
0000
0000
,  // measure 83
0010
0000
0100
0000
,  // measure 84
0001
0000
1001
0000
,  // measure 85
0000
0110
0000
0000
,  // measure 86
1001
0000
0000
0010
,  // measure 87
0010
0100
0100
0000
,  // measure 88
0000
0001
0000
0000
,  // measure 89
0010
0000
0000
0100
,  // measure 90
0100
1000
1000
0000
,  // measure 91
0000
0010
0000
0000
,  // measure 92
0100
0000
0000
0001
,  // measure 93
0000
0000
0010
0000
,  // measure 94
0000
0100
0000
1000
,  // measure 95
1000
0000
0000
0010
,  // measure 96
0010
0100
0100
0000
,  // measure 97
0000
0001
0010
0001
,  // measure 98
1000
0000
0000
0010
,  // measure 99
0010
0100
0100
0000
,  // measure 100
0000
0001
0000
0000
,  // measure 101
0010
0000
0000
0100
,  // measure 102
0100
1000
1000
0000
,  // measure 103
0000
0010
0000
0000
,  // measure 104
0100
0000
0000
0001
,  // measure 105
0000
0000
0010
0000
,  // measure 106
0000
0100
0000
1000
,  // measure 107
1000
0000
0001
0001
,  // measure 108
0000
0100
0100
0000
,  // measure 109
0010
0000
0000
0000
,  // measure 110
0100
0000
0000
0010
,  // measure 111
0010
1000
0000
0000
,  // measure 112
0001
0001
0010
0000
,  // measure 113
0000
0100
0100
1000
,  // measure 114
0000
0000
0010
0100
,  // measure 115
0010
1000
0000
0000
,  // measure 116
0001
0001
0010
0000
,  // measure 117
0000
0100
0100
1000
,  // measure 118
0000
0000
0010
0010
,  // measure 119
0100
0000
0000
0010
,  // measure 120
0010
1000
0001
0000
,  // measure 121
0000
0100
0010
0100
,  // measure 122
0000
0000
0010
1000
,  // measure 123
0010
0000
0000
0100
,  // measure 124
0001
0100
0000
0010
,  // measure 125
0000
0100
0000
0010
,  // measure 126
0000
0000
1000
0001
,  // measure 127
1000
0000
0000
0010
,  // measure 128
0100
0010
0000
0000
,  // measure 129
1000
0100
1000
0000
,  // measure 130
0010
0000
0100
0000
,  // measure 131
1001
0000
0000
0000
;
