#TITLE:I Still Wonder;
#SUBTITLE:(Sam Antonioli Remix);
#ARTIST:Joseph Birdsong;
#TITLETRANSLIT:;
#SUBTITLETRANSLIT:;
#ARTISTTRANSLIT:;
#GENRE:;
#CREDIT:;
#BANNER:[Qualifier] - I Still Wonder (Sam Antonioli Remix).png;
#BACKGROUND:[Qualifier] - I Still Wonder (Sam Antonioli Remix)-bg.png;
#LYRICSPATH:;
#CDTITLE:;
#MUSIC:[Qualifier] - I Still Wonder (Sam Antonioli Remix).ogg;
#OFFSET:-0.542;
#SAMPLESTART:37.991;
#SAMPLELENGTH:15.000;
#SELECTABLE:YES;
#BPMS:0.000=151.000
;
#STOPS:
;
#BGCHANGES:;
#KEYSOUNDS:;
#ATTACKS:;

//---------------dance-single - ----------------
#NOTES:
     dance-single:
     :
     Hard:
     8:
     0.608,0.602,0.834,0.275,0.093,355.000,94.000,31.000,0.000,0.000,0.000,0.608,0.602,0.834,0.275,0.093,355.000,94.000,31.000,0.000,0.000,0.000:
0000
0000
0000
0000
,
0000
0000
0000
0000
,
0000
0000
0000
0000
,
0000
0000
0000
0000
,
0001
0100
0001
0010
0100
0000
1100
0000
,
1000
0010
0100
0001
1000
0000
1001
0000
,
0001
0010
0001
0100
0010
0000
0101
0000
,
0010
1000
0100
0010
0001
0001
2000
0000
,
3001
0000
0101
0001
1000
0000
1100
0100
,
0010
0000
0011
0001
0100
0001
0010
0100
,
0001
0100
1000
0010
0200
0000
0310
1000
,
0001
0000
1001
0000
0001
1000
0100
0000
,
0110
0000
0010
0001
0100
0000
0010
0000
,
1100
0000
0000
1010
0000
0000
0000
0000
0100
0000
0001
0000
0100
0000
0010
0000
,
0200
0000
0301
0010
0200
0000
2300
0000
,
3010
1000
0100
0000
0011
0000
0001
0100
,
0010
0000
1010
0000
0010
1000
0100
0000
,
0110
0000
0000
0011
0000
0000
0101
0000
1010
0000
1010
0000
1000
0010
1000
0010
,
1000
0100
0001
0100
1000
0010
0001
0010
,
1000
0001
0010
0001
0200
0000
0310
1000
,
0010
0100
0010
0100
0001
1000
0001
1000
,
0001
0010
0100
1000
0200
0000
0310
0001
,
0100
0010
0001
0010
2000
0000
3100
0000
,
1001
0110
1001
0110
,
1001
0000
0000
0000
1010
0000
0000
1100
0000
0000
0100
0000
0010
0000
0100
0000
,
1000
0000
0000
0000
1100
0000
0000
0011
0000
0000
0001
0000
0100
0000
0010
0000
,
1000
0000
0000
0000
0110
0000
0000
1010
0000
0000
0010
0000
0100
0000
0001
0000
,
1000
0000
0000
0000
0101
0000
0000
1010
0000
0000
0001
0000
0100
0000
0010
0000
,
1000
0000
0100
1100
0000
0110
0000
0011
,
0000
0101
0000
0110
0000
1010
0000
0110
,
0100
0000
0110
0000
0010
1000
0100
0010
,
0001
0101
1001
1100
,
0110
0000
0000
0000
0011
0000
0000
0101
0000
0000
0001
0000
0010
0000
0100
0000
,
1000
0000
0000
0000
1010
0000
0000
0110
0000
0000
0010
0000
1000
0000
0001
0000
,
0100
0000
0000
0000
1001
0000
0000
1001
0000
0000
0001
0000
0010
0000
0001
0000
,
0100
0000
0000
0000
0110
0000
0000
0110
0000
0000
0010
0000
1000
0000
0100
0000
,
0010
0000
0100
0020
0000
0230
0000
2300
,
0000
3020
0000
0230
0000
0302
0000
1003
,
0001
0000
1000
0000
0001
0010
0001
0100
,
0010
0000
1000
0000
0010
0100
0010
1000
,
0001
0000
0000
0000
0101
0000
0000
1001
0000
0000
0001
0000
1000
0000
0100
0000
,
1000
0000
0000
0000
1100
0000
0000
0110
0000
0000
0001
0000
0100
0000
0010
0000
,
1000
0000
0000
0000
0110
0000
0000
1010
0000
0000
0010
0000
0100
0000
0001
0000
,
0010
0000
0000
0000
0011
0000
0000
1001
0000
0000
0001
0000
0100
0000
0010
0000
,
1000
0000
0001
0011
0000
0110
0000
1100
,
0000
1001
0000
0101
0000
0110
0000
1000
,
0002
0000
0203
0000
0310
0100
0001
0010
,
0200
0000
2300
0000
3010
0100
0010
1000
,
1010
0000
0000
0000
1001
0000
0000
0011
0000
0000
0001
0000
0100
0000
0010
0000
,
1000
0000
0000
0000
0110
0000
0000
1010
0000
0000
1000
0000
0100
0000
0010
0000
,
0001
0000
0000
0000
0101
0000
0000
0011
0000
0000
1000
0000
0010
0000
0001
0000
,
0010
0000
0000
0000
1010
0000
0000
1001
0000
0000
0001
0000
1000
0000
0100
0000
,
1000
0000
0010
2000
0000
3002
0000
0023
,
0000
0032
0000
0203
0000
2300
0000
3100
,
0001
0000
0010
0000
0100
1000
0010
0100
,
0001
0000
0010
0001
1000
0000
0001
0000
,
1001
0000
0100
0110
0000
1010
0000
0110
,
0000
0000
0010
0000
1000
0100
0010
0001
,
1001
0000
0001
0011
0000
1100
0000
0110
,
0000
0000
0010
0100
0010
0000
0011
0000
,
1010
0000
1000
1010
0000
0011
0000
1001
,
0000
0000
0000
0000
0001
0000
0010
0000
0100
0000
0000
1000
0000
0000
0010
0000
,
2010
0100
0010
3001
,
0012
0000
0000
0000
0100
0000
0000
0000
1000
0000
0000
0003
0100
0000
0000
0000
,
0201
0000
0000
0000
0010
0000
0000
0000
1000
0000
0000
0000
0001
0300
0000
0000
,
0012
0100
0010
1003
,
2100
0010
0100
3001
,
0110
0000
1001
0000
0220
0000
0000
0330
;

//---------------dance-single - ----------------
#NOTES:
     dance-single:
     :
     Medium:
     7:
     0.474,0.482,0.044,0.559,0.062,306.000,5.000,63.000,0.000,0.000,0.000,0.474,0.482,0.044,0.559,0.062,306.000,5.000,63.000,0.000,0.000,0.000: // measure 0
0000
0000
0000
0000
,  // measure 1
0000
0000
0000
0000
,  // measure 2
0000
0000
0000
0000
,  // measure 3
0000
0000
0000
0000
,  // measure 4
1000
0000
0010
0100
0000
0001
0100
0001
,  // measure 5
0010
0000
0100
1000
0000
0100
1000
0010
,  // measure 6
0100
0000
0010
1000
0000
0010
0100
0001
,  // measure 7
1000
0000
0001
1000
0000
0001
0020
0000
,  // measure 8
0031
0000
0000
1000
0001
0000
0000
1000
,  // measure 9
0001
0000
0000
1000
0010
0000
0100
0000
,  // measure 10
0001
0000
0100
0001
0100
0000
0001
0010
,  // measure 11
0001
0000
0010
0000
0100
1000
0010
0000
,  // measure 12
0100
0000
0010
1000
0010
0000
1000
0000
,  // measure 13
0001
0000
0000
1000
0000
0000
0000
0000
0001
0000
0000
0000
0010
0000
0001
0000
,  // measure 14
0010
0100
1000
0010
,  // measure 15
0100
0010
0110
0010
,  // measure 16
1000
1100
0100
0010
,  // measure 17
0110
0000
0010
0000
0001
1000
0001
1000
,  // measure 18
0001
0100
0010
0001
,  // measure 19
0010
1000
0010
1000
0010
0000
1000
0000
,  // measure 20
0001
0010
0100
1000
,  // measure 21
0001
1000
0001
1000
0001
0000
0100
0000
,  // measure 22
0010
0100
0010
0100
0010
0000
2000
0000
,  // measure 23
3200
0320
0032
0103
,  // measure 24
0010
0000
1000
0000
0010
0100
0010
1000
,  // measure 25
0100
0000
0010
0000
0001
0100
0001
0010
,  // measure 26
0100
0000
1000
0000
0010
0100
0010
1000
,  // measure 27
0010
0000
0100
0000
0001
1000
0001
0100
,  // measure 28
0010
0000
1000
0020
0000
2030
0000
3200
,  // measure 29
0000
0320
0000
0230
0000
2300
0000
3001
,  // measure 30
1000
0000
0001
0000
0000
0100
0000
0100
,  // measure 31
0010
0010
0100
0110
,  // measure 32
0010
0000
0000
0000
1000
0000
0000
0100
0000
0000
0000
0000
0010
0000
0001
0000
,  // measure 33
0100
0000
0000
0000
0001
0000
0000
0010
0000
0000
0000
0000
0100
0000
0010
0000
,  // measure 34
0001
0000
0000
0000
0100
0000
0000
0010
0000
0000
0000
0000
1000
0000
0010
0000
,  // measure 35
0100
0000
0000
0000
0010
0000
0000
1000
0000
0000
0000
0000
0100
0000
1000
0000
,  // measure 36
0100
0000
1000
0200
0000
0320
0000
0032
,  // measure 37
0000
0203
0000
0320
0000
2030
0000
3010
,  // measure 38
1000
0000
0001
0000
0000
1000
0000
1000
,  // measure 39
0000
0000
0001
0000
0000
0100
0010
0100
,  // measure 40
0010
0000
0000
0000
1000
0000
0000
0001
0000
0000
1000
0000
0100
0000
0010
0000
,  // measure 41
0100
0000
0000
0000
1000
0000
0000
0010
0000
0000
0100
0000
0010
0000
1000
0000
,  // measure 42
0001
0000
0000
0000
0100
0000
0000
0001
0000
0000
0010
0000
0001
0000
1000
0000
,  // measure 43
0100
0000
0000
0000
1000
0000
0000
0001
0000
0000
0100
0000
0010
0000
1000
0000
,  // measure 44
0001
0000
1000
0002
0000
0203
0000
0320
,  // measure 45
0000
0230
0000
0302
0000
2003
0000
3100
,  // measure 46
0010
0000
0100
0000
0000
1000
0000
1000
,  // measure 47
0000
0000
0001
0000
0010
0000
0001
0100
,  // measure 48
0010
0000
0000
0000
1000
0000
0000
0001
0000
0000
0010
0000
0001
0000
0010
0000
,  // measure 49
0001
0000
0000
0000
0100
0000
0000
1000
0000
0000
0100
0000
0001
0000
0010
0000
,  // measure 50
0100
0000
0000
0000
1000
0000
0000
0010
0000
0000
0100
0000
0010
0000
0100
0000
,  // measure 51
0010
0000
0000
0000
1000
0000
0000
0010
0000
0000
1000
0000
0001
0000
1000
0000
,  // measure 52
0001
0000
1000
0200
0000
2300
0000
3020
,  // measure 53
0000
0230
0000
0302
0000
2003
0000
3010
,  // measure 54
0100
0000
0001
0000
0000
1000
0000
1000
,  // measure 55
0000
0001
0100
0001
1000
0000
0001
0000
,  // measure 56
0020
0000
0030
0200
0000
0320
0000
0230
,  // measure 57
0000
0300
0000
0000
1000
0000
0100
0000
,  // measure 58
0020
0000
0030
0002
0000
2003
0000
3002
,  // measure 59
0000
0003
0100
0010
0100
0000
0010
0000
,  // measure 60
2000
0000
3000
0002
0000
2003
0000
3002
,  // measure 61
0000
0000
0003
0000
0010
0000
0000
0000
0001
0000
0000
0010
0000
0000
0100
0000
,  // measure 62
2000
3020
0230
0320
,  // measure 63
2030
3002
0023
0032
,  // measure 64
0203
2300
3200
0320
,  // measure 65
0032
0023
2030
3200
,  // measure 66
0302
0203
0320
0032
,  // measure 67
1003
0000
0001
0000
2002
0000
0000
3003
;

//---------------dance-single - ----------------
#NOTES:
     dance-single:
     :
     Easy:
     4:
     0.288,0.299,0.027,0.000,0.000,224.000,3.000,0.000,0.000,0.000,0.000,0.288,0.299,0.027,0.000,0.000,224.000,3.000,0.000,0.000,0.000,0.000: // measure 0
0000
0000
0000
0000
,  // measure 1
0000
0000
0000
0000
,  // measure 2
0000
0000
0000
0000
,  // measure 3
0000
0000
0000
0000
,  // measure 4
1000
0000
0000
0010
,  // measure 5
0100
0000
0000
0001
,  // measure 6
0010
0000
0000
0001
,  // measure 7
1000
0000
0010
0100
,  // measure 8
0010
0000
1000
0000
,  // measure 9
0001
0000
1000
0001
,  // measure 10
1000
0100
0010
0001
,  // measure 11
0100
0000
0010
0010
,  // measure 12
0010
0000
1000
0000
,  // measure 13
0001
0001
1000
1000
,  // measure 14
0100
0000
1000
0000
,  // measure 15
0001
0001
0001
1000
,  // measure 16
1000
1000
0100
0100
,  // measure 17
0100
0010
0100
0010
,  // measure 18
0001
0010
0001
0100
,  // measure 19
0010
0010
0010
0010
,  // measure 20
1000
0100
1000
0010
,  // measure 21
0100
0100
0100
0001
,  // measure 22
0010
0010
0010
0001
,  // measure 23
0100
0010
0100
0010
,  // measure 24
1000
0001
1000
0001
,  // measure 25
0100
0010
0100
0010
,  // measure 26
1000
0010
1000
0010
,  // measure 27
0100
0001
0100
0001
,  // measure 28
1000
0000
0100
0000
,  // measure 29
0010
0000
0001
0000
,  // measure 30
0100
0001
1000
0001
,  // measure 31
0010
0100
1000
0001
,  // measure 32
1000
1000
1000
0010
,  // measure 33
0100
0100
0100
0001
,  // measure 34
0010
0010
0010
0100
,  // measure 35
1000
1000
1000
0001
,  // measure 36
1000
0000
0010
0000
,  // measure 37
1000
0000
0100
0000
,  // measure 38
0010
0001
0010
0001
,  // measure 39
1000
0001
1000
0001
,  // measure 40
0100
0100
0100
0100
,  // measure 41
0001
0001
0001
0001
,  // measure 42
1000
1000
1000
1000
,  // measure 43
0010
0010
0010
0010
,  // measure 44
1000
0000
0001
0000
,  // measure 45
0010
0000
0100
0000
,  // measure 46
1000
0010
1000
0100
,  // measure 47
0010
0001
0100
0001
,  // measure 48
0100
0001
0010
0100
,  // measure 49
0100
1000
0010
1000
,  // measure 50
0001
0001
1000
0010
,  // measure 51
0010
1000
0100
1000
,  // measure 52
0001
0000
1000
0000
,  // measure 53
0100
0000
0010
0000
,  // measure 54
0001
0001
1000
1000
,  // measure 55
0010
0100
0001
1000
,  // measure 56
0001
0001
0001
0001
,  // measure 57
0100
0100
0100
0100
,  // measure 58
0010
0010
0010
0010
,  // measure 59
1000
1000
1000
1000
,  // measure 60
0100
1000
0100
1000
,  // measure 61
0001
0010
0001
0010
,  // measure 62
0001
0100
0001
0100
,  // measure 63
0010
1000
0010
1000
,  // measure 64
0001
1000
0001
1000
,  // measure 65
0100
1000
0100
1000
,  // measure 66
0100
0010
0100
0010
,  // measure 67
0110
0110
0110
0000
;

//---------------dance-single - ----------------
#NOTES:
     dance-single:
     :
     Beginner:
     2:
     0.123,0.150,0.000,0.000,0.000,97.000,0.000,0.000,0.000,0.000,0.000,0.123,0.150,0.000,0.000,0.000,97.000,0.000,0.000,0.000,0.000,0.000:
0000
0000
0000
0000
,
0000
0000
0000
0000
,
0000
0000
0000
0000
,
0000
0000
0000
0000
,
0001
0000
0000
0000
,
0100
0000
0000
0000
,
0010
0000
0000
0000
,
1000
0000
0001
0000
,
1000
0000
0000
0000
,
0100
0000
0000
0000
,
0010
0000
0010
0000
,
0010
0000
0001
0000
,
0001
0000
0000
0000
,
1000
0000
0000
0000
,
0010
0000
0100
0000
,
0010
0000
0010
0000
,
1000
0000
1000
0000
,
0001
0000
0001
0000
,
0010
0000
0000
0000
,
0100
0000
0100
0000
,
0100
0000
0000
0000
,
1000
0000
1000
0000
,
1000
0000
0000
0000
,
0001
0000
0001
0000
,
0001
0000
0000
0100
,
0100
0000
0000
0010
,
0010
0000
0000
1000
,
1000
0000
0000
0001
,
0001
0000
1000
0000
,
0001
0000
1000
0000
,
0100
0000
0010
0000
,
0100
0000
0000
0000
,
0010
0000
0000
0001
,
0001
0000
0000
1000
,
1000
1000
0000
0010
,
0010
0000
0000
1000
,
1000
0000
0100
0000
,
1000
0000
0010
0000
,
0100
0000
0100
0000
,
0001
0000
0001
0000
,
0010
0000
0000
0000
,
0100
0000
0000
0000
,
1000
0000
0000
0000
,
0001
0000
0000
0000
,
1000
0000
0001
0000
,
0100
0000
0001
0000
,
0010
0000
0000
0000
,
0100
0000
0000
0000
,
1000
0000
0000
0010
,
0010
0000
0000
0100
,
0100
0100
0000
0001
,
0001
0000
0000
0000
,
0010
0000
0001
0000
,
0100
0000
0001
0000
,
1000
0000
0000
0000
,
0001
0000
0000
0000
,
1000
0000
0000
0000
,
0000
0000
0000
0000
,
0010
0000
0000
0000
,
0000
0000
0000
0000
,
0100
0000
0000
0000
,
0000
0000
0000
0000
,
0001
0000
0000
0000
,
0010
0000
0000
0000
,
0100
0000
0000
0000
,
0010
0000
0000
0000
,
0100
0000
0000
0000
,
0010
0010
0010
0000
;
