#TITLE:Got The Rhythm;
#SUBTITLE:;
#ARTIST:Fracus & Darwin feat. Becca Hossany;
#TITLETRANSLIT:;
#SUBTITLETRANSLIT:;
#ARTISTTRANSLIT:;
#GENRE:;
#CREDIT:;
#BANNER:;
#BACKGROUND:;
#LYRICSPATH:;
#CDTITLE:;
#MUSIC:Got The Rhythm.ogg;
#OFFSET:-4.084;
#SAMPLESTART:43.905;
#SAMPLELENGTH:11.991;
#SELECTABLE:YES;
#BPMS:0.000=175.000
;
#STOPS:
;
#BGCHANGES:;
#KEYSOUNDS:;
#ATTACKS:;

//---------------dance-single - ----------------
#NOTES:
     dance-single:
     :
     Beginner:
     2:
     0.158,0.169,0.114,0.000,0.000,113.000,13.000,0.000,0.000,0.000,0.000,0.158,0.169,0.114,0.000,0.000,113.000,13.000,0.000,0.000,0.000,0.000:
0000
0000
0000
0000
,
0000
0000
0000
0000
,
0000
0000
0000
0000
,
0000
0000
0000
0000
,
0000
0000
0000
0000
,
1000
0000
0000
0000
,
0001
0000
0000
0000
,
1000
0000
0000
0000
,
0001
0000
0000
0000
,
0010
0000
0000
0000
,
0010
0000
0000
0000
,
0100
0000
0000
0000
,
0100
0000
0000
0000
,
0001
0000
0000
0001
,
0000
0000
0000
0000
,
1000
0000
0001
0000
,
1000
0000
0000
0000
,
1000
0000
0000
1000
,
0000
0000
0000
0000
,
0001
0000
1000
0000
,
0001
0000
0000
0000
,
0010
0000
0100
0000
,
0010
0000
0000
0000
,
0100
0000
0100
0000
,
0100
0000
0000
0000
,
0010
0000
0100
0000
,
0010
0000
0000
0000
,
0100
0000
0100
0000
,
0100
0000
0000
0000
,
1000
0000
0001
0000
,
1000
0000
1000
0000
,
0001
0000
1000
0000
,
0001
0000
0001
0000
,
1000
0000
0001
0000
,
1000
0000
0001
0000
,
0001
0000
1000
0000
,
0001
0000
1000
0000
,
1001
0000
0000
0000
,
0100
0000
0100
0000
,
0110
0000
0000
0000
,
0010
0000
0010
0000
,
0110
0000
0000
0000
,
0001
0000
0000
0000
,
1000
0000
0000
0000
,
1001
0000
0000
0000
,
0001
0000
0001
0000
,
1000
0000
0001
0000
,
1000
0000
1000
0000
,
0001
0000
0000
0000
,
1000
0000
0001
0000
,
0001
0000
1000
0000
,
0001
0000
1000
0000
,
0001
0000
0000
0000
,
0100
0000
0100
0000
,
0010
0000
0010
0000
,
0100
0000
0010
0000
,
0100
0000
0000
0000
,
0010
0000
0010
0000
,
0100
0000
0100
0000
,
0010
0000
0100
0000
,
0010
0000
0000
0000
,
1000
0000
0001
0000
,
1001
0000
0000
0000
,
0001
0000
1000
0000
,
1001
0000
0000
0000
,
0100
0000
0100
0000
,
0110
0000
0000
0000
,
0010
0000
0010
0000
,
0110
0000
0000
0000
,
1000
0001
1000
0000
,
1001
0000
0000
0000
,
0001
1000
0001
0000
,
1001
0000
0000
0000
,
0100
0100
0100
0000
,
0110
0000
0000
0000
,
0010
0010
0010
0000
,
0110
0000
0000
0000
,
1001
0000
0000
0000
;

//---------------dance-single - ----------------
#NOTES:
     dance-single:
     :
     Easy:
     4:
     0.295,0.304,0.149,0.123,0.000,204.000,17.000,14.000,0.000,0.000,0.000,0.295,0.304,0.149,0.123,0.000,204.000,17.000,14.000,0.000,0.000,0.000:
0000
0000
0000
0000
,
0001
0000
0000
0000
,
1000
0000
0000
0000
,
0001
0000
0000
0000
,
1000
0000
0000
0000
,
0001
0000
0100
0000
,
0001
0000
0000
0000
,
1000
0000
0100
0000
,
1000
0000
0000
0000
,
0010
0000
0010
0000
,
0100
0000
0000
0000
,
0100
0000
0100
0000
,
0020
0000
0030
0000
,
1000
0100
1000
0100
,
0001
0000
0100
0000
,
0001
0100
0001
0100
,
1000
0000
0001
0000
,
1000
0010
0100
0010
,
1000
0000
0001
0000
,
0001
0010
0100
0010
,
0001
0000
1000
0000
,
0001
0100
1000
0100
,
0002
0000
1003
0000
,
1000
0100
0001
0100
,
2000
0000
3001
0000
,
1000
0010
0100
0010
,
0001
0000
0010
0000
,
1000
0100
0010
0100
,
0002
0000
0003
0000
,
0100
1000
0001
0100
,
0010
0000
0110
0000
,
0010
1000
0001
0010
,
0100
0000
0110
0110
,
0010
0001
1000
0010
,
0100
0000
1001
0000
,
0001
1000
0100
0001
,
0100
0010
0110
0110
,
1001
0000
0010
0000
,
0100
0000
0110
0110
,
1001
0000
0001
0000
,
1000
0000
1001
1001
,
0101
0000
0010
0000
,
1000
0000
0100
0000
,
0010
0000
0001
0000
,
1000
0000
0020
0000
,
0130
0001
0010
0001
,
0100
0000
0010
0000
,
1000
1000
0100
0000
,
0001
0100
1000
0000
,
0001
0100
0010
1000
,
0001
0000
0100
0000
,
0001
0001
0010
0000
,
1000
0010
0001
0000
,
0001
1000
0010
0100
,
0001
0000
1001
0000
,
0001
0010
0001
1000
,
0100
0000
0110
0000
,
0100
1000
0010
1000
,
0100
0000
1001
0000
,
0010
0001
0100
0010
,
0200
0000
0300
0000
,
0001
0100
0001
0010
,
0002
0000
1003
0000
,
1000
0100
1000
0010
,
2000
0000
3001
0000
,
0100
0001
0100
1000
,
0200
0000
0310
0000
,
0010
0001
0010
1000
,
0020
0000
0130
0000
,
0001
0010
1000
0100
,
0020
0000
0130
0000
,
1000
0010
0001
0100
,
0020
0000
0130
0000
,
0001
0010
1000
0100
,
0002
0000
1003
0000
,
1000
0010
0001
0100
,
2000
0000
3001
0000
,
0110
0000
0000
0000
;

//---------------dance-single - ----------------
#NOTES:
     dance-single:
     :
     Medium:
     6:
     0.404,0.405,0.158,0.132,0.000,289.000,18.000,15.000,0.000,0.000,0.000,0.404,0.405,0.158,0.132,0.000,289.000,18.000,15.000,0.000,0.000,0.000: // measure 0
0000
0000
0000
0000
,  // measure 1
1000
0000
0000
1000
0000
0000
0000
0000
,  // measure 2
0100
0000
0000
0100
0000
0000
0000
0000
,  // measure 3
0001
0000
0000
0001
0000
0000
0000
0000
,  // measure 4
0010
0000
0000
0010
0000
0000
0000
0000
,  // measure 5
1100
0000
0000
0100
0000
0000
0010
0000
,  // measure 6
0001
0000
0000
0001
0000
0000
0000
0000
,  // measure 7
1000
0000
0000
1000
0000
0000
0001
0000
,  // measure 8
0100
0000
0000
0100
0000
0000
0000
0000
,  // measure 9
0101
0000
0000
0001
0000
0000
0100
0000
,  // measure 10
0010
0000
0000
1000
0000
0000
0000
0000
,  // measure 11
0001
0000
0000
1000
0000
0000
0100
0000
,  // measure 12
0020
0000
0000
0030
,  // measure 13
0001
0000
0100
0001
0000
0000
0010
0000
,  // measure 14
0100
0000
1000
0100
0000
0000
0000
0000
,  // measure 15
0001
0000
1000
0010
0000
0100
0001
0000
,  // measure 16
0010
0000
0100
1000
0000
0000
0000
0000
,  // measure 17
0001
0000
1000
0010
0000
0000
0100
0000
,  // measure 18
1000
0000
0100
0001
0000
0000
0000
0000
,  // measure 19
0010
0000
0001
0100
0000
0010
1000
0000
,  // measure 20
0100
0000
0010
0100
0000
0000
0000
0000
,  // measure 21
1000
0100
1000
0100
0000
0010
0001
0000
,  // measure 22
0100
0000
0000
0100
0000
0000
0000
0000
,  // measure 23
0001
0100
0001
0100
0000
0010
1000
0000
,  // measure 24
0001
0000
0000
0100
0000
0000
0000
0000
,  // measure 25
0001
0010
0001
0010
0000
0100
1000
0000
,  // measure 26
1000
0000
0000
0100
0000
0000
0000
0000
,  // measure 27
1000
0010
1000
0010
0000
0001
0010
0000
,  // measure 28
0220
0000
0000
0330
,  // measure 29
0010
0000
0001
0010
1000
0000
0010
0000
,  // measure 30
0001
0000
0100
1000
0000
0100
0001
0000
,  // measure 31
0100
0000
1000
0100
0001
0000
0010
0000
,  // measure 32
0001
0100
0010
0000
1000
0100
0010
0000
,  // measure 33
0110
0000
0001
0100
1000
0000
0010
0000
,  // measure 34
0100
0000
1000
0100
0000
0001
0100
0000
,  // measure 35
0010
0000
1000
0010
0001
0000
0010
0000
,  // measure 36
0100
0000
1001
0000
0001
0100
1000
0100
,  // measure 37
0001
0000
0000
0000
,  // measure 38
0110
0000
0000
0000
1000
0100
0001
0100
,  // measure 39
1000
0000
0000
0000
,  // measure 40
1001
0000
0000
0000
0010
1000
0010
0100
,  // measure 41
0010
0000
0000
0100
0000
0000
0100
0000
,  // measure 42
0101
0000
0000
0001
0000
0000
0010
0000
,  // measure 43
0110
0000
0100
1000
0000
0001
0100
0000
,  // measure 44
0020
0000
0000
0030
,  // measure 45
1000
0001
0100
0010
,  // measure 46
1000
0000
0001
0000
0100
1000
0100
0000
,  // measure 47
0001
0000
0010
0001
0000
0010
1000
0000
,  // measure 48
0010
0000
0001
0000
0100
0000
0010
1000
,  // measure 49
0001
0010
0100
0001
,  // measure 50
0100
0000
1000
0000
0001
0100
0001
0000
,  // measure 51
0100
0000
1000
0100
0000
0001
0100
0000
,  // measure 52
0010
1000
0100
0110
,  // measure 53
0001
0010
0100
0000
0001
0010
0100
1000
,  // measure 54
0020
0000
0000
0130
0000
0000
0000
0000
,  // measure 55
1000
0001
0100
0000
1000
0001
0100
1000
,  // measure 56
0100
0000
0000
0100
0000
0000
0000
0000
,  // measure 57
0011
1010
1100
0101
,  // measure 58
0001
0000
0010
0000
0100
1000
0001
0100
,  // measure 59
0010
0000
0000
0000
0100
0000
0000
2002
,  // measure 60
0000
0000
0000
3003
,  // measure 61
1000
0010
1000
0000
0001
0100
0001
0000
,  // measure 62
0020
0000
0130
0000
,  // measure 63
0001
0001
0010
0010
0100
0000
1000
0000
,  // measure 64
0020
0000
0130
0000
,  // measure 65
0001
0100
0001
0000
1000
0100
1000
0000
,  // measure 66
0020
0000
0031
0000
,  // measure 67
1000
1000
0010
0010
0100
0000
0001
0000
,  // measure 68
0020
0000
0130
0000
,  // measure 69
0001
1000
0100
0000
0001
1000
0100
0010
,  // measure 70
0002
0000
1003
0000
,  // measure 71
1000
0010
1000
0010
0100
0000
0001
0000
,  // measure 72
0102
0000
0103
0000
,  // measure 73
0001
0100
1000
0000
0001
0100
1000
0100
,  // measure 74
0020
0000
1030
0000
,  // measure 75
0001
0010
0001
0010
0100
0000
0100
0000
,  // measure 76
2100
0000
3100
0000
,  // measure 77
1001
0000
0000
0000
;

//---------------dance-single - ----------------
#NOTES:
     dance-single:
     :
     Hard:
     8:
     0.558,0.507,0.281,0.368,0.048,371.000,32.000,42.000,0.000,0.000,0.000,0.558,0.507,0.281,0.368,0.048,371.000,32.000,42.000,0.000,0.000,0.000: // measure 0
0000
0000
0000
0000
,  // measure 1
0020
0000
0000
0031
0000
0000
0000
0000
,  // measure 2
0002
0000
0000
0103
0000
0000
0000
0000
,  // measure 3
0200
0000
0000
1300
0000
0000
0000
0000
,  // measure 4
2000
0000
0000
3010
0000
0000
0000
0000
,  // measure 5
2000
0000
3100
0020
0000
0000
0031
0000
,  // measure 6
0101
0000
0000
1100
0000
0000
1000
0000
,  // measure 7
0002
0000
0103
0020
0000
0000
1030
0000
,  // measure 8
0011
0000
0000
1010
0000
0000
0001
0000
,  // measure 9
2000
0000
3100
0002
0000
0000
0103
0000
,  // measure 10
1100
0000
0000
0011
0000
0000
0001
0000
,  // measure 11
2000
0000
3010
0200
0000
0301
0010
0000
,  // measure 12
0220
0000
0000
0330
,  // measure 13
0001
1000
0001
0010
0000
0100
1000
0010
,  // measure 14
0100
1000
0100
0001
1000
0000
0010
1000
,  // measure 15
0100
0001
0100
0010
0000
0001
0010
0100
,  // measure 16
1000
0010
1000
0001
0010
0000
0110
0000
,  // measure 17
0010
0001
0100
1000
0000
0100
0010
1000
,  // measure 18
0010
0100
0001
1000
0100
0000
0010
0001
,  // measure 19
1000
0100
0001
0100
0000
0010
0001
1000
,  // measure 20
0100
0010
0001
0100
1000
0000
1001
0000
,  // measure 21
0100
0010
1000
0100
0000
0010
0001
1000
,  // measure 22
0020
0000
0130
0002
0000
0013
0100
0000
,  // measure 23
0001
0100
1000
0100
0000
0010
0001
0010
,  // measure 24
0100
0010
0001
1000
0010
0000
0110
0000
,  // measure 25
0001
0100
0010
1000
0000
0001
0010
0001
,  // measure 26
0200
0000
0310
2000
0000
3100
0010
0000
,  // measure 27
0001
1000
0010
1000
0000
0001
1000
0100
,  // measure 28
0020
0000
0000
0100
0000
0000
0130
0000
,  // measure 29
0001
0100
0010
0001
1000
0100
0010
1000
,  // measure 30
0001
0000
1001
1001
,  // measure 31
1000
0100
0010
1000
0010
0001
0100
0000
,  // measure 32
0010
0001
0100
1000
0100
0001
1000
0000
,  // measure 33
1000
0100
0010
0001
0100
0010
0001
0010
,  // measure 34
0100
0000
0110
0110
,  // measure 35
0010
0100
0001
1000
0100
0010
1000
0000
,  // measure 36
1000
0000
0010
0000
0001
0000
0100
0000
0010
0000
0000
0010
0000
0000
0100
0000
,  // measure 37
0120
0000
1000
1000
0000
0000
0031
0000
,  // measure 38
0101
0000
0000
0000
0000
0000
0000
0000
0010
0000
0000
0010
0000
0000
0100
0000
,  // measure 39
0120
0000
0001
0001
0000
0000
1030
0000
,  // measure 40
1010
0000
0000
0000
0000
0000
0000
0000
0100
0000
0000
0100
0000
0000
0010
0000
,  // measure 41
0210
0000
0001
0001
0000
0000
0010
0000
,  // measure 42
1000
0000
0001
0301
0000
0000
0010
0000
,  // measure 43
1100
0000
1000
0001
0000
0100
0010
0000
,  // measure 44
2002
0000
3003
0000
,  // measure 45
0001
0100
1000
0100
0001
0010
1000
0000
,  // measure 46
0010
0000
0100
0000
1000
0100
0001
0000
,  // measure 47
0100
1000
0100
0010
0001
0100
1000
0000
,  // measure 48
0100
0000
0001
0000
1000
0010
0001
0010
,  // measure 49
1000
0100
1000
0000
0001
0100
0001
0000
,  // measure 50
0010
0000
0100
0000
1000
0100
0001
0000
,  // measure 51
0010
0001
0100
0010
1000
0001
0010
0000
,  // measure 52
0100
0000
0010
0000
0001
0010
1000
0000
,  // measure 53
0010
0001
0100
0010
1000
0010
0001
0010
,  // measure 54
0200
0000
0000
0310
0000
0000
1001
0000
,  // measure 55
0010
0001
1000
0010
0100
0001
0010
0100
,  // measure 56
1000
0000
0000
1000
0000
0000
1001
0000
,  // measure 57
0001
0100
0001
0100
1000
0100
1000
0100
,  // measure 58
0001
0010
0100
0000
1000
0010
1000
0001
,  // measure 59
0100
0010
1000
0001
,  // measure 60
0020
0000
0000
0030
,  // measure 61
0010
0100
0001
0000
0010
0100
1000
0000
,  // measure 62
2002
0000
3003
0000
,  // measure 63
0001
0000
1000
0010
1000
0000
0001
0010
0001
0000
0000
0000
0000
0000
0000
0000
,  // measure 64
0220
0000
0330
0000
,  // measure 65
0010
1000
0001
0000
0010
0001
1000
0000
,  // measure 66
2002
0000
3003
0000
,  // measure 67
1000
0000
0001
0100
0001
0000
1000
0010
1000
0000
0000
0000
0000
0000
0000
0000
,  // measure 68
2002
0000
3003
0000
,  // measure 69
0010
0001
0100
0010
1000
0001
0010
0000
,  // measure 70
0220
0000
0330
0000
,  // measure 71
0001
0000
0100
0010
1000
0000
0100
0010
0001
0000
0000
0000
0100
0000
0000
0000
,  // measure 72
2002
0000
3003
0000
,  // measure 73
0001
0100
0010
0001
1000
0100
0001
0000
,  // measure 74
2002
0000
3003
0000
,  // measure 75
0010
0000
1000
0001
0100
0000
0001
1000
0100
0000
0000
0000
0010
0000
0000
0000
,  // measure 76
2002
0000
3003
0000
,  // measure 77
0110
0000
0000
0000
;

//---------------dance-double - ----------------
#NOTES:
     dance-double:
     :
     Easy:
     4:
     0.301,0.304,0.184,0.123,0.000,205.000,21.000,14.000,0.000,0.000,0.000,0.301,0.304,0.184,0.123,0.000,205.000,21.000,14.000,0.000,0.000,0.000:
00000000
00000000
00000000
00000000
,
00100000
00000000
00000000
00000000
,
01000000
00000000
00000000
00000000
,
00010000
00000000
00000000
00000000
,
01000000
00000000
00000000
00000000
,
00001000
00000000
01000000
00000000
,
00001000
00000000
00010000
00000000
,
00000100
00000000
00000010
00000000
,
00000001
00000000
00000001
00000000
,
00000100
00000000
00000010
00000000
,
00010000
00000000
00001000
00000000
,
00100000
00000000
01000000
00000000
,
20000000
00000000
30000000
00000000
,
00010000
00100000
00001000
00010000
,
00000010
00000000
00000110
00000000
,
00000001
00000100
00001000
00000000
,
00000101
00000000
00001010
00000000
,
00000100
00010000
00001000
01000000
,
00100000
00000000
01100000
00000000
,
10000000
00100000
01000000
00000000
,
00010000
00000000
10010000
00000000
,
01000000
00001000
00100000
00010000
,
00000010
00000100
00001000
00000000
,
00000001
00000100
00000010
00000001
,
00001000
00010000
00001000
00000000
,
00001000
00010000
01000000
00010000
,
00001000
01000000
00100000
00000000
,
10000000
00010000
01000000
00010000
,
00200000
00000000
01300000
00000000
,
10000000
01000000
00100000
00000000
,
00001000
00000000
00011000
00000000
,
00000010
00000001
00000100
00000010
,
00010000
00001000
01000000
00010000
,
00100000
00001000
00000010
00000000
,
00000001
00000000
00001001
00000000
,
00000001
00001000
00000100
00010000
,
00001000
01000000
01100000
10010000
,
01100000
00000000
01000000
00000000
,
00010000
00000000
00110000
00011000
,
00110000
00000000
00001000
00000000
,
00000100
00000000
00001100
00010100
,
00001100
00000000
00000010
00000000
,
00000001
00001000
00000010
00000000
,
00001000
00000000
01000000
00000000
,
20000000
00000000
30000000
00000000
,
01000000
01000000
10000000
01000000
,
00100000
00010000
01000000
00000000
,
00001000
00010000
00001000
00000100
,
00000010
00001000
00000100
00000000
,
00000001
00000010
00000001
00001000
,
00000010
00000010
00000100
00000000
,
00010000
10000000
00100000
10000000
,
01000000
00100000
00100000
00000000
,
01100000
00010000
00000100
00000010
,
00002000
00000010
00003010
00000000
,
00000001
00001000
00000010
00001000
,
00000101
00000000
00001100
00000000
,
00000100
00010000
00001000
00100000
,
00010000
01000000
00001000
00000000
,
00010000
00100000
10000000
00000000
,
02200000
00000000
03300000
00000000
,
10000000
01000000
00100000
00010000
,
00002000
00000000
00003000
00000000
,
00000001
00000010
00000100
00001000
,
00020000
00000000
00030000
00000000
,
10000000
00100000
01000000
00001000
,
00020000
00000000
00030000
00000000
,
00000001
00000100
00000010
00010000
,
00002000
00000000
00003000
00000000
,
00100000
10000000
01000000
00001000
,
00020000
00000000
00030000
00000000
,
00000010
00000001
00000100
00010000
,
00002000
00000000
00003000
00000000
,
00100000
01000000
00001000
00010000
,
00000200
00000000
00000300
00000000
,
00000010
00000100
00010000
00001000
,
02000000
00000000
03000000
00000000
,
00011000
00000000
00000000
00000000
;

//---------------dance-double - ----------------
#NOTES:
     dance-double:
     :
     Medium:
     7:
     0.477,0.439,0.193,0.307,0.013,324.000,22.000,35.000,0.000,0.000,0.000,0.477,0.439,0.193,0.307,0.013,324.000,22.000,35.000,0.000,0.000,0.000:
00000000
00000000
00000000
00000000
,
00000010
00000000
00000000
00000010
00000000
00000000
00000000
00000000
,
00001000
00000000
00000000
00001000
00000000
00000000
00000000
00000000
,
00010000
00000000
00000000
00010000
00000000
00000000
00000000
00000000
,
01000000
00000000
00000000
01000000
00000000
00000000
00000000
00000000
,
00100000
10000000
00010000
00100000
,
01000000
00000000
00000000
01000000
00000000
00000000
00000000
00000000
,
10000000
01000000
00010000
00000100
,
00001000
00000000
00000000
00001000
00000000
00000000
00000000
00000000
,
00000001
00000100
00001000
00000100
,
00000010
00000000
00000000
00000010
00000000
00000000
00000000
00000000
,
00000010
00000000
00001000
00000000
00100000
00000000
00000000
02200000
,
00000000
00000000
00000000
03300000
,
01000000
00010000
01000000
00010000
00000000
00000000
00100000
01000000
,
00100000
01000000
00000000
00000000
10010000
00000000
00001000
00010000
,
00001000
00000100
00001000
00000100
00000000
00000000
00000010
00001000
,
00000010
00001000
00000000
00000000
00001001
00000000
00000100
00001000
,
00000100
00001000
00000100
00010000
00000000
00000000
00001000
00100000
,
00001000
00100000
00000000
00000000
01100000
00000000
10000000
01000000
,
10000000
01000000
00100000
01000000
00000000
00000000
00010000
00001000
,
00010000
00001000
00000000
00000000
00011000
00000000
00000000
00000000
,
00000001
00000100
00000010
00001000
00000000
00000010
00010000
00001000
,
00200000
00000000
00000000
02300000
00000000
00000000
03000000
00000000
,
00100000
00010000
00100000
01000000
00000000
10000000
01000000
00010000
,
00001000
00010000
00000000
00001000
01000000
00000000
01100000
00000000
,
10000000
01000000
00100000
00010000
00000000
10000000
01000000
00001000
,
00000200
00000000
00000000
00000320
00000000
00000000
00000030
00000000
,
00000001
00000100
00001000
00000100
00000000
00000010
00010000
00001000
,
00010000
00000010
00000000
00001000
00000100
00000000
00001100
00000000
,
00000100
00010000
00000010
00010000
00000100
00000000
00010000
00001000
,
00011000
00000000
00100000
00100000
,
01000000
00001000
00100000
00001000
01000000
00000000
00001000
00010000
,
00011000
00000000
00000100
00000100
,
00000010
00010000
00000100
00010000
00000010
00000000
00010000
00001000
,
00011000
00000000
01000000
01000000
,
00100000
00001000
01000000
00001000
00100000
00000000
00001000
00010000
,
00011000
00000000
00000000
00000000
00000000
00000000
00000000
00000000
00000001
00000000
00000000
00000001
00000000
00000000
00000100
00000000
,
00000010
00000000
00010000
00001000
00000000
01000000
00100000
00000000
,
10000000
00000000
00000000
00000000
00000000
00000000
00000000
00000000
10000000
00000000
00000000
10000000
00000000
00000000
01000000
00000000
,
00100000
00000000
00001000
00010000
00000000
00000010
00000100
00000000
,
00000001
00000000
00000000
00000000
00000000
00000000
00000000
00000000
00000010
00000000
00000000
00000010
00000000
00000000
00000100
00000000
,
00001000
00000000
00000001
00000100
00000000
00000010
00001000
00000000
,
00010000
00000000
00100000
01000000
00000000
10000000
00010000
00000000
,
01000000
00000000
01000000
00001000
00000000
00010000
00001000
00000000
,
00022000
00000000
00000000
00033000
,
00001000
01000000
00001000
00100000
00001000
00010000
00000100
00010000
,
00000010
00010000
00001000
00100000
00001000
01000000
00001000
00000000
,
00100000
00000000
01000000
10000000
00000000
01000000
10000000
00000000
,
00100000
00000000
01000000
00000000
00010000
00001000
00000100
00000000
,
00000010
00000001
00000100
00000010
,
00001000
00000000
00010000
00000000
00001000
00010000
01000000
00000000
,
00100000
00000000
10000000
01000000
00000000
10000000
01000000
00000000
,
00100000
00000000
00001000
00000000
00010000
00001000
00010000
00000000
,
00000001
00000100
00000010
00001000
00000000
00000001
00001000
00000100
,
00000020
00000000
00000000
00000130
00000000
00000000
00000000
00000000
,
00010000
00000100
00000010
00000001
00000000
00000100
00000010
00001000
,
00200000
00000000
00000000
20300000
00000000
00000000
30000000
00000000
,
12000000
03200000
00320000
00032000
,
00003020
00000000
00000000
00000000
00000130
00000001
00000010
00000001
,
00000200
00000000
00000000
00000000
00000302
00000000
00000000
00002000
,
00000000
00000000
00000000
00003003
,
00000010
00001000
00000100
00000000
00000100
00010000
00001000
00000000
,
00022000
00000000
00033000
00000000
,
00001000
01000000
00100000
00000000
10000000
00010000
00100000
00000000
,
02200000
00000000
03300000
00000000
,
00010000
00000010
00000100
00000000
00000001
00000100
00001000
00000000
,
00002002
00000000
00003003
00000000
,
00000100
00001000
01000000
00000000
00100000
10000000
01000000
00000000
,
02200000
00000000
03300000
00000000
,
01000000
00100000
00010000
00000010
00000100
00001000
00000001
00000000
,
00000202
00000000
00000303
00000000
,
00000010
00001000
00010000
01000000
00001000
00100000
01000000
00000000
,
22000000
00000000
33000000
00000000
,
00100000
01000000
00001000
00010000
00000100
00000010
00000001
00000000
,
00000022
00000000
00000033
00000000
,
00000100
00000010
00010000
00001000
01000000
00100000
10000000
00000000
,
20200000
00000000
30300000
00000000
,
10010000
00000000
00000000
00000000
;

//---------------dance-double - ----------------
#NOTES:
     dance-double:
     :
     Hard:
     9:
     0.579,0.540,0.395,0.263,0.000,387.000,45.000,30.000,0.000,0.000,0.000,0.579,0.540,0.395,0.263,0.000,387.000,45.000,30.000,0.000,0.000,0.000:
00000000
00000000
00000000
00000000
,
00000011
00000000
00000000
00001010
00000000
00000000
00000000
00000000
,
00110000
00000000
00000000
10100000
00000000
00000000
00000000
00000000
,
11000000
00000000
00000000
01010000
00000000
00000000
00000000
00000000
,
00001100
00000000
00000000
00000101
00000000
00000000
00000000
00000000
,
00000001
00000100
00000010
00001000
00000000
00000001
00000100
00001000
,
00020000
00000000
00000000
01030000
00000000
00000000
11000000
00000000
,
10000000
00100000
01000000
00010000
00000000
10000000
01000000
00010000
,
00002000
00000000
00000000
00023000
00000000
00000000
00031000
00000000
,
00001010
00001010
00011000
00011000
,
01000000
10000000
00100000
01000000
00000000
00000000
00000000
00000000
,
01000000
00001000
00010000
00000100
00000000
00000000
00000010
00000000
,
00002002
00000000
00000000
00003003
,
00000001
00000010
00000001
00000100
00000000
00000000
00001000
00010000
,
00001000
00000100
00001000
00100000
01000000
00000000
01100000
00000000
,
00010000
10000000
01000000
00010000
00000000
00000000
01000000
00010000
,
00001000
00000010
00000100
00001000
00000001
00000000
00001001
00000000
,
00000010
00001000
00000100
00001000
00000000
00000000
00000100
00010000
,
00001000
01000000
00100000
10000000
01000000
00000000
01100000
00000000
,
01000000
00010000
00000100
00000001
00000000
00000000
00001000
00000010
,
00000001
00000100
00000010
00001000
00000001
00000000
00001001
00000000
,
00000001
00000100
00001000
00100000
00000000
00001000
01000000
00100000
,
10000000
00010000
00001000
00000100
00010000
00000000
00000001
00000100
,
00000001
00001000
00100000
01000000
00000000
00010000
00100000
00001000
,
01000000
00100000
10000000
01000000
00100000
00000000
10010000
00000000
,
00100000
00001000
00000010
00000100
00000000
00001000
00000001
00000100
,
00000010
00000001
00000010
00001000
00000100
00000000
00000100
00010000
,
00001000
01000000
00100000
10000000
00000000
00010000
01000000
00000000
,
02200000
00000000
00000000
03300000
,
01000000
00100000
10000000
01000000
00100000
10000000
00100000
00010000
,
00001000
00000000
00010000
00000000
00000100
00000100
00001100
00000000
,
00000010
00000001
00000100
00000010
00000001
00001000
00010000
00100000
,
01000000
00000000
00010000
00000000
10010000
10010000
11000000
00000000
,
00100000
00001000
01000000
00001000
00010000
00000100
00000010
00000001
,
00001000
00000000
00000010
00000000
00000100
00000100
00000110
00000000
,
00001000
01000000
00100000
10000000
01000000
00010000
00001000
00000000
,
00000010
00000000
00000001
00000000
00000100
00000010
00000100
00000010
,
00001001
00000000
00000001
00000100
00000000
00000100
00010000
00000000
,
01100000
00000000
00000000
00000000
01000000
00100000
01000000
00100000
,
10010000
00000000
10000000
01000000
00000000
01000000
00001000
00000000
,
00000110
00000000
00000000
00000000
00000001
00001000
00000001
00001000
,
00000110
00000000
00000010
00001000
00000000
00001000
00000100
00000000
,
00001100
00000000
00000000
01010000
00000000
00000000
01000000
00000000
,
01100000
00000000
00100000
10000000
00000000
10000000
01000000
00000000
,
01000000
00010000
00001000
00000020
00000000
00000000
00000030
00000000
,
00000100
00000001
00000010
00000100
00000001
00000100
00001000
00000010
,
00001000
00100000
01000000
00000000
00010000
01000000
10000000
01000000
,
00010000
00000000
01000000
00001000
00100000
00001000
01000000
00000000
,
00001000
00000000
00000010
00000000
00000001
00000100
00000010
00000100
,
00000001
00000000
00000100
00000000
00001000
00010000
01000000
00000000
,
10000000
00000000
00010000
00000000
01000000
00010000
00100000
00000000
,
00001000
01000000
00010000
01000000
00001000
01000000
00010000
00000000
,
00001000
00000000
00000100
00000000
00000010
00000010
00001001
00000000
,
00000001
00000100
00000010
00000001
00000010
00001000
00000001
00000100
,
00000020
00000000
00001030
00020000
00000000
00030000
00011000
00000000
,
00010000
00100000
01000000
10000000
00100000
01000000
00010000
10000000
,
00200000
00000000
01300000
00020000
00000000
00000000
10030000
00000000
,
00100000
10000000
01000000
10000000
00100000
01000000
00010000
00000000
,
00100000
00001000
00010000
00000100
00010000
00001000
00000010
00000000
,
00000001
00000100
00000010
00001000
00000100
00000010
00000100
00000000
,
00002002
00000000
00000000
00003003
,
00000001
00000010
00000100
00000010
00000001
00000100
00000010
00000000
,
00002020
00000000
00003030
00000000
,
10000000
00100000
01000000
00100000
10000000
01000000
00100000
00000000
,
00220000
00000000
00330000
00000000
,
00000001
00000100
00001000
00000001
00000010
00001000
00000001
00000000
,
00000220
00000000
00000330
00000000
,
10000000
01000000
00010000
10000000
00100000
00010000
10000000
00000000
,
02200000
00000000
03300000
00000000
,
00001000
00000010
00000100
00000010
00001000
00000100
00000001
00000000
,
00000202
00000000
00000303
00000000
,
00010000
00100000
01000000
00100000
00010000
01000000
10000000
00000000
,
22000000
00000000
33000000
00000000
,
00000010
00000001
00000100
00000010
00001000
00000100
00000001
00000000
,
00000022
00000000
00000033
00000000
,
00100000
10000000
01000000
00100000
00010000
01000000
10000000
00000000
,
20200000
00000000
30300000
00000000
,
11000000
00000000
00000000
00000000
;
